osu file format v14

[General]
AudioFilename: audio.mp3
AudioLeadIn: 0
PreviewTime: 48209
Countdown: 0
SampleSet: Normal
StackLeniency: 0.7
Mode: 1
LetterboxInBreaks: 0
WidescreenStoryboard: 1

[Editor]
DistanceSpacing: 0.5
BeatDivisor: 4
GridSize: 16
TimelineZoom: 0.6999989

[Metadata]
Title:Bing Chilling-ish
TitleUnicode:Bing Chillingぽいな
Artist:Tarako
ArtistUnicode:Tarako
Creator:KennethBBG
Version:Aurorance's Futsuu
Source:
Tags:BlackBN BlackBq Aurorance iRedi kanpakyin 趙喜娜 速度與激情9 兩個禮拜以後 冰淇淋 ice cream fast and furious nine ピノキオピー PINOCCHIOP chinese tarako_official official pop 神っぽいな god-ish godish kami ppoi poi na cover male vocal meme novelty john cena WWE wrestling wrestler professional 音mad otomad
BeatmapID:3838339
BeatmapSetID:1866031

[Difficulty]
HPDrainRate:7.5
CircleSize:3
OverallDifficulty:3.5
ApproachRate:1
SliderMultiplier:1.4
SliderTickRate:1

[Events]
//Background and Video events
0,0,"Background.jpg",0,70
Video,0,"output.mp4"
//Break Periods
//Storyboard Layer 0 (Background)
//Storyboard Layer 1 (Fail)
//Storyboard Layer 2 (Pass)
//Storyboard Layer 3 (Foreground)
//Storyboard Layer 4 (Overlay)
//Storyboard Sound Samples

[TimingPoints]
875,422.535211267606,4,1,0,40,1,0
7635,422.535211267606,4,1,0,40,1,8
7646,422.535211267606,4,1,0,40,1,0
7646,-100,4,1,0,40,0,0
21061,-100,4,1,0,50,0,0
48315,-100,4,1,0,30,0,0
51061,-100,4,1,0,50,0,0
51484,-100,4,1,0,60,0,0
51589,422.535211267606,4,1,0,60,1,1
51589,-100,4,1,0,60,0,1
57504,-100,4,1,0,60,0,0
58349,-100,4,1,0,60,0,1
63419,-100,4,1,0,60,0,0
68490,-100,4,1,0,60,0,1
71870,-100,4,1,0,60,0,0
75250,-100,4,1,0,60,0,1
78526,-100,4,1,0,50,0,1
78631,-100,4,1,0,50,0,0
92047,-100,4,1,0,40,0,0

[HitObjects]
256,192,7646,5,2,0:0:0:0:
256,192,7962,1,2,0:0:0:0:
256,192,8279,1,2,0:0:0:0:
256,192,8702,1,0,0:0:0:0:
256,192,8913,1,0,0:0:0:0:
256,192,9336,1,0,0:0:0:0:
256,192,9653,1,2,0:0:0:0:
256,192,9969,1,8,0:0:0:0:
256,192,10815,1,0,0:0:0:0:
256,192,11026,1,0,0:0:0:0:
256,192,11237,1,2,0:0:0:0:
256,192,11660,1,2,0:0:0:0:
256,192,11871,1,0,0:0:0:0:
256,192,12293,1,0,0:0:0:0:
256,192,12716,1,0,0:0:0:0:
256,192,13033,1,0,0:0:0:0:
256,192,13350,1,2,0:0:0:0:
256,192,14406,1,0,0:0:0:0:
256,192,14829,1,0,0:0:0:0:
256,192,15251,1,2,0:0:0:0:
256,192,15462,1,2,0:0:0:0:
256,192,15674,1,2,0:0:0:0:
256,192,16096,1,0,0:0:0:0:
256,192,16518,1,0,0:0:0:0:
256,192,16941,1,0,0:0:0:0:
256,192,17153,1,0,0:0:0:0:
256,192,17364,1,0,0:0:0:0:
256,192,17786,1,2,0:0:0:0:
256,192,18209,1,0,0:0:0:0:
256,192,18631,1,2,0:0:0:0:
256,192,18843,1,2,0:0:0:0:
256,192,19054,1,0,0:0:0:0:
256,192,19476,1,2,0:0:0:0:
256,192,20533,1,0,0:0:0:0:
256,192,20744,1,2,0:0:0:0:
256,192,21167,5,6,0:0:0:0:
256,192,21589,1,0,0:0:0:0:
256,192,22012,1,0,0:0:0:0:
256,192,22223,1,0,0:0:0:0:
256,192,22434,1,8,0:0:0:0:
256,192,22857,1,2,0:0:0:0:
256,192,23279,1,0,0:0:0:0:
256,192,23702,1,0,0:0:0:0:
256,192,23913,1,2,0:0:0:0:
256,192,24124,1,0,0:0:0:0:
256,192,24547,1,2,0:0:0:0:
256,192,24969,1,0,0:0:0:0:
256,192,25392,1,2,0:0:0:0:
256,192,25603,1,2,0:0:0:0:
256,192,25815,1,10,0:0:0:0:
256,192,26237,1,0,0:0:0:0:
256,192,26448,1,8,0:0:0:0:
256,192,26871,1,8,0:0:0:0:
256,192,27082,1,0,0:0:0:0:
256,192,27927,5,2,0:0:0:0:
256,192,28349,1,8,0:0:0:0:
256,192,28772,1,0,0:0:0:0:
256,192,28983,1,0,0:0:0:0:
256,192,29194,1,8,0:0:0:0:
256,192,29617,1,2,0:0:0:0:
256,192,30039,1,0,0:0:0:0:
256,192,30462,1,0,0:0:0:0:
256,192,30673,1,2,0:0:0:0:
256,192,30885,1,8,0:0:0:0:
256,192,31307,1,0,0:0:0:0:
256,192,31730,1,8,0:0:0:0:
256,192,32152,1,2,0:0:0:0:
256,192,32364,1,10,0:0:0:0:
256,192,32575,1,0,0:0:0:0:
256,192,32998,1,0,0:0:0:0:
256,192,34054,1,0,0:0:0:0:
256,192,34265,1,2,0:0:0:0:
256,192,34688,1,4,0:0:0:0:
256,192,35322,1,0,0:0:0:0:
256,192,35744,1,0,0:0:0:0:
256,192,35955,1,2,0:0:0:0:
256,192,36378,1,2,0:0:0:0:
256,192,37012,1,0,0:0:0:0:
256,192,37434,1,0,0:0:0:0:
256,192,37646,1,2,0:0:0:0:
256,192,38068,1,0,0:0:0:0:
256,192,38491,1,2,0:0:0:0:
256,192,38913,1,0,0:0:0:0:
256,192,39336,1,2,0:0:0:0:
256,192,39547,1,0,0:0:0:0:
256,192,39758,1,0,0:0:0:0:
256,192,40181,1,2,0:0:0:0:
256,192,40603,1,0,0:0:0:0:
256,192,40815,1,2,0:0:0:0:
256,192,41026,1,2,0:0:0:0:
256,192,41237,1,2,0:0:0:0:
256,192,41448,1,0,0:0:0:0:
256,192,42082,1,0,0:0:0:0:
256,192,42505,1,0,0:0:0:0:
256,192,42716,1,2,0:0:0:0:
256,192,42927,1,2,0:0:0:0:
256,192,43138,1,0,0:0:0:0:
256,192,43772,1,0,0:0:0:0:
256,192,44195,1,0,0:0:0:0:
256,192,44406,1,2,0:0:0:0:
256,192,44617,1,0,0:0:0:0:
256,192,44829,1,0,0:0:0:0:
256,192,45251,1,2,0:0:0:0:
256,192,45674,1,0,0:0:0:0:
256,192,45885,1,0,0:0:0:0:
256,192,46096,1,2,0:0:0:0:
256,192,46519,1,0,0:0:0:0:
256,192,46730,1,2,0:0:0:0:
256,192,47153,1,0,0:0:0:0:
256,192,47364,1,2,0:0:0:0:
256,192,47575,1,0,0:0:0:0:
256,192,47998,1,0,0:0:0:0:
256,192,48209,1,6,0:0:0:0:
256,192,48420,12,0,49899,0:0:0:0:
256,192,51167,5,2,0:0:0:0:
256,192,51589,5,4,0:0:0:0:
256,192,52012,1,2,0:0:0:0:
256,192,52223,1,0,0:0:0:0:
256,192,52646,1,0,0:0:0:0:
256,192,52857,1,2,0:0:0:0:
256,192,53068,1,0,0:0:0:0:
256,192,53279,1,0,0:0:0:0:
256,192,53702,1,2,0:0:0:0:
256,192,53913,1,0,0:0:0:0:
256,192,54336,1,0,0:0:0:0:
256,192,54547,1,2,0:0:0:0:
256,192,54758,1,0,0:0:0:0:
256,192,54969,1,2,0:0:0:0:
256,192,55392,1,2,0:0:0:0:
256,192,55603,1,0,0:0:0:0:
256,192,56026,1,0,0:0:0:0:
256,192,56237,1,2,0:0:0:0:
256,192,56448,1,2,0:0:0:0:
256,192,56660,1,0,0:0:0:0:
256,192,57082,1,0,0:0:0:0:
256,192,57293,1,0,0:0:0:0:
256,192,57505,1,2,0:0:0:0:
256,192,58350,5,4,0:0:0:0:
256,192,58773,1,2,0:0:0:0:
256,192,58984,1,0,0:0:0:0:
256,192,59405,1,0,0:0:0:0:
256,192,59617,1,2,0:0:0:0:
256,192,59829,1,0,0:0:0:0:
256,192,60040,1,0,0:0:0:0:
256,192,60463,1,2,0:0:0:0:
256,192,60674,1,0,0:0:0:0:
256,192,61097,1,0,0:0:0:0:
256,192,61308,1,2,0:0:0:0:
256,192,61519,1,0,0:0:0:0:
256,192,61730,1,2,0:0:0:0:
256,192,62153,1,2,0:0:0:0:
256,192,62364,1,0,0:0:0:0:
256,192,62787,1,0,0:0:0:0:
256,192,62998,1,2,0:0:0:0:
256,192,63209,1,2,0:0:0:0:
256,192,63419,1,4,0:0:0:0:
256,192,63843,1,4,0:0:0:0:
256,192,64266,1,4,0:0:0:0:
256,192,65110,5,0,0:0:0:0:
256,192,65533,1,2,0:0:0:0:
256,192,65955,1,2,0:0:0:0:
256,192,66167,1,2,0:0:0:0:
256,192,66378,1,2,0:0:0:0:
256,192,66800,1,0,0:0:0:0:
256,192,67223,1,2,0:0:0:0:
256,192,67646,1,0,0:0:0:0:
256,192,67857,1,0,0:0:0:0:
256,192,68068,1,0,0:0:0:0:
256,192,68491,1,0,0:0:0:0:
256,192,68913,1,2,0:0:0:0:
256,192,69336,1,0,0:0:0:0:
256,192,69547,1,0,0:0:0:0:
256,192,69758,1,2,0:0:0:0:
256,192,69969,1,0,0:0:0:0:
256,192,70181,1,2,0:0:0:0:
256,192,70603,1,2,0:0:0:0:
256,192,70815,1,0,0:0:0:0:
256,192,71026,1,0,0:0:0:0:
256,192,71871,1,0,0:0:0:0:
256,192,72293,1,2,0:0:0:0:
256,192,72716,1,0,0:0:0:0:
256,192,72927,1,0,0:0:0:0:
256,192,73138,1,0,0:0:0:0:
256,192,73561,1,0,0:0:0:0:
256,192,73984,1,2,0:0:0:0:
256,192,74406,1,0,0:0:0:0:
256,192,74617,1,0,0:0:0:0:
256,192,74829,1,2,0:0:0:0:
256,192,75251,1,2,0:0:0:0:
256,192,75674,1,0,0:0:0:0:
256,192,75885,1,0,0:0:0:0:
256,192,76096,1,0,0:0:0:0:
256,192,76519,1,2,0:0:0:0:
256,192,76941,1,0,0:0:0:0:
256,192,77364,1,2,0:0:0:0:
256,192,77786,1,0,0:0:0:0:
256,192,78631,5,6,0:0:0:0:
256,192,79053,1,8,0:0:0:0:
256,192,79476,1,0,0:0:0:0:
256,192,79687,1,0,0:0:0:0:
256,192,79898,1,8,0:0:0:0:
256,192,80321,1,2,0:0:0:0:
256,192,80743,1,0,0:0:0:0:
268,204,80955,1,0,0:0:0:0:
256,192,81166,1,0,0:0:0:0:
256,192,81377,1,2,0:0:0:0:
256,192,81589,1,8,0:0:0:0:
256,192,82011,1,0,0:0:0:0:
256,192,82434,5,8,0:0:0:0:
256,192,82856,1,2,0:0:0:0:
256,192,83068,1,10,0:0:0:0:
256,192,83279,1,0,0:0:0:0:
256,192,83702,1,0,0:0:0:0:
225,218,84124,1,0,0:0:0:0:
256,192,84547,1,0,0:0:0:0:
256,192,85392,5,6,0:0:0:0:
256,192,85814,1,8,0:0:0:0:
256,192,86237,1,0,0:0:0:0:
256,192,86448,1,0,0:0:0:0:
256,192,86659,1,8,0:0:0:0:
256,192,87082,1,2,0:0:0:0:
256,192,87504,1,8,0:0:0:0:
268,204,87716,1,8,0:0:0:0:
256,192,87927,1,0,0:0:0:0:
256,192,88138,1,0,0:0:0:0:
256,192,88350,1,0,0:0:0:0:
256,192,88772,1,0,0:0:0:0:
256,192,89195,5,8,0:0:0:0:
256,192,89617,1,0,0:0:0:0:
256,192,89829,1,8,0:0:0:0:
256,192,90040,1,8,0:0:0:0:
256,192,90462,5,0,0:0:0:0:
256,192,91519,1,0,0:0:0:0:
256,192,91730,1,2,0:0:0:0:
256,192,92153,5,2,0:0:0:0:
256,192,92469,1,2,0:0:0:0:
256,192,92786,1,2,0:0:0:0:
256,192,93209,1,0,0:0:0:0:
256,192,93420,1,0,0:0:0:0:
256,192,93843,1,0,0:0:0:0:
256,192,94160,1,2,0:0:0:0:
256,192,94476,1,8,0:0:0:0:
256,192,95322,1,0,0:0:0:0:
256,192,95533,1,0,0:0:0:0:
256,192,95744,1,2,0:0:0:0:
256,192,96167,1,2,0:0:0:0:
256,192,96378,1,0,0:0:0:0:
256,192,96800,1,0,0:0:0:0:
256,192,97223,1,0,0:0:0:0:
256,192,97540,1,0,0:0:0:0:
256,192,97857,1,2,0:0:0:0:
256,192,98491,1,2,0:0:0:0:
256,192,98913,1,0,0:0:0:0:
256,192,99336,1,0,0:0:0:0:
256,192,99758,1,0,0:0:0:0:
256,192,100075,1,0,0:0:0:0:
256,192,100392,1,2,0:0:0:0:
256,192,100603,1,2,0:0:0:0:
256,192,101026,1,0,0:0:0:0:
256,192,101448,1,2,0:0:0:0:
256,192,102293,1,2,0:0:0:0:
256,192,102716,1,0,0:0:0:0:
256,192,103138,1,2,0:0:0:0:
256,192,103455,1,0,0:0:0:0:
256,192,103772,1,0,0:0:0:0:
256,192,103983,1,2,0:0:0:0:
