osu file format v14

[General]
AudioFilename: audio.mp3
AudioLeadIn: 0
PreviewTime: 57299
Countdown: 0
SampleSet: Soft
StackLeniency: 0.3
Mode: 0
LetterboxInBreaks: 0
WidescreenStoryboard: 1

[Editor]
DistanceSpacing: 1.4
BeatDivisor: 4
GridSize: 4
TimelineZoom: 2.699999

[Metadata]
Title:Hakkensha wa Watashi (TV Size)
TitleUnicode:発見者はワタシ (TV Size)
Artist:Tapimiru
ArtistUnicode:たぴみる
Creator:Stixy
Version:browiec's Normal
Source:ゼロから始める魔法の書
Tags:Zero Kara Hajimeru Mahou No Sho Grimoire of Zero Opening op anime short ver version female vocals browiec riana armin a_r_m_i_n anime japanese jrock j-rock rock show
BeatmapID:2217162
BeatmapSetID:829331

[Difficulty]
HPDrainRate:3
CircleSize:3.2
OverallDifficulty:4.5
ApproachRate:5
SliderMultiplier:1
SliderTickRate:1

[Events]
//Background and Video events
0,0,"bg.jpg",0,0
//Break Periods
//Storyboard Layer 0 (Background)
//Storyboard Layer 1 (Fail)
//Storyboard Layer 2 (Pass)
//Storyboard Layer 3 (Foreground)
//Storyboard Layer 4 (Overlay)
//Storyboard Sound Samples

[TimingPoints]
728,342.857142857143,4,2,1,60,1,0
6213,-100,4,2,1,70,0,0
17185,-100,4,2,1,50,0,0
28156,-100,4,2,1,60,0,0
39128,-100,4,2,1,50,0,0
44613,-100,4,2,1,60,0,0
52756,-100,4,2,1,5,0,0
52842,-100,4,2,1,60,0,0
58328,-100,4,2,1,70,0,0
84385,-100,4,2,1,60,0,0

[Colours]
Combo1 : 190,95,254
Combo2 : 255,165,121
Combo3 : 255,159,207
Combo4 : 147,147,202
SliderTrackOverride : 23,9,34

[HitObjects]
30,206,727,6,0,L|94:200,1,50,14|10,0:2|0:2,0:0:0:0:
145,336,1413,2,0,L|209:342,1,50,10|10,0:2|0:2,0:0:0:0:
260,206,2099,2,0,L|324:200,1,50,10|10,0:2|0:2,0:0:0:0:
407,221,2613,2,0,P|425:251|417:322,1,100,14|10,0:2|0:2,0:0:0:0:
390,353,3128,2,0,L|322:357,1,50,10|10,0:2|0:2,0:0:0:0:
293,339,3470,6,0,P|288:305|293:276,1,50,10|10,0:2|0:2,0:0:0:0:
404,192,4156,2,0,P|409:158|404:129,1,50,10|10,0:2|0:2,0:0:0:0:
318,21,4842,2,0,P|284:16|255:21,1,50,10|10,0:2|0:2,0:0:0:0:
182,68,5356,2,0,B|166:115|166:115|185:182,1,100,14|8,0:2|0:2,0:0:0:0:
203,207,5870,1,10,0:2:0:0:
173,302,6213,6,0,P|139:314|71:281,1,100,6|10,1:2|0:2,0:0:0:0:
35,290,6728,1,2,0:0:0:0:
35,290,6899,1,2,1:2:0:0:
90,209,7242,1,8,0:0:0:0:
90,209,7413,2,0,L|198:197,1,100,2|2,1:2|1:2,0:0:0:0:
231,225,7928,1,10,0:2:0:0:
329,207,8270,1,2,1:2:0:0:
381,121,8613,1,8,0:2:0:0:
381,121,8785,6,0,P|391:68|360:16,1,100,2|2,0:0|0:0,0:0:0:0:
323,18,9299,2,0,L|270:15,1,50,10|2,0:2|0:0,0:0:0:0:
233,45,9642,1,2,1:2:0:0:
132,48,9985,1,10,0:2:0:0:
132,48,10156,2,0,P|90:68|74:128,1,100,6|2,1:2|1:2,0:0:0:0:
87,163,10670,1,10,0:2:0:0:
87,163,10842,2,0,B|157:168|118:200|199:200,1,100,6|2,1:2|1:2,0:0:0:0:
221,174,11356,1,10,0:2:0:0:
289,247,11699,6,0,P|336:263|390:246,1,100,6|10,1:2|0:2,0:0:0:0:
437,250,12213,1,2,0:0:0:0:
437,250,12385,1,2,1:2:0:0:
393,165,12728,1,8,0:0:0:0:
393,165,12899,2,0,P|358:139|296:143,1,100,2|2,1:2|1:2,0:0:0:0:
260,165,13413,1,10,0:2:0:0:
166,129,13756,1,2,1:2:0:0:
89,193,14099,1,8,0:2:0:0:
89,193,14270,6,0,B|76:240|76:240|91:299,1,100,2|2,0:0|1:2,0:0:0:0:
112,336,14785,1,10,0:2:0:0:
212,348,15128,1,10,0:2:0:0:
264,264,15470,1,10,0:2:0:0:
264,264,15642,2,0,L|272:152,1,100,6|2,1:2|1:2,0:0:0:0:
296,124,16156,1,10,0:2:0:0:
296,124,16328,2,0,P|343:95|399:108,1,100,6|10,1:2|0:3,0:0:0:0:
428,124,16842,1,8,0:3:0:0:
484,208,17185,6,0,L|491:307,1,100,6|2,1:2|1:2,0:0:0:0:
416,372,17870,1,2,1:2:0:0:
320,348,18213,1,2,1:2:0:0:
308,248,18556,2,0,L|315:149,1,100,2|2,1:2|1:2,0:0:0:0:
300,48,19242,2,0,P|241:32|196:60,1,100,0|0,1:0|1:2,0:0:0:0:
180,144,19928,6,0,L|185:256,1,100,2|2,1:2|1:2,0:0:0:0:
156,284,20442,2,0,P|104:300|60:280,1,100,2|2,0:0|0:0,0:0:0:0:
12,196,21128,2,0,L|16:96,1,100,2|2,0:0|0:0,0:0:0:0:
36,52,21642,1,2,1:2:0:0:
36,52,21813,2,0,B|124:28|104:88|184:68,1,150,2|0,0:0|1:2,0:0:0:0:
280,56,22670,6,0,P|295:105|275:162,1,100,2|2,1:2|1:2,0:0:0:0:
246,185,23185,2,0,P|197:200|140:180,1,100,2|2,0:0|0:0,0:0:0:0:
68,132,23870,2,0,P|24:144|12:252,1,150,2|2,0:0|1:2,0:0:0:0:
24,280,24556,1,2,0:0:0:0:
112,324,24899,1,2,0:0:0:0:
172,244,25242,1,2,0:0:0:0:
172,244,25413,6,0,L|180:140,1,100,2|2,1:2|1:2,0:0:0:0:
198,97,25928,1,2,0:0:0:0:
291,63,26270,1,2,0:0:0:0:
337,151,26613,2,0,L|345:255,1,100,6|8,1:2|0:2,0:0:0:0:
362,303,27128,1,10,0:2:0:0:
362,303,27299,2,0,P|410:319|462:295,1,100,6|10,1:2|0:2,0:0:0:0:
486,263,27813,1,8,0:2:0:0:
431,179,28156,6,0,L|423:71,1,100,6|10,1:2|0:2,0:0:0:0:
386,54,28670,1,2,0:0:0:0:
386,54,28842,2,0,L|394:-14,2,50,2|2|10,1:2|1:2|0:2,0:0:0:0:
332,140,29528,2,0,P|296:130|267:132,1,50,2|2,1:2|1:2,0:0:0:0:
240,140,29870,1,10,0:2:0:0:
240,140,30042,2,0,P|210:187|225:244,1,100,2|0,0:0|1:2,0:0:0:0:
240,272,30556,1,8,0:2:0:0:
332,236,30899,6,0,L|439:232,1,100,2|10,1:2|0:2,0:0:0:0:
480,240,31413,2,0,P|502:277|487:341,1,100,2|2,0:0|1:2,0:0:0:0:
404,376,32099,2,0,L|297:372,1,100,2|2,0:0|1:2,0:0:0:0:
272,340,32613,1,10,0:2:0:0:
272,340,32785,2,0,L|165:344,1,100,2|0,1:2|1:2,0:0:0:0:
128,316,33299,1,8,0:2:0:0:
56,248,33642,6,0,P|45:206|70:142,1,100,6|10,1:2|0:2,0:0:0:0:
92,112,34156,2,0,B|152:104|140:136|196:124,1,100,2|2,0:0|1:2,0:0:0:0:
260,196,34842,2,0,P|310:188|374:213,1,100,6|2,1:2|1:2,0:0:0:0:
395,232,35356,1,10,0:2:0:0:
395,232,35528,2,0,P|443:240|491:226,1,100,6|2,1:2|1:2,0:0:0:0:
508,180,36042,1,8,0:2:0:0:
480,84,36385,6,0,L|368:72,1,100,6|10,1:2|0:2,0:0:0:0:
340,100,36899,1,2,1:2:0:0:
254,48,37242,6,0,L|204:53,1,50,2|10,1:2|0:2,0:0:0:0:
196,104,37585,2,0,P|166:139|175:200,1,100,6|0,1:2|1:2,0:0:0:0:
201,228,38099,1,8,0:2:0:0:
296,204,38442,1,8,0:2:0:0:
380,260,38785,1,8,0:3:0:0:
348,356,39128,6,0,P|312:371|239:347,1,100,6|2,1:2|0:0,0:0:0:0:
216,324,39642,2,0,L|211:263,1,50,2|8,1:2|0:2,0:0:0:0:
194,178,40156,1,2,0:0:0:0:
194,178,40328,2,0,P|139:146|87:155,1,100,2|2,1:2|1:2,0:0:0:0:
65,180,40842,1,2,1:2:0:0:
65,180,41013,2,0,P|53:219|59:247,1,50,2|8,0:0|0:2,0:0:0:0:
97,317,41528,1,0,0:0:0:0:
191,285,41870,6,0,L|296:279,1,100,2|2,1:2|0:0,0:0:0:0:
325,316,42385,2,0,L|430:322,1,100,2|2,1:2|0:0,0:0:0:0:
492,247,43070,1,2,1:2:0:0:
456,153,43413,1,2,1:2:0:0:
357,137,43756,2,0,L|352:82,2,50,10|8|0,0:2|0:2|1:2,0:0:0:0:
324,175,44270,1,8,0:2:0:0:
258,250,44613,6,0,P|203:266|154:246,1,100,6|8,1:2|0:0,0:0:0:0:
128,217,45128,1,2,0:0:0:0:
128,217,45299,1,2,1:2:0:0:
71,134,45642,1,10,0:0:0:0:
129,52,45985,2,0,P|177:35|238:61,1,100,2|10,1:2|0:2,0:0:0:0:
254,86,46499,1,6,1:2:0:0:
322,158,46842,2,0,L|385:156,2,50,14|12|2,0:0|0:0|1:2,0:0:0:0:
283,192,47356,6,0,B|268:240|268:240|283:300,1,100,10|10,0:2|0:2,0:0:0:0:
260,336,47870,1,2,1:2:0:0:
260,336,48042,2,0,P|233:348|200:345,2,50,8|0|8,0:2|1:2|0:2,0:0:0:0:
360,340,48728,2,0,B|420:336|396:368|468:362,1,100,10|10,0:2|0:2,0:0:0:0:
486,320,49242,1,2,1:2:0:0:
486,320,49413,2,0,L|493:268,2,50,8|0|8,0:2|1:2|0:2,0:0:0:0:
410,253,50099,6,0,L|306:240,1,100,10|10,0:2|0:2,0:0:0:0:
275,204,50613,1,2,1:2:0:0:
275,204,50785,2,0,P|273:166|278:143,2,50,8|0|8,0:2|1:2|0:2,0:0:0:0:
218,286,51470,2,0,P|170:299|112:277,1,100,10|10,0:2|0:2,0:0:0:0:
91,245,51985,1,0,1:2:0:0:
91,245,52156,2,0,L|37:238,2,50,10|2|8,0:2|1:2|0:2,0:0:0:0:
157,169,52842,6,0,P|216:168|276:158,1,100,12|10,0:2|0:2,0:0:0:0:
311,78,53528,2,0,L|360:72,1,50,8|8,0:2|0:2,0:0:0:0:
408,52,53870,1,8,0:2:0:0:
496,100,54213,2,0,L|502:149,1,50,8|8,0:2|0:2,0:0:0:0:
488,200,54556,1,8,0:2:0:0:
448,292,54899,2,0,L|399:286,1,50,8|8,0:0|0:3,0:0:0:0:
351,266,55241,1,12,0:0:0:0:
288,344,55585,6,0,P|244:355|175:330,1,100,12|0,0:0|1:0,0:0:0:0:
152,312,56099,2,0,P|141:268|166:199,1,100,12|0,0:0|1:0,0:0:0:0:
201,198,56613,1,12,0:0:0:0:
300,171,56956,1,0,1:2:0:0:
300,171,57127,2,0,P|311:127|286:58,1,100,12|10,0:0|0:0,0:0:0:0:
280,28,57642,1,10,0:3:0:0:
177,43,57985,1,10,0:0:0:0:
107,123,58328,6,0,L|96:240,1,100,6|8,1:2|0:2,0:0:0:0:
116,272,58842,1,2,0:2:0:0:
116,272,59013,2,0,P|162:298|221:283,1,100,2|8,1:2|0:2,0:0:0:0:
260,208,59699,2,0,L|269:108,1,100,2|8,1:2|0:2,0:0:0:0:
294,65,60213,1,2,0:2:0:0:
294,65,60385,2,0,P|326:58|351:63,1,50,2|0,1:2|0:2,0:0:0:0:
385,86,60728,1,8,0:2:0:0:
452,160,61070,6,0,P|464:197|441:265,1,100,2|10,1:2|0:2,0:0:0:0:
424,296,61585,1,2,0:2:0:0:
340,352,61928,1,2,0:2:0:0:
260,304,62270,1,2,0:2:0:0:
260,304,62442,2,0,P|249:260|285:194,1,100,0|8,1:2|0:2,0:0:0:0:
312,184,62956,1,2,0:2:0:0:
312,184,63128,1,2,1:2:0:0:
356,96,63470,1,10,0:2:0:0:
280,28,63813,6,0,L|167:25,1,100,6|8,1:2|0:2,0:0:0:0:
136,40,64328,1,2,0:2:0:0:
136,40,64499,2,0,P|111:79|119:141,1,100,2|8,1:2|0:2,0:0:0:0:
192,192,65185,2,0,L|294:202,1,100,2|8,1:2|0:2,0:0:0:0:
334,228,65699,1,2,0:2:0:0:
334,228,65870,2,0,P|348:258|346:286,1,50,2|0,1:2|0:2,0:0:0:0:
324,316,66213,1,8,0:2:0:0:
240,368,66556,6,0,B|193:384|193:384|131:367,1,100,2|10,1:2|0:2,0:0:0:0:
104,340,67070,1,2,0:2:0:0:
36,268,67413,1,2,0:2:0:0:
88,184,67756,1,2,0:2:0:0:
88,184,67928,2,0,L|82:124,2,50,2|12|12,1:2|0:2|0:2,0:0:0:0:
180,220,68613,2,0,L|174:280,2,50,2|8|10,1:2|0:2|0:2,0:0:0:0:
208,180,69128,1,8,0:2:0:0:
208,180,69299,6,0,B|265:171|248:210|309:203,1,100,6|8,1:2|0:2,0:0:0:0:
352,196,69813,1,2,0:2:0:0:
420,124,70156,1,2,0:2:0:0:
368,48,70499,1,2,0:2:0:0:
368,48,70670,2,0,L|246:52,1,100,0|8,1:2|0:2,0:0:0:0:
176,92,71356,2,0,L|94:83,2,75,2|2|2,1:2|0:0|0:2,0:0:0:0:
208,132,72042,6,0,P|224:171|215:235,1,100,2|10,1:2|0:2,0:0:0:0:
192,272,72556,1,2,0:2:0:0:
92,284,72899,1,2,0:2:0:0:
32,208,73242,1,2,0:2:0:0:
32,208,73413,2,0,B|20:154|20:154|36:98,1,100,0|8,1:2|0:2,0:0:0:0:
104,44,74099,2,0,L|164:39,1,50,2|2,1:2|0:2,0:0:0:0:
200,60,74442,1,12,0:2:0:0:
260,140,74785,6,0,L|250:244,1,100,14|10,0:2|0:2,0:0:0:0:
300,328,75470,1,8,0:2:0:0:
396,360,75813,1,8,0:2:0:0:
468,288,76156,1,10,0:2:0:0:
448,188,76499,2,0,P|440:160|438:123,1,50,10|10,0:2|0:2,0:0:0:0:
456,92,76842,2,0,L|512:87,2,50,8|0|12,0:0|1:0|0:0,0:0:0:0:
372,36,77528,6,0,L|255:29,1,100,14|2,0:2|1:2,0:0:0:0:
228,48,78042,1,14,0:2:0:0:
140,88,78385,1,2,1:2:0:0:
140,88,78556,2,0,P|108:139|121:190,1,100,14|0,0:2|1:2,0:0:0:0:
136,220,79070,1,12,0:2:0:0:
136,220,79242,1,12,0:2:0:0:
220,272,79585,2,0,L|328:270,1,100,10|8,0:2|0:0,0:0:0:0:
368,252,80099,1,8,0:3:0:0:
368,252,80270,6,0,P|396:220|395:149,1,100,14|0,0:0|1:0,0:0:0:0:
364,132,80785,2,0,L|368:76,2,50,12|0|0,0:0|1:0|1:0,0:0:0:0:
320,156,81299,1,12,0:0:0:0:
236,208,81642,1,0,1:0:0:0:
236,208,81813,2,0,L|235:264,2,50,12|0|0,0:0|1:0|1:0,0:0:0:0:
200,172,82328,1,8,0:0:0:0:
104,148,82670,1,8,0:2:0:0:
48,232,83013,5,12,0:2:0:0:
92,320,83356,2,0,L|162:325,1,50,8|8,0:0|0:0,0:0:0:0:
188,302,83699,2,0,L|258:297,1,50,8|8,0:0|0:0,0:0:0:0:
278,327,84042,2,0,L|348:332,1,50,8|8,0:0|0:0,0:0:0:0:
371,305,84385,1,4,1:2:0:0:
339,6,85413,1,6,0:3:0:0:
274,82,85756,6,0,L|270:194,1,100,4|8,1:2|0:0,0:0:0:0:
243,224,86270,2,0,P|191:244|139:228,1,100,2|2,1:2|1:2,0:0:0:0:
115,139,86956,2,0,P|91:107|47:215,1,250,6|8,1:2|0:3,0:0:0:0:
