osu file format v14

[General]
AudioFilename: audio.mp3
AudioLeadIn: 0
PreviewTime: 57299
Countdown: 0
SampleSet: Soft
StackLeniency: 0.5
Mode: 0
LetterboxInBreaks: 0
WidescreenStoryboard: 0

[Editor]
DistanceSpacing: 1.4
BeatDivisor: 4
GridSize: 16
TimelineZoom: 2.35

[Metadata]
Title:Hakkensha wa Watashi (TV Size)
TitleUnicode:発見者はワタシ (TV Size)
Artist:Tapimiru
ArtistUnicode:たぴみる
Creator:Stixy
Version:Riana's Extra
Source:ゼロから始める魔法の書
Tags:Zero Kara Hajimeru Mahou No Sho Grimoire of Zero Opening op anime short ver version female vocals browiec riana armin a_r_m_i_n anime japanese jrock j-rock rock show
BeatmapID:1762888
BeatmapSetID:829331

[Difficulty]
HPDrainRate:5.6
CircleSize:4
OverallDifficulty:9
ApproachRate:9.2
SliderMultiplier:1.6
SliderTickRate:1

[Events]
//Background and Video events
0,0,"bg.jpg",0,0
//Break Periods
//Storyboard Layer 0 (Background)
//Storyboard Layer 1 (Fail)
//Storyboard Layer 2 (Pass)
//Storyboard Layer 3 (Foreground)
//Storyboard Layer 4 (Overlay)
//Storyboard Sound Samples

[TimingPoints]
728,342.857142857143,4,2,1,60,1,0
5870,-100,4,2,1,60,0,0
6213,-83.3333333333333,4,2,1,70,0,0
17013,-83.3333333333333,4,2,1,70,0,0
17185,-100,4,2,1,50,0,0
17528,-125,4,2,1,50,0,0
19928,-90.9090909090909,4,2,1,50,0,0
20270,-125,4,2,1,50,0,0
22670,-100,4,2,1,50,0,0
26099,-133.333333333333,4,2,1,50,0,0
26442,-125,4,2,1,50,0,0
26613,-66.6666666666667,4,2,1,50,0,0
27128,-66.6666666666667,4,2,1,50,0,0
27470,-100,4,2,1,50,0,0
27513,-100,4,2,1,50,0,0
27813,-100,4,2,1,50,0,0
28156,-90.9090909090909,4,2,1,60,0,0
39128,-125,4,2,1,50,0,0
39813,-125,4,2,1,50,0,0
43328,-125,4,2,1,5,0,0
43414,-125,4,2,1,50,0,0
43670,-125,4,2,1,5,0,0
43756,-125,4,2,1,50,0,0
44099,-71.4285714285714,4,2,1,50,0,0
44442,-71.4285714285714,4,2,1,50,0,0
44613,-66.6666666666667,4,2,1,60,0,0
45985,-66.6666666666667,4,2,1,60,0,0
46499,-40,4,2,1,60,0,0
46842,-55.5555555555556,4,2,1,60,0,0
47185,-55.5555555555556,4,2,1,60,0,0
47356,-76.9230769230769,4,2,1,60,0,0
53185,-76.9230769230769,4,2,1,60,0,0
55242,-66.6666666666667,4,2,1,60,0,0
55585,-76.9230769230769,4,2,1,60,0,0
57470,-76.9230769230769,4,2,1,60,0,0
58328,-58.8235294117647,4,2,1,70,0,1
61585,-50,4,2,1,70,0,1
62270,-62.5,4,2,1,70,0,1
63470,-58.8235294117647,4,2,1,70,0,1
69213,-55.5555555555556,4,2,1,70,0,1
69299,-55.5555555555556,4,2,1,70,0,1
74185,-50,4,2,1,70,0,1
74442,-40,4,2,1,70,0,1
74785,-52.6315789473684,4,2,1,70,0,1
76842,-50,4,2,1,70,0,1
77356,-66.6666666666667,4,2,1,70,0,1
79070,-83.3333333333333,4,2,1,70,0,1
80270,-66.6666666666667,4,2,1,70,0,1
83013,-166.666666666667,4,2,1,70,0,1
83270,-166.666666666667,4,2,1,70,0,1
83356,-100,4,2,1,70,0,1
84385,-100,4,2,1,60,0,0
84470,-100,4,2,1,60,0,0
85756,-58.8235294117647,4,2,1,60,0,0
86442,-54.054054054054,4,2,1,5,0,0
86613,-54.054054054054,4,2,1,60,0,0
86785,-54.054054054054,4,2,1,5,0,0
86956,-50,4,2,1,60,0,0
87299,-100,4,2,1,60,0,0
87342,-66.6666666666667,4,2,1,60,0,0
87642,-100,4,2,1,60,0,0

[Colours]
Combo1 : 190,95,254
Combo2 : 255,165,121
Combo3 : 255,159,207
Combo4 : 147,147,202
SliderTrackOverride : 23,9,34

[HitObjects]
81,225,728,5,14,0:2:0:0:
251,109,899,1,10,0:2:0:0:
251,109,1413,5,10,0:2:0:0:
199,298,1584,1,10,0:2:0:0:
199,298,2099,5,10,0:2:0:0:
373,191,2270,1,10,0:2:0:0:
390,340,2613,6,0,P|361:282|380:178,1,160,14|10,0:2|0:2,0:0:0:0:
482,357,3128,1,10,0:2:0:0:
279,366,3299,1,10,0:2:0:0:
359,108,3470,5,10,0:2:0:0:
463,260,3642,1,10,0:2:0:0:
463,260,4156,5,10,0:2:0:0:
279,366,4328,1,10,0:2:0:0:
279,366,4842,5,10,0:2:0:0:
372,190,5013,1,10,0:2:0:0:
238,144,5356,6,0,P|209:202|243:301,1,160,14|8,0:2|0:2,0:0:0:0:
442,230,5870,2,0,B|411:218|403:221,1,40,10|8,0:2|0:2,0:0:0:0:
355,151,6042,2,0,B|323:156|317:163,1,40,10|8,0:2|0:2,0:0:0:0:
338,384,6213,5,6,1:2:0:0:
317,162,6385,1,2,1:2:0:0:
232,290,6556,1,10,0:2:0:0:
370,269,6728,2,0,B|356:256|320:256,2,47.9999985351563,2|2|2,0:0|0:0|1:2,0:0:0:0:
245,384,7070,1,2,1:2:0:0:
219,194,7242,1,8,0:2:0:0:
62,301,7413,6,0,P|158:332|239:276,1,191.999994140625,2|2,1:2|1:2,0:0:0:0:
29,138,7928,1,10,0:2:0:0:
62,301,8099,1,2,0:0:0:0:
177,119,8270,2,0,P|143:151|129:197,1,95.9999970703126,2|0,1:2|1:2,0:0:0:0:
263,370,8613,1,8,0:2:0:0:
447,261,8785,6,0,P|378:198|289:219,1,191.999994140625,2|2,0:0|0:0,0:0:0:0:
180,364,9299,1,10,0:2:0:0:
356,297,9470,1,2,0:0:0:0:
210,176,9642,2,0,B|188:227|211:269,1,95.9999970703126,2|2,1:2|1:2,0:0:0:0:
321,90,9985,1,10,0:2:0:0:
356,297,10156,6,0,P|396:241|498:240,1,143.999995605469,6|0,1:2|0:0,0:0:0:0:
466,227,10499,1,2,1:2:0:0:
214,82,10670,1,10,0:2:0:0:
292,227,10842,1,6,1:2:0:0:
367,0,11013,1,2,0:0:0:0:
367,0,11099,1,2,0:0:0:0:
367,0,11185,1,2,1:2:0:0:
214,82,11356,2,0,P|154:31|115:32,1,95.9999970703126,10|8,0:2|0:2,0:0:0:0:
132,124,11613,5,8,0:2:0:0:
132,124,11699,2,0,P|122:178|143:225,1,95.9999970703126,6|2,1:2|0:0,0:0:0:0:
240,348,12042,1,10,0:2:0:0:
213,169,12213,1,2,0:0:0:0:
48,316,12385,2,0,B|67:321|98:303,2,47.9999985351563,2|2|2,1:2|0:0|1:2,0:0:0:0:
132,124,12727,1,10,0:2:0:0:
435,207,12899,6,0,P|381:173|277:238,1,191.999994140625,2|2,1:2|1:2,0:0:0:0:
331,369,13413,1,10,0:2:0:0:
380,135,13585,1,2,0:0:0:0:
213,169,13756,2,0,P|235:210|278:229,1,95.9999970703126,2|0,1:2|1:2,0:0:0:0:
232,79,14099,1,8,0:2:0:0:
115,267,14270,6,0,P|204:287|277:230,1,191.999994140625,2|2,0:0|1:2,0:0:0:0:
248,16,14785,1,10,0:2:0:0:
183,183,14956,1,2,1:2:0:0:
386,88,15128,1,10,0:2:0:0:
339,77,15213,1,2,0:0:0:0:
294,90,15299,1,2,1:2:0:0:
277,229,15470,1,10,0:2:0:0:
67,122,15642,6,0,P|135:128|187:216,1,143.999995605469,6|0,1:2|0:0,0:0:0:0:
182,180,15985,1,2,1:2:0:0:
74,33,16156,1,10,0:2:0:0:
92,213,16328,1,6,1:2:0:0:
251,17,16499,1,2,0:0:0:0:
251,17,16585,1,2,0:0:0:0:
251,17,16671,1,10,0:3:0:0:
160,0,16842,2,0,P|206:-3|252:19,1,95.9999970703126,8|10,0:3|0:3,0:0:0:0:
397,155,17185,6,0,P|341:139|248:181,1,160,6|2,1:2|1:2,0:0:0:0:
190,245,17699,1,2,0:0:0:0:
190,245,17870,2,0,P|201:179|145:119,1,128,2|2,1:2|1:2,0:0:0:0:
108,75,18385,1,2,0:0:0:0:
13,158,18556,6,0,L|3:224,1,64,2|2,1:2|0:0,0:0:0:0:
82,284,18899,2,0,L|93:347,1,64,2|2,1:2|0:0,0:0:0:0:
158,209,19242,2,0,P|194:206|236:218,2,64,0|0|0,1:2|0:0|1:2,0:0:0:0:
187,289,19756,1,2,0:0:0:0:
303,237,19928,6,0,P|338:172|296:79,1,176.000005371094,2|2,1:2|1:2,0:0:0:0:
215,25,20442,2,0,P|277:36|335:12,1,128,2|2,0:0|0:0,0:0:0:0:
416,19,20955,1,2,1:2:0:0:
445,140,21128,6,0,L|423:269,1,128,2|2,0:0|0:0,0:0:0:0:
306,226,21642,1,2,1:2:0:0:
424,267,21813,1,2,0:0:0:0:
346,315,21985,2,0,L|336:252,1,64,0|0,1:2|0:0,0:0:0:0:
365,173,22328,1,0,1:2:0:0:
426,49,22499,5,2,0:0:0:0:
426,49,22670,2,0,P|378:24|328:38,1,80,2|0,1:2|0:0,0:0:0:0:
245,115,23013,1,2,1:2:0:0:
245,115,23184,2,0,P|197:140|147:126,1,80,2|0,0:0|1:2,0:0:0:0:
37,52,23528,1,2,0:0:0:0:
161,111,23699,5,2,1:2:0:0:
66,179,23870,2,0,P|121:233|199:232,1,160,2|0,0:0|0:0,0:0:0:0:
245,115,24385,1,2,1:2:0:0:
319,210,24556,2,0,P|343:245|342:299,1,80,2|0,0:0|1:2,0:0:0:0:
282,335,24899,2,0,P|350:370|419:319,1,160,2|2,0:0|0:0,0:0:0:0:
363,122,25413,6,0,L|343:310,1,160,2|2,1:2|1:2,0:0:0:0:
429,247,25928,1,2,0:0:0:0:
261,233,26099,2,0,P|262:172|293:129,1,90.0000034332277,0|0,1:2|0:0,0:0:0:0:
276,147,26442,1,8,0:2:0:0:
410,26,26613,6,0,P|508:82|439:118,1,240.000009155274,6|8,1:2|0:2,0:0:0:0:
300,171,27128,2,0,P|289:198|291:228,1,60.0000022888184,10|8,0:2|0:2,0:0:0:0:
422,338,27299,2,0,P|434:311|431:281,1,60.0000022888184,6|0,1:2|0:0,0:0:0:0:
350,291,27470,2,0,L|336:305,6,20,2|0|0|0|8|0|0,0:0|0:0|0:0|0:0|0:2|0:0|0:0,0:0:0:0:
293,315,27813,1,8,0:2:0:0:
253,303,27899,1,8,0:2:0:0:
225,276,27985,1,8,0:2:0:0:
212,237,28070,1,8,0:2:0:0:
213,196,28156,6,0,L|238:-21,1,176.000005371094,6|10,1:2|0:2,0:0:0:0:
324,172,28670,1,2,0:0:0:0:
100,105,28842,2,0,P|144:91|189:90,1,88.000002685547,2|2,1:2|1:2,0:0:0:0:
324,172,29185,2,0,P|277:177|207:149,1,88.000002685547,10|2,0:2|0:0,0:0:0:0:
459,92,29528,5,2,1:2:0:0:
369,277,29699,1,2,1:2:0:0:
333,68,29870,1,10,0:2:0:0:
372,247,30042,1,2,0:0:0:0:
219,174,30213,6,0,P|255:149|310:147,1,88.000002685547,0|0,1:2|1:2,0:0:0:0:
375,214,30556,1,8,0:2:0:0:
206,0,30899,6,0,P|142:37|162:138,1,176.000005371094,2|10,1:2|0:2,0:0:0:0:
331,203,31413,2,0,B|288:235|243:217|243:217|195:193|151:226,1,176.000005371094,2|2,0:0|1:2,0:0:0:0:
70,343,31928,5,10,0:2:0:0:
0,194,32099,2,0,P|57:176|109:198,1,88.000002685547,2|0,0:0|1:2,0:0:0:0:
164,217,32442,1,2,1:2:0:0:
43,64,32613,1,10,0:2:0:0:
164,217,32785,6,0,B|168:279|168:279|173:284|173:284|179:364,1,132.00000402832,2|0,1:2|0:0,0:0:0:0:
177,346,33128,1,0,1:2:0:0:
83,181,33299,1,8,0:2:0:0:
260,256,33470,5,2,0:0:0:0:
160,107,33642,2,0,P|227:65|333:99,1,176.000005371094,6|10,1:2|0:2,0:0:0:0:
260,256,34156,2,0,L|244:145,1,88.000002685547,2|0,0:0|1:2,0:0:0:0:
380,5,34499,1,2,1:2:0:0:
247,168,34670,1,10,0:2:0:0:
483,20,34842,6,0,B|491:54|491:54|474:136,1,88.000002685547,6|0,1:2|0:0,0:0:0:0:
344,190,35185,1,2,1:2:0:0:
512,347,35356,1,10,0:2:0:0:
342,105,35528,6,0,B|334:139|334:139|351:221,1,88.000002685547,6|0,1:2|0:0,0:0:0:0:
406,256,35870,1,2,1:2:0:0:
512,178,36042,2,0,L|495:272,1,88.000002685547,8|2,0:2|0:0,0:0:0:0:
319,276,36385,5,6,1:2:0:0:
430,173,36556,1,0,1:2:0:0:
426,337,36728,1,10,0:2:0:0:
261,212,36899,2,0,B|228:191|177:213|177:213|139:236|89:212,1,176.000005371094,2|2,1:2|1:2,0:0:0:0:
131,133,37413,1,10,0:2:0:0:
319,276,37585,6,0,B|345:225|345:225|323:104,1,176.000005371094,6|0,1:2|1:2,0:0:0:0:
226,0,38099,1,8,0:2:0:0:
416,162,38270,1,8,0:2:0:0:
407,116,38356,1,8,0:2:0:0:
400,70,38442,1,8,0:2:0:0:
255,162,38613,5,8,0:3:0:0:
240,82,38785,1,8,0:3:0:0:
323,108,38956,1,10,0:3:0:0:
272,242,39128,6,0,B|216:264|216:264|125:250,1,128,6|2,1:2|0:0,0:0:0:0:
72,283,39642,1,2,1:2:0:0:
72,283,39813,2,0,B|60:247|74:218|74:218|91:184|71:138,1,128,8|2,0:2|0:0,0:0:0:0:
11,41,40328,6,0,P|73:42|120:90,1,128,2|2,1:2|1:2,0:0:0:0:
201,200,40842,1,2,1:2:0:0:
255,125,41013,1,2,0:0:0:0:
255,125,41185,2,0,B|291:109|319:127|319:127|353:142|387:125,1,128,8|0,0:2|0:0,0:0:0:0:
354,51,41699,1,2,0:0:0:0:
482,7,41870,6,0,P|502:67|480:126,1,128,2|2,1:2|0:0,0:0:0:0:
439,212,42385,1,2,1:2:0:0:
439,212,42556,2,0,P|362:211|322:255,1,128,8|0,0:2|0:0,0:0:0:0:
278,371,43070,6,0,P|232:373|175:336,1,96,2|0,1:2|0:0,0:0:0:0:
161,326,43413,2,0,P|114:336|79:368,1,96,2|0,1:2|0:0,0:0:0:0:
80,368,43756,5,10,0:2:0:0:
80,368,43842,1,10,0:2:0:0:
80,368,43928,2,0,L|70:293,1,64,10|0,0:2|1:2,0:0:0:0:
162,176,44270,1,12,0:0:0:0:
7,256,44442,1,2,1:2:0:0:
117,104,44613,6,0,B|86:92|68:58|68:58|84:238,1,240.000009155274,6|8,1:2|0:0,0:0:0:0:
254,204,45128,1,2,0:0:0:0:
117,104,45299,1,2,1:2:0:0:
7,271,45471,1,2,1:2:0:0:
221,109,45642,1,10,0:0:0:0:
89,318,45813,5,2,0:0:0:0:
89,318,45899,1,8,0:3:0:0:
89,318,45985,2,0,B|135:343|175:320|175:320|227:288|279:325,1,180.000006866455,2|0,1:2|0:0,0:0:0:0:
338,365,46328,5,10,0:2:0:0:
338,365,46499,2,0,P|298:318|461:285,1,300.000011444092,6|0,1:2|0:0,0:0:0:0:
441,322,46842,6,0,P|406:314|379:292,1,71.9999978027344,14|0,0:0|0:0,0:0:0:0:
508,192,47013,1,12,0:0:0:0:
507,163,47098,1,0,1:0:0:0:
504,134,47184,1,2,1:2:0:0:
502,105,47270,1,0,1:0:0:0:
497,73,47356,6,0,P|441:55|378:82,1,103.999995239258,10|0,0:2|1:2,0:0:0:0:
225,154,47699,2,0,P|281:172|344:145,1,103.999995239258,10|2,0:2|1:2,0:0:0:0:
345,0,48042,1,8,0:2:0:0:
182,70,48213,1,0,1:2:0:0:
350,193,48385,2,0,L|376:92,1,103.999995239258,8|2,0:2|1:2,0:0:0:0:
111,146,48728,6,0,P|93:202|120:265,1,103.999995239258,10|0,0:2|1:2,0:0:0:0:
283,375,49071,2,0,P|301:319|274:256,1,103.999995239258,10|2,0:2|1:2,0:0:0:0:
104,244,49414,1,8,0:2:0:0:
327,193,49585,1,0,1:2:0:0:
212,16,49757,2,0,L|194:119,1,103.999995239258,8|2,0:2|1:2,0:0:0:0:
54,319,50099,6,0,P|103:331|152:314,1,103.999995239258,10|0,0:2|1:2,0:0:0:0:
327,193,50442,2,0,P|312:142|280:102,1,103.999995239258,10|2,0:2|1:2,0:0:0:0:
184,237,50785,1,8,0:2:0:0:
211,17,50956,1,0,1:2:0:0:
429,178,51128,2,0,L|324:193,1,103.999995239258,8|2,0:2|1:2,0:0:0:0:
0,84,51470,6,0,P|82:79|111:104,1,103.999995239258,10|0,0:2|1:2,0:0:0:0:
225,234,51813,2,0,P|177:252|127:239,1,103.999995239258,10|0,0:2|1:2,0:0:0:0:
111,0,52156,1,10,0:2:0:0:
320,180,52328,1,2,1:2:0:0:
320,180,52499,2,0,L|287:323,1,103.999995239258,8|0,0:2|0:0,0:2:0:0:
40,364,52842,5,12,0:2:0:0:
127,239,53013,1,2,0:0:0:0:
293,376,53185,5,10,0:2:0:0:
101,146,53356,1,8,0:2:0:0:
396,206,53528,5,8,0:2:0:0:
126,359,53699,1,8,0:2:0:0:
446,312,53870,5,8,0:2:0:0:
190,161,54042,1,8,0:2:0:0:
467,126,54213,5,8,0:2:0:0:
231,294,54385,1,8,0:2:0:0:
512,371,54556,5,8,0:2:0:0:
272,145,54728,1,8,0:2:0:0:
452,289,54899,5,8,0:0:0:0:
445,326,54984,1,8,0:3:0:0:
422,360,55070,1,8,0:3:0:0:
388,378,55156,1,8,0:3:0:0:
349,380,55242,2,0,P|306:362|278:332,1,60.0000022888184,12|8,0:0|0:3,0:0:0:0:
141,288,55413,2,0,P|141:242|166:206,1,60.0000022888184,8|8,0:3|0:3,0:0:0:0:
114,109,55585,5,12,0:0:0:0:
148,230,55756,1,0,1:0:0:0:
179,353,55928,1,0,1:0:0:0:
382,172,56099,5,12,0:0:0:0:
245,137,56270,1,0,1:0:0:0:
114,109,56442,1,0,1:0:0:0:
179,353,56613,5,12,0:0:0:0:
276,262,56785,1,0,1:0:0:0:
382,172,56956,1,0,1:0:0:0:
54,300,57128,5,12,0:0:0:0:
314,384,57299,1,12,0:0:0:0:
245,137,57470,2,0,L|228:197,1,51.999997619629,10|8,0:0|0:0,0:0:0:0:
397,336,57642,6,0,L|415:377,6,25.9999988098145,10|0|8|0|8|0|8,0:3|0:0|0:3|0:0|0:3|0:0|0:3,0:0:0:0:
373,296,57984,1,10,0:0:0:0:
374,244,58070,1,8,0:0:0:0:
400,199,58156,1,8,0:0:0:0:
440,166,58242,1,8,0:0:0:0:
490,148,58328,6,0,P|512:80|343:39,1,272.000005187988,6|8,1:2|0:2,0:0:0:0:
328,203,58842,1,2,0:2:0:0:
163,94,59013,2,0,B|227:56|299:102|299:102|383:139|434:70,1,272.000005187988,2|8,1:2|0:2,0:0:0:0:
221,174,59528,1,2,0:2:0:0:
372,253,59699,6,0,B|346:314|300:317|300:317|302:220|195:157,1,272.000005187988,2|8,1:2|0:2,0:0:0:0:
64,117,60213,1,2,0:2:0:0:
69,338,60385,2,0,P|182:368|175:252,1,272.000005187988,2|8,1:2|0:2,0:0:0:0:
206,87,60899,1,2,0:2:0:0:
362,104,61070,6,0,P|387:169|334:263,1,136.000002593994,2|0,1:2|0:0,0:0:0:0:
175,252,61413,1,10,0:2:0:0:
438,64,61585,2,0,P|366:10|288:73,1,160,2|0,0:2|1:2,0:0:0:0:
281,250,61928,1,2,0:2:0:0:
218,60,62099,1,8,0:2:0:0:
369,230,62270,1,2,0:2:0:0:
49,168,62442,6,0,B|105:126|174:169|174:169|230:208|300:171,1,256,0|8,1:2|0:2,0:0:0:0:
237,95,62956,1,2,0:2:0:0:
388,176,63128,1,2,1:2:0:0:
388,176,63213,2,0,P|369:236|315:268,1,128,8|0,0:2|0:0,0:0:0:0:
227,241,63470,1,10,0:2:0:0:
189,17,63642,1,0,0:0:0:0:
292,182,63813,6,0,B|249:228|170:192|170:192|93:152|39:201,1,272.000005187988,6|8,1:2|0:2,0:0:0:0:
110,272,64328,1,2,0:2:0:0:
230,112,64499,2,0,P|334:97|366:246,1,272.000005187988,2|8,1:2|0:2,0:0:0:0:
297,281,65013,1,2,0:2:0:0:
14,304,65185,6,0,P|51:183|177:192,1,272.000005187988,2|8,1:2|0:2,0:0:0:0:
297,281,65699,1,2,0:2:0:0:
95,370,65870,2,0,B|154:318|216:354|216:354|287:400|359:350,1,272.000005187988,2|8,1:2|0:2,0:0:0:0:
297,281,66385,1,2,0:2:0:0:
368,98,66556,6,0,P|427:128|448:192,1,136.000002593994,2|0,1:2|0:0,0:0:0:0:
208,125,66899,1,10,0:2:0:0:
399,261,67070,2,0,B|355:295|308:268|308:268|257:245|207:280,1,204.000003890991,2|0,0:2|0:0,0:0:0:0:
162,344,67413,2,0,L|181:196,1,136.000002593994,2|8,0:2|0:2,0:0:0:0:
267,31,67756,1,2,0:2:0:0:
443,196,67928,5,2,1:2:0:0:
264,350,68099,1,12,0:2:0:0:
345,188,68270,1,12,0:2:0:0:
465,355,68442,1,2,0:0:0:0:
465,355,68528,1,8,0:2:0:0:
465,355,68613,1,2,1:2:0:0:
430,376,68698,1,8,0:0:0:0:
390,375,68784,1,8,0:2:0:0:
357,352,68870,1,8,0:2:0:0:
328,323,68956,1,10,0:2:0:0:
290,310,69042,1,8,0:2:0:0:
250,317,69128,1,8,0:2:0:0:
219,342,69213,1,8,0:2:0:0:
183,364,69299,6,0,P|134:373|59:312,1,143.999995605469,6|0,1:2|0:0,0:0:0:0:
99,69,69642,1,8,0:2:0:0:
297,210,69813,2,0,L|318:67,1,143.999995605469,2|0,0:2|1:2,0:0:0:0:
145,149,70156,1,2,0:2:0:0:
379,267,70328,2,0,L|400:124,1,143.999995605469,8|2,0:2|0:2,0:0:0:0:
84,284,70670,6,0,B|137:326|196:297|196:297|248:264|324:318,1,215.999993408203,0|0,1:2|0:0,0:0:0:0:
327,383,71013,2,0,P|326:313|379:267,1,143.999995605469,8|0,0:2|0:0,0:0:0:0:
506,137,71356,2,0,P|416:95|359:145,1,143.999995605469,2|2,1:2|0:0,0:0:0:0:
349,189,71613,1,2,0:0:0:0:
349,189,71699,2,0,P|301:139|310:70,1,143.999995605469,8|2,0:2|0:2,0:0:0:0:
472,258,72042,6,0,B|500:250|518:222|518:222|473:428,1,215.999993408203,2|0,1:2|0:0,0:0:0:0:
484,377,72385,1,10,0:2:0:0:
286,245,72556,2,0,L|264:102,1,143.999995605469,2|0,0:2|1:2,0:0:0:0:
440,180,72899,1,2,0:2:0:0:
212,296,73071,2,0,L|190:153,1,143.999995605469,8|2,0:2|0:2,0:0:0:0:
9,284,73413,6,0,B|62:326|121:297|121:297|173:264|249:318,1,215.999993408203,0|0,1:2|0:0,0:0:0:0:
237,384,73756,2,0,P|236:314|288:267,1,143.999995605469,8|0,0:2|0:0,0:0:0:0:
457,279,74099,5,2,1:2:0:0:
457,279,74185,2,0,B|469:231|444:202|444:202|418:168|449:96,1,160,8|0,0:2|0:0,0:0:0:0:
512,68,74442,2,0,B|433:7|370:65|370:65|306:129|222:65,1,300,12|0,0:2|0:0,0:0:0:0:
170,12,74785,6,0,P|152:107|213:173,1,151.999995941162,14|0,0:2|0:0,0:0:0:0:
355,186,75128,5,10,0:2:0:0:
140,223,75299,1,10,0:2:0:0:
398,257,75470,5,8,0:2:0:0:
179,298,75642,1,8,0:2:0:0:
382,334,75813,5,8,0:2:0:0:
150,373,75985,1,10,0:2:0:0:
242,155,76156,5,10,0:2:0:0:
312,375,76328,1,8,0:2:0:0:
379,118,76499,5,10,0:2:0:0:
382,334,76670,1,10,0:2:0:0:
460,95,76842,6,0,P|442:59|409:38,1,80,8|8,0:0|0:3,0:0:0:0:
316,35,77013,1,0,1:0:0:0:
316,35,77098,1,0,1:0:0:0:
316,35,77184,1,12,0:0:0:0:
195,0,77356,6,0,P|214:35|238:48,1,60.0000022888184,2|0,1:2|1:0,0:0:0:0:
316,35,77528,5,14,0:2:0:0:
304,301,77699,1,0,1:2:0:0:
146,86,77870,1,2,1:2:0:0:
407,169,78042,5,14,0:2:0:0:
142,249,78213,1,0,1:2:0:0:
316,35,78384,1,2,1:2:0:0:
304,301,78556,5,14,0:2:0:0:
146,86,78727,1,0,1:2:0:0:
407,165,78898,1,0,1:2:0:0:
142,249,79070,6,0,L|70:228,1,47.9999985351563,12|0,0:2|0:0,0:0:0:0:
122,342,79242,2,0,L|194:321,1,47.9999985351563,12|0,0:2|0:0,0:0:0:0:
213,199,79413,1,2,1:2:0:0:
30,292,79585,6,0,P|7:242|36:174,1,95.9999970703126,10|8,0:2|0:0,0:0:0:0:
80,150,79842,1,10,0:0:0:0:
80,150,79928,2,0,P|136:154|180:213,1,95.9999970703126,8|8,0:0|0:3,0:0:0:0:
179,257,80185,1,8,0:3:0:0:
179,257,80270,2,0,P|197:195|251:158,1,120.000004577637,14|0,0:0|1:0,0:0:0:0:
284,317,80613,5,0,1:0:0:0:
324,116,80785,2,0,B|336:157|336:157|311:237,1,120.000004577637,12|0,0:0|1:0,0:0:0:0:
284,317,81128,5,0,1:0:0:0:
414,110,81299,2,0,B|426:151|426:151|401:231,1,120.000004577637,12|0,0:0|1:0,0:0:0:0:
218,359,81642,5,0,1:0:0:0:
164,212,81813,2,0,P|230:239|251:308,1,120.000004577637,12|0,0:0|1:0,0:0:0:0:
164,212,82156,1,0,1:0:0:0:
329,303,82328,5,8,0:0:0:0:
319,130,82499,1,0,1:0:0:0:
407,344,82671,5,8,0:2:0:0:
512,140,82842,1,0,1:0:0:0:
229,251,83013,5,12,0:2:0:0:
229,251,83356,5,8,0:0:0:0:
97,53,83528,1,8,0:0:0:0:
82,287,83699,5,8,0:0:0:0:
239,104,83870,1,8,0:0:0:0:
168,330,84042,5,8,0:0:0:0:
0,165,84213,1,8,0:0:0:0:
168,330,84385,5,4,1:2:0:0:
256,192,84470,12,6,85413,0:3:0:0:
231,78,85756,5,4,1:2:0:0:
72,195,85928,1,0,0:0:0:0:
354,97,86099,1,8,0:0:0:0:
147,44,86270,6,0,B|133:84|133:84|161:206,1,136.000002593994,2|0,1:2|0:0,0:0:0:0:
233,241,86613,2,0,P|168:210|103:242,1,147.999999435425,2|0,1:2|0:0,0:0:0:0:
245,362,86956,2,0,P|282:285|251:220,1,160,6|0,1:2|0:0,0:0:0:0:
212,104,87299,6,0,L|220:138,7,20,2|0|0|0|0|0|0|0,0:0|0:0|0:0|0:0|0:0|0:0|0:0|0:0,0:0:0:0:
234,104,87642,2,0,L|245:154,1,40,8|8,0:3|0:3,0:0:0:0:
103,240,87813,1,8,0:3:0:0:
