osu file format v14

[General]
AudioFilename: audio.mp3
AudioLeadIn: 0
PreviewTime: 57299
Countdown: 0
SampleSet: Soft
StackLeniency: 0.3
Mode: 0
LetterboxInBreaks: 0
WidescreenStoryboard: 1

[Editor]
Bookmarks: 27657
DistanceSpacing: 1.4
BeatDivisor: 4
GridSize: 8
TimelineZoom: 2.8

[Metadata]
Title:Hakkensha wa Watashi (TV Size)
TitleUnicode:発見者はワタシ (TV Size)
Artist:Tapimiru
ArtistUnicode:たぴみる
Creator:Stixy
Version:Magic
Source:ゼロから始める魔法の書
Tags:Zero Kara Hajimeru Mahou No Sho Grimoire of Zero Opening op anime short ver version female vocals browiec riana armin a_r_m_i_n anime japanese jrock j-rock rock show
BeatmapID:2522580
BeatmapSetID:829331

[Difficulty]
HPDrainRate:5
CircleSize:3.8
OverallDifficulty:9
ApproachRate:9.3
SliderMultiplier:1.8
SliderTickRate:1

[Events]
//Background and Video events
0,0,"bg.jpg",0,0
//Break Periods
//Storyboard Layer 0 (Background)
//Storyboard Layer 1 (Fail)
//Storyboard Layer 2 (Pass)
//Storyboard Layer 3 (Foreground)
//Storyboard Layer 4 (Overlay)
//Storyboard Sound Samples

[TimingPoints]
728,342.857142857143,4,2,1,60,1,0
728,-100,4,2,1,60,0,0
5613,-100,4,2,1,60,0,0
5699,-100,4,2,1,60,0,0
6213,-90.9090909090909,4,2,1,70,0,0
10413,-90.9090909090909,4,2,1,70,0,0
10499,-90.9090909090909,4,2,1,70,0,0
17185,-125,4,2,1,50,0,0
28156,-100,4,2,1,60,0,0
33899,-100,4,2,1,60,0,0
33985,-100,4,2,1,60,0,0
39128,-125,4,2,1,50,0,0
44613,-100,4,2,1,60,0,0
52756,-100,4,2,1,5,0,0
52842,-100,4,2,1,60,0,0
58328,-83.3333333333333,4,2,1,70,0,1
63813,-83.3333333333333,4,2,1,70,0,1
70928,-83.3333333333333,4,2,1,70,0,1
71013,-83.3333333333333,4,2,1,70,0,1
74699,-83.3333333333333,4,2,1,70,0,1
74785,-83.3333333333333,4,2,1,70,0,1
84385,-111.111111111111,4,2,1,60,0,0
86528,-111.111111111111,4,2,1,5,0,0
86613,-111.111111111111,4,2,1,60,0,0
86870,-111.111111111111,4,2,1,5,0,0
86956,-111.111111111111,4,2,1,60,0,0
87213,-111.111111111111,4,2,1,5,0,0
87299,-111.111111111111,4,2,1,60,0,0

[Colours]
Combo1 : 190,95,254
Combo2 : 255,165,121
Combo3 : 255,159,207
Combo4 : 147,147,202
SliderTrackOverride : 23,9,34

[HitObjects]
83,73,727,5,14,0:2:0:0:
341,247,899,1,10,0:2:0:0:
341,247,1413,5,10,0:2:0:0:
65,370,1585,1,10,0:2:0:0:
65,370,2099,5,10,0:2:0:0:
106,96,2270,1,10,0:2:0:0:
106,96,2613,6,0,B|197:68|183:153|274:125,1,180,14|10,0:2|0:2,0:0:0:0:
456,37,3128,1,10,0:2:0:0:
284,239,3299,1,10,0:2:0:0:
473,12,3470,5,10,0:2:0:0:
503,342,3642,1,10,0:2:0:0:
503,342,4156,5,10,0:2:0:0:
239,217,4328,1,10,0:2:0:0:
239,217,4841,5,10,0:2:0:0:
475,10,5013,1,10,0:2:0:0:
475,10,5356,6,0,P|443:45|445:136,1,135,14|0,0:2|0:0,0:0:0:0:
467,219,5699,2,0,L|510:208,1,45,8|8,0:2|0:2,0:0:0:0:
472,304,5870,1,10,0:2:0:0:
446,325,5955,1,8,0:2:0:0:
415,336,6041,1,10,0:2:0:0:
381,333,6127,1,8,0:2:0:0:
351,318,6213,6,0,L|377:220,1,99.0000030212403,6|2,1:2|1:2,0:0:0:0:
281,53,6556,2,0,L|306:148,1,99.0000030212403,10|2,0:2|0:0,0:0:0:0:
251,211,6813,1,2,0:0:0:0:
272,234,6899,2,0,L|246:332,1,99.0000030212403,2|2,1:2|1:2,0:0:0:0:
166,158,7242,1,8,0:2:0:0:
418,115,7413,6,0,P|481:186|460:279,1,198.000006042481,2|2,1:2|1:2,0:0:0:0:
306,148,7928,2,0,L|331:40,1,99.0000030212403,10|2,0:2|0:0,0:0:0:0:
380,213,8270,1,2,1:2:0:0:
203,163,8442,1,0,1:2:0:0:
418,115,8613,1,8,0:2:0:0:
165,172,8785,6,0,B|144:137|114:123|114:123|187:-8,1,198.000006042481,2|2,0:0|0:0,0:0:0:0:
271,238,9299,1,10,0:2:0:0:
71,220,9470,1,2,0:0:0:0:
268,98,9642,1,2,1:2:0:0:
43,237,9813,1,2,1:2:0:0:
175,12,9985,1,10,0:2:0:0:
186,309,10156,6,0,B|160:234|160:234|174:189|174:189|152:120,1,198.000006042481,6|2,1:2|1:2,0:0:0:0:
307,22,10670,1,10,0:2:0:0:
366,263,10842,2,0,L|261:235,1,99.0000030212403,6|2,1:2|0:0,0:0:0:0:
190,179,11099,1,2,0:0:0:0:
155,169,11185,2,0,L|59:194,1,99.0000030212403,2|10,1:2|0:2,0:0:0:0:
178,66,11528,2,0,L|226:78,1,49.5000015106202,8|8,0:2|0:2,0:0:0:0:
227,275,11699,6,0,P|178:283|134:264,1,99.0000030212403,6|2,1:2|0:0,0:0:0:0:
328,70,12042,1,10,0:2:0:0:
360,268,12213,1,2,0:0:0:0:
226,78,12385,1,2,1:2:0:0:
379,294,12556,1,2,1:2:0:0:
419,41,12728,1,10,0:2:0:0:
227,275,12899,6,0,B|191:297|177:328|177:328|39:306,1,198.000006042481,2|2,1:2|1:2,0:0:0:0:
173,135,13413,2,0,L|284:156,1,99.0000030212403,10|2,0:2|0:0,0:0:0:0:
194,40,13756,1,2,1:2:0:0:
227,275,13928,1,0,1:2:0:0:
97,67,14099,1,8,0:2:0:0:
324,221,14270,6,0,B|434:199|416:278|512:252,1,198.000006042481,2|2,0:0|1:2,0:0:0:0:
342,71,14785,5,10,0:2:0:0:
226,273,14956,1,2,1:2:0:0:
259,40,15128,5,10,0:2:0:0:
215,298,15299,1,2,1:2:0:0:
169,36,15470,5,10,0:2:0:0:
204,323,15642,6,0,B|265:301|265:301|334:318|334:318|393:297,1,198.000006042481,6|2,1:2|1:2,0:0:0:0:
380,112,16156,1,10,0:2:0:0:
512,217,16328,2,0,P|450:220|408:197,1,99.0000030212403,6|2,1:2|0:0,0:0:0:0:
323,189,16585,1,2,0:0:0:0:
288,196,16670,1,10,0:3:0:0:
441,36,16842,1,8,0:3:0:0:
480,126,17013,1,10,0:3:0:0:
351,31,17185,6,0,B|271:18|296:72|213:54,1,144,6|2,1:2|1:2,0:0:0:0:
120,15,17699,1,2,0:0:0:0:
132,111,17870,2,0,B|111:169|111:169|117:198|117:198|98:256,1,144,2|2,1:2|1:2,0:0:0:0:
149,340,18385,1,2,0:0:0:0:
7,292,18556,5,2,1:2:0:0:
100,248,18728,1,2,0:0:0:0:
149,340,18899,1,2,1:2:0:0:
234,277,19070,2,0,P|294:241|364:251,1,144,2|0,0:0|0:0,0:0:0:0:
415,337,19585,1,0,1:2:0:0:
317,339,19756,1,2,0:0:0:0:
464,256,19928,6,0,B|474:229|490:214|490:214|440:123,1,144,2|2,1:2|1:2,0:0:0:0:
482,50,20442,2,0,P|433:93|349:75,1,144,2|2,0:0|0:0,0:0:0:0:
283,24,20956,1,2,1:2:0:0:
269,123,21128,6,0,L|298:220,1,72,2|0,0:0|1:2,0:0:0:0:
359,82,21470,1,2,0:0:0:0:
266,11,21642,1,2,1:2:0:0:
153,44,21813,2,0,B|97:32|97:32|67:44|67:44|13:32,1,144,2|0,0:0|0:0,0:0:0:0:
0,143,22328,2,0,L|23:221,1,72,0|2,1:2|0:0,0:0:0:0:
117,235,22670,6,0,P|56:241|70:308,1,144,2|2,1:2|1:2,0:0:0:0:
170,313,23185,2,0,B|246:303|229:356|306:340,1,144,2|2,0:0|0:0,0:0:0:0:
391,280,23699,1,2,1:2:0:0:
301,125,23870,6,0,B|263:212|263:212|307:262,1,144,2|0,0:0|0:0,0:0:0:0:
391,280,24385,1,2,1:2:0:0:
455,199,24556,2,0,L|431:115,1,72,2|0,0:0|1:2,0:0:0:0:
391,280,24899,2,0,L|371:349,1,72,2|0,0:0|1:2,0:0:0:0:
487,293,25242,1,2,0:0:0:0:
353,192,25413,6,0,L|283:209,1,72,2|0,1:2|0:0,0:0:0:0:
391,280,25756,1,2,1:2:0:0:
455,199,25928,2,0,L|474:129,1,72,2|0,0:0|1:2,0:0:0:0:
353,62,26270,1,2,0:0:0:0:
512,39,26442,1,8,0:2:0:0:
283,129,26613,6,0,P|251:67|269:0,1,144,6|8,1:2|0:2,0:0:0:0:
353,62,27042,1,8,0:2:0:0:
375,81,27128,1,10,0:2:0:0:
339,208,27299,1,6,1:2:0:0:
283,129,27470,2,0,L|291:98,6,18,2|0|0|0|8|0|0,0:0|0:0|0:0|0:0|0:2|0:0|0:0,0:0:0:0:
239,152,27813,2,0,L|250:210,1,36,8|8,0:2|0:2,0:0:0:0:
264,264,27985,2,0,L|255:298,1,36,8|8,0:2|0:2,0:0:0:0:
148,183,28156,6,0,L|126:95,1,90,6|0,1:2|0:0,0:0:0:0:
100,270,28499,1,10,0:2:0:0:
239,152,28670,1,2,0:0:0:0:
264,264,28842,2,0,L|242:352,1,90,2|2,1:2|1:2,0:0:0:0:
148,183,29185,1,10,0:2:0:0:
323,117,29356,1,2,0:0:0:0:
338,296,29528,5,2,1:2:0:0:
427,147,29699,1,2,1:2:0:0:
225,145,29870,1,10,0:2:0:0:
323,279,30042,2,0,B|310:244|286:226|286:226|324:113,1,180,2|0,0:0|1:2,0:0:0:0:
397,363,30556,2,0,P|355:382|309:379,1,90,8|2,0:2|0:0,0:0:0:0:
322,117,30899,6,0,L|355:221,1,90,2|0,1:2|0:0,0:0:0:0:
226,95,31242,1,10,0:2:0:0:
253,187,31413,2,0,L|219:291,1,90,2|0,0:0|1:2,0:0:0:0:
293,30,31756,1,2,1:2:0:0:
139,142,31928,1,10,0:2:0:0:
322,117,32099,6,0,L|429:93,1,90,2|0,0:0|1:2,0:0:0:0:
153,30,32442,1,2,1:2:0:0:
349,202,32613,1,10,0:2:0:0:
242,40,32785,2,0,B|230:85|206:105|206:105|251:211,1,180,2|0,1:2|1:2,0:0:0:0:
385,321,33299,1,8,0:2:0:0:
349,202,33470,1,2,0:0:0:0:
196,285,33642,6,0,L|103:260,1,90,6|0,1:2|0:0,0:0:0:0:
246,201,33985,1,10,0:2:0:0:
248,362,34156,2,0,P|206:378|155:367,1,90,2|0,0:0|1:2,0:0:0:0:
246,201,34499,1,2,1:2:0:0:
337,357,34670,1,10,0:2:0:0:
229,170,34842,6,0,P|242:124|260:54,1,90,6|0,1:2|0:0,0:0:0:0:
332,250,35185,1,2,1:2:0:0:
126,180,35356,1,10,0:2:0:0:
326,22,35528,2,0,P|345:60|344:110,1,90,6|0,1:2|0:0,0:0:0:0:
151,89,35870,2,0,L|64:65,1,90,2|8,1:2|0:2,0:0:0:0:
209,14,36213,1,2,0:0:0:0:
251,176,36385,6,0,L|274:262,1,90,6|0,1:2|1:2,0:0:0:0:
151,89,36728,1,10,0:2:0:0:
326,10,36899,2,0,L|302:96,1,90,2|0,1:2|0:0,0:0:0:0:
175,247,37242,1,2,1:2:0:0:
209,14,37413,1,10,0:2:0:0:
315,250,37585,6,0,B|414:233|390:311|484:284,1,180,6|0,1:2|1:2,0:0:0:0:
388,51,38099,1,8,0:2:0:0:
362,72,38184,1,8,0:0:0:0:
347,102,38270,1,8,0:2:0:0:
347,135,38356,1,8,0:2:0:0:
360,166,38442,2,0,L|465:134,1,90,8|8,0:2|0:3,0:0:0:0:
315,250,38785,2,0,L|209:218,1,90,8|10,0:3|0:3,0:0:0:0:
108,142,39128,6,0,P|129:208|99:272,1,144,6|2,1:2|0:0,0:0:0:0:
2,293,39642,1,2,1:2:0:0:
27,202,39813,1,8,0:2:0:0:
27,202,40156,1,2,0:0:0:0:
98,272,40328,6,0,L|266:226,1,144,2|2,1:2|1:2,0:0:0:0:
318,172,40842,1,2,1:2:0:0:
336,270,41013,1,2,0:0:0:0:
220,153,41185,1,8,0:2:0:0:
220,153,41699,1,2,0:0:0:0:
318,172,41870,6,0,B|395:160|381:211|456:196,1,144,2|2,1:2|0:0,0:0:0:0:
512,105,42385,1,2,1:2:0:0:
355,92,42556,1,8,0:2:0:0:
455,196,42728,1,2,0:0:0:0:
455,196,43070,6,0,B|438:249|438:249|448:285|448:285|431:333,1,144,2|2,1:2|1:2,0:0:0:0:
327,265,43585,1,0,1:2:0:0:
294,374,43756,1,10,0:2:0:0:
313,367,43842,1,8,0:2:0:0:
332,360,43928,1,8,0:2:0:0:
242,205,44099,1,0,1:2:0:0:
191,384,44270,1,8,0:2:0:0:
249,175,44442,1,2,1:2:0:0:
332,360,44613,5,6,1:2:0:0:
117,249,44785,1,0,1:0:0:0:
324,102,44956,2,0,P|343:142|345:188,1,90,8|2,0:0|0:0,0:0:0:0:
300,277,45213,1,8,0:3:0:0:
317,303,45299,2,0,L|418:279,1,90,2|2,1:2|1:2,0:0:0:0:
247,174,45642,2,0,L|145:150,1,90,10|2,0:0|0:0,0:0:0:0:
58,148,45899,1,8,0:3:0:0:
25,164,45985,5,2,1:2:0:0:
174,69,46156,1,0,1:0:0:0:
77,249,46328,1,10,0:2:0:0:
193,45,46499,2,0,L|280:24,1,90,6|0,1:2|0:0,0:0:0:0:
297,285,46842,1,14,0:0:0:0:
174,69,47013,1,12,0:0:0:0:
108,292,47185,1,2,1:2:0:0:
101,316,47270,1,0,1:0:0:0:
94,340,47356,5,10,0:2:0:0:
257,191,47528,1,0,1:2:0:0:
44,202,47699,5,10,0:2:0:0:
297,285,47870,1,2,1:2:0:0:
11,275,48042,5,8,0:2:0:0:
213,104,48213,1,0,1:2:0:0:
3,114,48385,5,8,0:2:0:0:
257,191,48556,1,2,1:2:0:0:
94,35,48728,5,10,0:2:0:0:
180,243,48899,1,0,1:2:0:0:
188,31,49070,5,10,0:2:0:0:
190,263,49242,1,2,1:2:0:0:
287,30,49413,5,8,0:2:0:0:
200,284,49585,1,0,1:2:0:0:
383,29,49756,5,8,0:2:0:0:
210,304,49928,1,2,1:2:0:0:
400,126,50099,5,10,0:2:0:0:
134,167,50270,1,0,1:2:0:0:
453,210,50442,5,10,0:2:0:0:
161,76,50613,1,2,1:2:0:0:
470,60,50785,5,8,0:2:0:0:
214,219,50957,1,0,1:2:0:0:
512,134,51128,5,8,0:2:0:0:
161,76,51299,1,2,1:2:0:0:
375,311,51470,5,10,0:2:0:0:
287,58,51642,1,0,1:2:0:0:
280,345,51813,5,10,0:2:0:0:
378,49,51985,1,0,1:2:0:0:
448,384,52156,5,10,0:2:0:0:
287,58,52328,1,2,1:2:0:0:
194,377,52499,2,8,P|144:344|161:268,1,135,8|8,0:2|0:0,0:0:0:0:
222,213,52842,5,12,0:2:0:0:
222,213,53185,1,10,0:2:0:0:
330,109,53356,1,8,0:2:0:0:
380,282,53528,1,8,0:2:0:0:
323,81,53699,1,8,0:2:0:0:
187,305,53870,1,8,0:2:0:0:
239,43,54042,1,8,0:2:0:0:
442,194,54213,5,8,0:2:0:0:
115,116,54385,1,8,0:2:0:0:
413,50,54556,1,8,0:2:0:0:
108,222,54728,1,8,0:2:0:0:
315,80,54899,5,8,0:0:0:0:
337,105,54984,1,8,0:3:0:0:
350,136,55070,1,8,0:3:0:0:
351,169,55156,1,8,0:3:0:0:
342,201,55242,2,0,L|256:173,1,90,12|8,0:0|0:3,0:0:0:0:
409,52,55585,5,12,0:0:0:0:
375,286,55756,1,0,1:0:0:0:
244,47,55928,1,0,1:0:0:0:
473,203,56099,5,12,0:0:0:0:
175,232,56270,1,0,1:0:0:0:
383,63,56442,1,0,1:0:0:0:
394,362,56613,5,12,0:0:0:0:
243,122,56785,1,0,1:0:0:0:
508,215,56956,1,0,1:0:0:0:
175,327,57128,5,12,0:0:0:0:
443,138,57299,1,12,0:0:0:0:
152,116,57470,5,10,0:0:0:0:
122,112,57556,1,8,0:0:0:0:
92,110,57642,1,10,0:3:0:0:
246,27,57813,1,8,0:3:0:0:
349,218,57986,1,10,0:0:0:0:
323,239,58071,1,8,0:0:0:0:
291,251,58157,1,8,0:0:0:0:
258,251,58243,1,8,0:0:0:0:
226,239,58328,6,0,B|113:213|147:310|23:273,1,215.999993408203,6|8,1:2|0:2,0:0:0:0:
239,123,58842,1,2,0:2:0:0:
310,365,59013,2,0,L|202:338,1,107.999996704102,2|0,1:2|0:0,0:0:0:0:
333,90,59356,1,8,0:2:0:0:
413,278,59528,1,2,0:2:0:0:
239,123,59699,6,0,P|234:69|260:22,1,107.999996704102,2|0,1:2|0:0,0:0:0:0:
447,196,60042,1,8,0:2:0:0:
362,0,60213,1,2,0:2:0:0:
302,256,60385,2,0,L|335:361,1,107.999996704102,2|0,1:2|0:2,0:0:0:0:
333,90,60728,1,8,0:2:0:0:
208,300,60899,1,2,0:2:0:0:
447,196,61070,6,0,B|506:152|506:152|428:11,1,215.999993408203,2|10,1:2|0:2,0:0:0:0:
256,181,61585,2,0,P|311:209|363:199,1,107.999996704102,2|0,0:2|1:2,0:0:0:0:
169,112,61928,2,0,P|116:109|70:135,1,107.999996704102,2|8,0:2|0:2,0:0:0:0:
142,384,62270,6,0,B|194:253|194:253|156:235|138:205,1,215.999993408203,2|0,0:2|0:0,0:0:0:0:
219,25,62785,1,8,0:2:0:0:
319,240,62956,1,2,0:2:0:0:
169,112,63128,1,2,1:2:0:0:
204,132,63213,2,0,L|309:108,1,107.999996704102,8|0,0:2|0:0,0:0:0:0:
363,34,63470,2,0,L|468:57,1,107.999996704102,10|0,0:2|0:0,0:0:0:0:
293,263,63813,6,0,B|172:239|210:326|86:294,1,215.999993408203,6|8,1:2|0:2,0:0:0:0:
263,362,64328,1,2,0:2:0:0:
150,93,64499,2,0,L|123:198,1,107.999996704102,2|0,1:2|0:0,0:0:0:0:
240,16,64842,1,8,0:2:0:0:
41,98,65013,1,2,0:2:0:0:
229,246,65185,6,0,P|283:253|329:230,1,107.999996704102,2|0,1:2|0:0,0:0:0:0:
150,93,65528,1,8,0:2:0:0:
133,315,65699,1,2,0:2:0:0:
265,152,65870,2,0,L|237:47,1,107.999996704102,2|0,1:2|0:2,0:0:0:0:
389,301,66213,1,8,0:2:0:0:
160,182,66385,1,2,0:2:0:0:
435,97,66556,6,0,L|406:215,1,107.999996704102,2|0,1:2|0:0,0:0:0:0:
238,253,66899,1,10,0:2:0:0:
301,26,67070,2,0,L|329:144,1,107.999996704102,2|0,0:2|1:2,0:0:0:0:
485,278,67413,1,2,0:2:0:0:
444,68,67585,1,8,0:2:0:0:
316,296,67756,1,2,0:2:0:0:
454,42,67928,5,2,1:2:0:0:
396,371,68099,1,12,0:2:0:0:
207,121,68270,1,12,0:2:0:0:
433,162,68442,2,0,L|493:143,1,53.9999983520508,2|8,0:0|0:2,0:0:0:0:
316,296,68613,1,2,1:2:0:0:
258,18,68785,5,8,0:2:0:0:
286,35,68870,1,8,0:2:0:0:
307,61,68956,1,10,0:2:0:0:
321,91,69042,1,8,0:2:0:0:
326,124,69127,1,8,0:2:0:0:
322,157,69213,1,8,0:2:0:0:
308,187,69299,6,0,B|171:231|171:231|151:211|159:162,1,215.999993408203,6|8,1:2|0:2,0:0:0:0:
397,248,69813,2,0,P|431:290|437:348,1,107.999996704102,2|0,0:2|1:2,0:0:0:0:
402,147,70156,2,0,P|420:97|468:63,1,107.999996704102,2|8,0:2|0:2,0:0:0:0:
307,290,70499,1,2,0:2:0:0:
342,50,70670,6,0,B|378:126|378:126|361:168|361:168|396:247,1,215.999993408203,0|8,1:2|0:2,0:0:0:0:
241,106,71185,1,0,0:0:0:0:
224,342,71356,2,0,P|171:347|123:323,1,107.999996704102,2|2,1:2|0:0,0:0:0:0:
74,240,71613,1,2,0:0:0:0:
62,211,71699,2,0,L|95:90,1,107.999996704102,8|2,0:2|0:2,0:0:0:0:
410,156,72042,6,0,B|291:140|332:234|210:202,1,215.999993408203,2|10,1:2|0:2,0:0:0:0:
46,14,72556,2,0,P|81:54|90:107,1,107.999996704102,2|0,0:2|1:2,0:0:0:0:
41,292,72899,2,0,P|58:241|100:208,1,107.999996704102,2|8,0:2|0:2,0:0:0:0:
273,81,73242,1,2,0:2:0:0:
352,288,73413,6,0,B|214:345|214:345|192:321|162:304,1,215.999993408203,0|8,1:2|0:2,0:0:0:0:
265,55,73928,1,0,0:0:0:0:
428,220,74099,1,2,1:2:0:0:
438,247,74185,1,8,0:2:0:0:
449,274,74270,1,2,0:2:0:0:
273,81,74442,2,0,P|339:53|363:127,1,161.999995056153,12|0,0:2|0:0,0:0:0:0:
330,214,74785,5,14,0:2:0:0:
330,214,75128,5,10,0:2:0:0:
184,93,75299,1,10,0:2:0:0:
260,288,75470,1,8,0:2:0:0:
173,68,75642,1,8,0:2:0:0:
184,353,75813,1,8,0:2:0:0:
292,69,75985,1,10,0:2:0:0:
350,353,76156,5,10,0:2:0:0:
85,113,76328,1,8,0:2:0:0:
411,138,76499,1,10,0:2:0:0:
84,292,76670,1,10,0:2:0:0:
262,43,76843,1,8,0:0:0:0:
292,69,76928,1,8,0:3:0:0:
309,105,77014,1,0,1:0:0:0:
311,145,77100,1,0,1:0:0:0:
296,183,77185,1,12,0:0:0:0:
133,208,77356,1,2,1:2:0:0:
345,271,77528,5,14,0:2:0:0:
211,127,77699,1,0,1:2:0:0:
124,313,77870,1,2,1:2:0:0:
309,105,78042,5,14,0:2:0:0:
369,364,78213,1,0,1:2:0:0:
133,208,78385,1,2,1:2:0:0:
407,141,78556,5,14,0:2:0:0:
208,373,78728,1,0,1:0:0:0:
211,83,78899,1,0,1:2:0:0:
441,283,79070,5,12,0:2:0:0:
280,12,79242,1,12,0:2:0:0:
138,210,79413,1,2,1:2:0:0:
369,100,79585,2,0,B|409:141|409:141|355:255,1,161.999995056153,10|10,0:2|0:0,0:0:0:0:
284,293,79928,1,8,0:0:0:0:
244,283,80013,1,10,0:3:0:0:
205,273,80099,1,8,0:3:0:0:
166,263,80185,1,8,0:3:0:0:
126,253,80270,5,14,0:0:0:0:
272,101,80442,1,0,1:0:0:0:
359,351,80613,1,0,1:0:0:0:
176,75,80785,5,12,0:0:0:0:
401,250,80956,1,0,1:0:0:0:
117,343,81128,1,0,1:0:0:0:
360,78,81299,5,12,0:0:0:0:
203,380,81470,1,0,1:0:0:0:
176,75,81642,1,0,1:0:0:0:
430,267,81813,5,12,0:0:0:0:
91,195,81985,1,0,1:0:0:0:
383,57,82156,1,0,1:0:0:0:
61,208,82328,5,8,0:0:0:0:
400,160,82499,1,0,1:0:0:0:
65,98,82670,5,8,0:2:0:0:
430,267,82842,1,0,1:0:0:0:
29,357,83013,5,12,0:2:0:0:
29,357,83357,1,8,0:0:0:0:
178,118,83528,1,8,0:0:0:0:
260,348,83699,1,8,0:0:0:0:
86,90,83870,1,8,0:0:0:0:
145,366,84042,1,8,0:0:0:0:
275,63,84213,1,8,0:0:0:0:
0,268,84385,5,4,1:2:0:0:
0,268,85413,6,0,L|36:148,1,121.499996292114,6|0,0:3|0:0,0:0:0:0:
13,60,85756,6,0,P|54:56|102:81,1,80.9999975280763,4|0,1:2|0:0,0:0:0:0:
247,187,86099,1,8,0:0:0:0:
115,293,86270,2,0,B|184:292|158:333|227:328,1,121.499996292114,2|0,1:2|0:0,0:0:0:0:
319,373,86613,2,0,P|326:314|301:259,1,121.499996292114,2|0,1:2|0:0,0:0:0:0:
247,187,86956,6,0,L|285:51,1,121.499996292114,6|0,1:2|0:0,0:0:0:0:
349,22,87299,2,0,L|343:2,8,20.2499993820191,2|0|0|0|0|0|0|0|8,0:0|0:0|0:0|0:0|0:0|0:0|0:0|0:0|0:3,0:0:0:0:
372,47,87728,1,8,0:3:0:0:
395,72,87813,1,8,0:3:0:0:
