osu file format v14

[General]
AudioFilename: audio.mp3
AudioLeadIn: 0
PreviewTime: 57625
Countdown: 0
SampleSet: Soft
StackLeniency: 0.7
Mode: 2
LetterboxInBreaks: 0
WidescreenStoryboard: 1

[Editor]
DistanceSpacing: 2.6
BeatDivisor: 4
GridSize: 8
TimelineZoom: 1.8

[Metadata]
Title:Hakkensha wa Watashi (TV Size)
TitleUnicode:発見者はワタシ (TV Size)
Artist:Tapimiru
ArtistUnicode:たぴみる
Creator:Bastian
Version:Sanyi's Salad
Source:ゼロから始める魔法の書
Tags:jorkseljund greaper sanyi kara hajimeru mahou no sho grimoire of zero zeronosyo lantis op opening japanese anime
BeatmapID:2390880
BeatmapSetID:1104491

[Difficulty]
HPDrainRate:4
CircleSize:3
OverallDifficulty:7
ApproachRate:7
SliderMultiplier:1.4
SliderTickRate:1

[Events]
//Background and Video events
0,0,"GrimoireOfZero1.jpg",0,0
//Break Periods
//Storyboard Layer 0 (Background)
//Storyboard Layer 1 (Fail)
//Storyboard Layer 2 (Pass)
//Storyboard Layer 3 (Foreground)
//Storyboard Layer 4 (Overlay)
//Storyboard Sound Samples

[TimingPoints]
728,342.857142857143,4,2,1,60,1,0
6213,-100,4,2,1,80,0,0
17185,-100,4,2,1,50,0,0
39642,-100,4,2,0,50,0,0
43928,-100,4,2,1,50,0,0
47356,-100,4,2,1,60,0,0
52842,-100,4,2,1,70,0,0
58328,-100,4,2,1,80,0,1
80270,-100,4,2,1,80,0,0
87299,-100,4,2,1,60,0,0
87813,-100,4,3,0,60,0,0

[Colours]
Combo1 : 255,213,170
Combo2 : 170,0,255
Combo3 : 0,0,240
Combo4 : 207,207,207

[HitObjects]
304,248,727,6,0,L|304:176,1,70,12|12,0:0|0:0,0:0:0:0:
80,248,1413,2,0,L|80:176,1,70,8|8,0:0|0:0,0:0:0:0:
304,248,2099,6,0,L|304:168,1,70,8|8,0:0|0:0,0:0:0:0:
128,152,2613,1,12,0:0:0:0:
272,88,2956,2,0,L|360:88,2,70,8|8|8,0:0|0:0|0:0,0:0:0:0:
168,328,3470,6,0,L|168:256,1,70,8|8,0:0|0:0,0:0:0:0:
392,328,4156,2,0,L|392:248,1,70,8|8,0:0|0:0,0:0:0:0:
168,328,4842,6,0,L|168:256,1,70,8|8,0:0|0:0,0:0:0:0:
344,216,5356,1,4,0:0:0:0:
488,200,5699,1,10,0:0:0:0:
408,160,5870,1,8,0:0:0:0:
320,144,6041,1,8,0:0:0:0:
144,352,6213,6,0,B|104:352|104:352|208:352,1,140,6|8,0:0|0:0,0:0:0:0:
288,264,6728,1,0,0:0:0:0:
358,264,6899,1,0,0:0:0:0:
428,264,7070,1,0,0:0:0:0:
171,193,7413,6,0,P|88:110|161:66,1,210,0|8,0:0|0:0,0:0:0:0:
320,72,8270,2,0,L|408:72,2,70,2|0|8,0:0|0:0|0:0,0:0:0:0:
144,280,8785,6,0,P|104:208|192:136,1,210,2|8,0:0|0:0,0:0:0:0:
352,248,9642,2,0,L|496:248,1,140,2|8,0:0|0:0,0:0:0:0:
304,352,10156,6,0,L|160:352,1,140,4|0,0:0|0:0,0:0:0:0:
96,352,10670,1,8,0:0:0:0:
280,264,10842,1,4,0:0:0:0:
360,264,11013,2,0,P|400:208|352:168,1,140,2|8,0:0|0:0,0:0:0:0:
280,168,11528,1,8,0:0:0:0:
104,256,11699,6,0,B|64:256|64:256|176:256,1,140,6|8,0:0|0:0,0:0:0:0:
328,120,12385,1,2,0:0:0:0:
398,120,12556,1,2,0:0:0:0:
131,120,12899,6,0,P|52:36|131:0,1,210,0|8,0:0|0:0,0:0:0:0:
256,328,13756,1,2,0:0:0:0:
186,328,13927,1,0,0:0:0:0:
116,328,14098,1,8,0:0:0:0:
296,200,14270,6,0,B|440:200|440:200|368:200,1,210,2|8,0:0|0:0,0:0:0:0:
200,104,15128,2,0,L|128:104,2,70,8|2|2,0:0|0:0|0:0,0:0:0:0:
384,360,15642,6,0,P|424:288|376:264,1,140,4|0,0:0|0:0,0:0:0:0:
320,256,16156,1,8,0:0:0:0:
136,256,16328,1,4,0:0:0:0:
64,176,16499,2,0,B|24:176|24:176|128:176,1,140,2|8,0:0|0:0,0:0:0:0:
416,336,17185,6,0,P|456:272|408:248,1,140,6|2,0:0|0:0,0:0:0:0:
336,200,17699,1,0,0:0:0:0:
256,176,17870,2,0,L|112:176,1,140,2|2,0:0|0:0,0:0:0:0:
264,88,18556,6,0,L|360:88,2,70,2|0|2,0:0|0:0|0:0,0:0:0:0:
176,328,19070,2,0,P|136:264|176:248,1,140,0|2,0:0|0:0,0:0:0:0:
320,200,19756,1,0,0:0:0:0:
232,128,19928,6,0,L|80:128,1,140,2|2,0:0|0:0,0:0:0:0:
168,56,20442,2,0,L|312:56,1,140
376,56,20956,1,2,0:0:0:0:
288,176,21128,5,0,0:0:0:0:
136,328,21470,1,0,0:0:0:0:
48,256,21642,2,0,L|120:256,1,70,2|0,0:0|0:0,0:0:0:0:
192,256,21985,1,2,0:0:0:0:
408,336,22499,1,2,0:0:0:0:
312,336,22670,5,0,0:0:0:0:
168,240,23013,1,2,0:0:0:0:
264,240,23185,1,0,0:0:0:0:
408,240,23528,2,0,L|408:160,1,70,2|2,0:0|0:0,0:0:0:0:
304,120,23870,6,0,B|160:120|160:120|232:120,1,210,2|0,0:0|0:0,0:0:0:0:
312,336,24556,2,0,P|352:272|304:248,1,140,2|0,0:0|0:0,0:0:0:0:
160,184,25242,1,0,0:0:0:0:
96,184,25413,5,2,0:0:0:0:
248,104,25756,2,0,L|320:104,2,70,2|0|2,0:0|0:0|0:0,0:0:0:0:
176,104,26270,1,0,0:0:0:0:
456,232,26613,6,0,P|488:168|440:136,1,140,6|0,0:0|0:0,0:0:0:0:
376,128,27128,1,10,0:0:0:0:
208,352,27299,1,6,0:0:0:0:
136,280,27470,2,0,L|280:280,1,140,8|8,0:0|0:0,0:0:0:0:
312,280,27899,1,8,0:0:0:0:
276,280,27985,1,8,0:0:0:0:
104,192,28156,6,0,P|64:128|112:104,1,140,6|8,0:0|0:0,0:0:0:0:
192,104,28670,1,0,0:0:0:0:
280,104,28842,2,0,L|432:104,1,140,2|8,0:0|0:0,0:0:0:0:
256,336,29528,6,0,L|184:336,2,70,2|0|8,0:0|0:0|0:0,0:0:0:0:
336,336,30042,2,0,B|480:336|480:336|408:336,1,210,2|8,0:0|0:0,0:0:0:0:
147,336,30899,6,0,P|92:276|147:248,1,140,2|8,0:0|0:0,0:0:0:0:
200,72,31413,2,0,L|56:72,1,140,0|0,0:0|0:0,0:0:0:0:
352,368,32099,6,0,P|392:304|344:280,1,140,2|0,0:0|0:0,0:0:0:0:
272,304,32613,1,8,0:0:0:0:
192,200,32785,2,0,L|408:200,1,210,0|8,0:0|0:0,0:0:0:0:
336,136,33470,1,0,0:0:0:0:
160,336,33642,6,0,B|56:336|56:336|112:336,1,140,6|8,0:0|0:0,0:0:0:0:
168,184,34156,1,0,0:0:0:0:
328,320,34499,2,0,L|408:320,1,70,0|8,0:0|0:0,0:0:0:0:
224,320,34842,6,0,L|80:320,1,140,4|0,0:0|0:0,0:0:0:0:
152,248,35356,1,8,0:0:0:0:
328,248,35528,2,0,P|368:184|328:160,1,140,4|0,0:0|0:0,0:0:0:0:
176,176,36213,1,0,0:0:0:0:
96,176,36385,5,6,0:0:0:0:
256,256,36728,2,0,L|328:256,1,70,8|0,0:0|0:0,0:0:0:0:
160,88,37242,1,0,0:0:0:0:
456,376,37585,6,0,B|496:376|496:376|392:376,1,140,6|0,0:0|0:0,0:0:0:0:
312,280,38099,1,8,0:0:0:0:
224,176,38270,1,10,0:0:0:0:
259,176,38355,1,8,0:0:0:0:
294,176,38441,1,2,0:0:0:0:
376,176,38613,2,0,L|464:176,1,70,2|2,0:0|0:0,0:0:0:0:
152,176,39128,5,6,0:0:0:0:
16,120,39470,2,0,L|88:120,1,70,0|2,0:0|0:0,0:0:0:0:
296,120,40156,1,0,0:0:0:0:
376,120,40328,6,0,P|416:56|376:40,1,140,2|0,0:0|0:0,0:0:0:0:
296,328,40842,1,0,0:0:0:0:
216,248,41013,2,0,L|72:248,1,140,2|0,0:0|0:0,0:0:0:0:
224,128,41699,1,0,0:0:0:0:
312,128,41870,6,0,P|352:64|304:40,1,140,2|0,0:0|0:0,0:0:0:0:
232,232,42385,2,0,B|128:232|128:232|176:232,1,140,2|0,0:0|0:0,0:0:0:0:
336,352,43070,6,0,L|488:352,1,140,2|2,0:0|0:0,0:0:0:0:
209,344,43756,1,2,0:0:0:0:
96,344,43928,2,0,L|24:344,2,70,8|2|12,0:0|0:0|0:0,0:0:0:0:
176,264,44442,1,2,0:0:0:0:
352,152,44613,6,0,P|392:88|344:64,1,140,6|8,0:0|0:0,0:0:0:0:
280,256,45128,1,0,0:0:0:0:
184,336,45299,1,2,0:0:0:0:
112,312,45470,1,0,0:0:0:0:
109,247,45641,1,8,0:0:0:0:
178,222,45813,1,2,0:0:0:0:
352,224,45985,6,0,P|392:160|344:136,1,140,2|8,0:0|0:0,0:0:0:0:
176,176,46499,2,0,L|176:32,1,140,6|8,0:0|0:0,0:0:0:0:
272,40,47013,1,8,0:0:0:0:
344,40,47185,1,2,0:0:0:0:
160,192,47356,6,0,L|0:192,1,140,14|10,0:0|0:0,0:0:0:0:
184,104,48042,2,0,L|32:104,1,140,10|10,0:0|0:0,0:0:0:0:
310,336,48728,6,0,B|382:336|382:336|302:336,1,140,10|10,0:0|0:0,0:0:0:0:
184,288,49413,2,0,L|32:288,1,140,10|10,0:0|0:0,0:0:0:0:
344,216,50099,6,0,L|488:216,1,140,14|10,0:0|0:0,0:0:0:0:
320,136,50785,2,0,L|464:136,1,140,10|10,0:0|0:0,0:0:0:0:
160,296,51470,6,0,B|120:296|120:296|224:296,1,140,10|10,0:0|0:0,0:0:0:0:
304,208,51985,1,2,0:0:0:0:
472,208,52328,2,0,L|472:136,1,70,10|2,0:0|0:0,0:0:0:0:
296,360,52670,6,0,L|216:360,1,70,2|10,0:0|0:0,0:0:0:0:
88,168,53185,2,0,L|160:168,1,70,8|8,0:0|0:0,0:0:0:0:
248,160,53528,1,8,0:0:0:0:
320,136,53699,1,8,0:0:0:0:
392,72,53870,1,8,0:0:0:0:
323,47,54042,1,8,0:0:0:0:
144,328,54213,5,8,0:0:0:0:
64,328,54385,1,8,0:0:0:0:
88,248,54556,1,8,0:0:0:0:
168,248,54728,1,8,0:0:0:0:
248,248,54899,1,10,0:0:0:0:
296,232,54984,1,2,0:0:0:0:
306,199,55070,1,2,0:0:0:0:
273,169,55156,1,2,0:0:0:0:
224,168,55242,2,0,L|128:168,1,70,12|0,0:0|0:0,0:0:0:0:
344,360,55585,6,0,B|416:360|416:360|336:360,1,140,12|2,0:0|0:0,0:0:0:0:
264,272,56099,2,0,L|408:272,1,140,12|2,0:0|0:0,0:0:0:0:
221,272,56613,6,0,B|149:272|149:272|229:272,1,140,12|2,0:0|0:0,0:0:0:0:
288,168,57128,2,0,L|368:168,2,70,12|8|2,0:0|0:0|0:0,0:0:0:0:
104,352,57642,5,2,0:0:0:0:
16,288,57813,1,2,0:0:0:0:
64,216,57984,1,8,0:0:0:0:
104,200,58070,1,8,0:0:0:0:
152,192,58156,1,8,0:0:0:0:
336,224,58328,6,0,P|376:160|328:144,1,140,6|8,0:0|0:0,0:0:0:0:
256,144,58842,1,0,0:0:0:0:
336,88,59013,2,0,L|488:88,1,140,2|8,0:0|0:0,0:0:0:0:
184,328,59699,6,0,L|32:328,1,140,2|8,0:0|0:0,0:0:0:0:
120,256,60213,1,0,0:0:0:0:
200,168,60385,2,0,L|56:168,1,140,2|8,0:0|0:0,0:0:0:0:
352,352,61070,6,0,L|496:352,1,140,2|8,0:0|0:0,0:0:0:0:
400,240,61585,2,0,L|248:240,2,140,2|8|2,0:0|0:0|0:0,0:0:0:0:
472,168,62442,5,2,0:0:0:0:
264,160,62956,1,0,0:0:0:0:
352,88,63128,2,0,L|496:88,1,140,8|8,0:0|0:0,0:0:0:0:
200,360,63813,6,0,P|160:296|200:272,1,140,6|8,0:0|0:0,0:0:0:0:
288,272,64328,1,0,0:0:0:0:
208,192,64499,2,0,L|64:192,1,140,2|8,0:0|0:0,0:0:0:0:
360,352,65185,6,0,P|408:288|352:256,1,140,2|8,0:0|0:0,0:0:0:0:
288,256,65699,1,0,0:0:0:0:
200,184,65870,2,0,L|56:184,1,140,2|8,0:0|0:0,0:0:0:0:
352,120,66556,6,0,L|496:120,1,140,2|8,0:0|0:0,0:0:0:0:
400,240,67070,2,0,L|248:240,2,140,2|8|2,0:0|0:0|0:0,0:0:0:0:
224,136,67928,5,2,0:0:0:0:
152,136,68099,1,12,0:0:0:0:
80,136,68270,1,12,0:0:0:0:
248,80,68613,2,0,B|320:80|320:80|240:80,1,140,8|8,0:0|0:0,0:0:0:0:
176,224,69128,1,8,0:0:0:0:
368,360,69299,6,0,B|440:360|440:360|360:360,1,140,6|8,0:0|0:0,0:0:0:0:
280,136,69813,2,0,L|128:136,1,140,2|8,0:0|0:0,0:0:0:0:
432,288,70499,1,2,0:0:0:0:
496,200,70670,6,0,L|352:200,1,140,2|8,0:0|0:0,0:0:0:0:
200,80,71356,1,2,0:0:0:0:
312,80,71613,1,2,0:0:0:0:
424,80,71870,1,2,0:0:0:0:
248,240,72042,6,0,P|208:176|248:152,1,140,2|8,0:0|0:0,0:0:0:0:
336,320,72556,2,0,L|480:320,1,140,2|8,0:0|0:0,0:0:0:0:
184,320,73242,1,2,0:0:0:0:
104,320,73413,6,0,P|64:256|112:232,1,140,2|8,0:0|0:0,0:0:0:0:
264,224,74099,2,0,L|408:224,1,140,8|12,0:0|0:0,0:0:0:0:
328,168,74613,1,0,0:0:0:0:
144,168,74785,5,6,0:0:0:0:
248,168,75128,1,8,0:0:0:0:
320,144,75299,1,8,0:0:0:0:
323,79,75470,1,8,0:0:0:0:
254,54,75642,1,8,0:0:0:0:
176,272,75813,1,8,0:0:0:0:
272,272,75985,1,8,0:0:0:0:
448,360,76156,5,8,0:0:0:0:
496,296,76328,1,8,0:0:0:0:
440,240,76499,1,8,0:0:0:0:
360,224,76670,1,8,0:0:0:0:
176,216,76842,1,8,0:0:0:0:
143,246,76928,1,0,0:0:0:0:
153,279,77014,1,2,0:0:0:0:
201,295,77099,1,2,0:0:0:0:
240,144,77185,2,0,L|336:144,1,70,12|2,0:0|0:0,0:0:0:0:
141,72,77528,6,0,B|101:72|101:72|205:72,1,140,12|2,0:0|0:0,0:0:0:0:
368,272,78042,2,0,B|472:272|472:272|432:272,1,140,12|2,0:0|0:0,0:0:0:0:
256,216,78556,5,8,0:0:0:0:
32,128,79070,1,12,0:0:0:0:
102,128,79241,1,12,0:0:0:0:
172,128,79412,1,0,0:0:0:0:
352,352,79585,1,8,0:0:0:0:
432,352,79756,2,0,P|472:288|432:256,1,140,2|8,0:0|0:0,0:0:0:0:
248,168,80270,6,0,L|88:168,1,140,14|2,0:0|0:0,0:0:0:0:
192,88,80785,2,0,B|264:88|264:88|184:88,1,140,12|2,0:0|0:0,0:0:0:0:
120,88,81299,1,12,0:0:0:0:
386,312,81642,6,0,L|458:312,2,70,2|12|2,0:0|0:0|0:0,0:0:0:0:
120,312,82328,1,12,0:0:0:0:
280,200,82670,2,0,L|352:200,1,70,12|2,0:0|0:0,0:0:0:0:
174,200,83013,6,0,P|127:141|172:100,1,140,12|8,0:0|0:0,0:0:0:0:
232,104,83527,1,8,0:0:0:0:
304,104,83698,1,8,0:0:0:0:
120,304,83870,2,0,L|40:304,2,70,8|8|8,0:0|0:0|0:0,0:0:0:0:
320,224,84385,5,6,0:0:0:0:
104,200,85413,1,8,0:0:0:0:
400,344,85756,6,0,P|440:280|400:264,1,140,6|8,0:0|0:0,0:0:0:0:
216,344,86270,2,0,L|72:344,1,140,2|2,0:0|0:0,0:0:0:0:
376,168,86956,5,6,0:0:0:0:
256,192,87299,12,0,87813,0:0:0:0:
