osu file format v14

[General]
AudioFilename: audio.mp3
AudioLeadIn: 0
PreviewTime: 57057
Countdown: 0
SampleSet: Soft
StackLeniency: 0.7
Mode: 0
LetterboxInBreaks: 0
WidescreenStoryboard: 1

[Editor]
DistanceSpacing: 0.6
BeatDivisor: 4
GridSize: 32
TimelineZoom: 2.1

[Metadata]
Title:Hakkensha wa Watashi (TV Size)
TitleUnicode:発見者はワタシ (TV Size)
Artist:Tapimiru
ArtistUnicode:たぴみる
Creator:Agatsu
Version:Nao's Hard
Source:ゼロから始める魔法の書
Tags:matha nevo nao tomori naotoshi affirmation sotarks Zero Kara Hajimeru Mahou No Sho Grimoire of Zero Opening
BeatmapID:1637504
BeatmapSetID:777733

[Difficulty]
HPDrainRate:5
CircleSize:3.5
OverallDifficulty:6.5
ApproachRate:7.5
SliderMultiplier:1.35
SliderTickRate:1

[Events]
//Background and Video events
0,0,"zero.jpg",0,0
Video,-920,"vid.avi"
//Break Periods
//Storyboard Layer 0 (Background)
//Storyboard Layer 1 (Fail)
//Storyboard Layer 2 (Pass)
//Storyboard Layer 3 (Foreground)
//Storyboard Sound Samples

[TimingPoints]
400,342.857142857143,4,2,1,55,1,0
5885,-100,4,2,1,60,0,0
16857,-111.111111111111,4,2,1,50,0,0
27828,-100,4,2,1,55,0,0
38800,-133.333333333333,4,2,1,45,0,0
44285,-100,4,2,1,50,0,0
47028,-100,4,2,1,55,0,0
52514,-100,4,2,1,60,0,0
53885,-100,4,2,1,65,0,0
58000,-83.3333333333333,4,2,1,80,0,1
68800,-83.3333333333333,4,2,1,80,0,0
68971,-83.3333333333333,4,2,1,80,0,1
74800,-83.3333333333333,4,2,1,85,0,1
84057,-100,4,2,1,80,0,0
86628,-100,4,2,1,80,0,0
87400,-100,4,2,1,75,0,0

[Colours]
Combo1 : 98,253,81
Combo2 : 255,79,79
Combo3 : 255,255,72
Combo4 : 134,134,196

[HitObjects]
157,126,400,5,12,0:0:0:0:
225,219,571,1,8,0:0:0:0:
240,217,1085,5,8,0:0:0:0:
308,310,1256,1,8,0:0:0:0:
229,204,1771,5,8,0:0:0:0:
297,111,1942,1,8,0:0:0:0:
312,104,2285,6,0,P|345:158|334:246,1,135,12|8,0:0|0:0,0:0:0:0:
265,282,2800,1,8,0:0:0:0:
265,282,2971,1,8,0:0:0:0:
178,214,3142,5,8,0:0:0:0:
90,295,3314,1,8,0:0:0:0:
89,283,3828,5,8,0:0:0:0:
177,364,4000,1,8,0:0:0:0:
90,269,4514,5,8,0:0:0:0:
178,188,4686,1,8,0:0:0:0:
211,185,5028,6,0,P|263:211|349:193,1,135,12|8,0:0|0:0,0:0:0:0:
420,102,5542,1,8,0:0:0:0:
420,102,5628,1,0,0:0:0:0:
420,102,5714,1,2,0:0:0:0:
420,102,5800,1,0,0:0:0:0:
420,102,5885,6,0,L|417:28,1,67.5,6|0,0:0|0:0,0:0:0:0:
310,68,6228,2,0,L|308:136,1,67.5,8|0,0:0|0:0,0:0:0:0:
290,170,6485,1,0,0:0:0:0:
290,170,6571,2,0,P|235:184|210:181,1,67.5,2|0,0:0|0:0,0:0:0:0:
139,138,6914,1,8,0:0:0:0:
62,202,7085,6,0,L|55:336,1,135,2|0,0:0|0:0,0:0:0:0:
165,374,7600,1,8,0:0:0:0:
165,374,7772,1,0,0:0:0:0:
259,317,7942,2,0,P|312:324|346:324,1,67.5,2|0,0:0|0:0,0:0:0:0:
413,281,8285,1,8,0:0:0:0:
509,362,8457,6,0,P|494:251|495:205,1,135,0|0,0:0|0:0,0:0:0:0:
507,120,8971,1,8,0:0:0:0:
507,120,9142,1,0,0:0:0:0:
403,68,9314,2,0,L|389:-13,1,67.5,2|0,0:0|0:0,0:0:0:0:
313,136,9657,1,8,0:0:0:0:
417,191,9828,6,0,B|434:242|434:242|412:312|361:314,1,135,6|0,0:0|0:0,0:0:0:0:
289,275,10342,1,8,0:0:0:0:
198,339,10514,2,0,L|125:339,1,67.5,4|2,0:0|0:0,0:0:0:0:
96,328,10771,1,2,0:0:0:0:
96,328,10857,2,0,P|86:278|97:240,1,67.5,2|8,0:0|0:0,0:0:0:0:
159,181,11200,1,0,0:0:0:0:
159,181,11285,1,0,0:0:0:0:
159,181,11371,6,0,P|167:131|161:40,1,135,6|8,0:0|0:0,0:0:0:0:
83,109,11885,1,0,0:0:0:0:
258,149,12057,2,0,L|339:139,1,67.5,2|0,0:0|0:0,0:0:0:0:
402,76,12400,1,8,0:0:0:0:
492,148,12571,6,0,B|501:204|501:204|487:305,1,135,2|0,0:0|0:0,0:0:0:0:
405,347,13085,2,0,L|333:345,1,67.5,8|0,0:0|0:0,0:0:0:0:
241,300,13428,1,2,0:0:0:0:
241,300,13600,1,0,0:0:0:0:
153,367,13771,2,0,L|30:354,1,101.25,8|0,0:0|0:0,0:0:0:0:
19,332,14114,6,0,P|6:278|8:246,1,67.5,2|0,0:0|0:0,0:0:0:0:
70,181,14457,1,8,0:0:0:0:
70,181,14628,1,0,0:0:0:0:
156,247,14800,2,0,L|249:234,1,67.5,10|0,0:0|0:0,0:0:0:0:
316,166,15142,1,8,0:0:0:0:
236,51,15314,6,0,B|201:32|201:32|176:92|221:148,1,135,6|0,0:0|0:0,0:0:0:0:
304,196,15828,1,8,0:0:0:0:
402,133,16000,2,0,P|458:138|493:151,1,67.5,4|2,0:0|0:0,0:0:0:0:
499,164,16257,1,2,0:0:0:0:
499,164,16342,2,0,L|504:245,1,67.5,2|8,0:0|0:0,0:0:0:0:
305,333,16857,6,0,L|158:312,1,121.499996292114,6|2,0:0|0:0,0:0:0:0:
96,353,17371,1,0,0:0:0:0:
22,280,17542,2,0,P|16:212|29:135,1,121.499996292114,2|2,0:0|0:0,0:0:0:0:
105,98,18057,1,0,0:0:0:0:
105,98,18228,2,0,L|188:95,2,60.7499981460572,2|0|2,0:0|0:0|0:0,0:0:0:0:
144,195,18742,2,0,B|188:209|216:195|216:195|246:210|246:210|273:195|338:211,1,182.249994438172,0|2,0:0|0:0,0:0:0:0:
510,108,19600,6,0,P|494:58|417:40,1,121.499996292114,2|2,0:0|0:0,0:0:0:0:
352,100,20114,2,0,L|275:96,1,60.7499981460572,0|2,0:0|0:0,0:0:0:0:
198,46,20457,1,0,0:0:0:0:
198,46,20628,1,2,0:0:0:0:
105,111,20800,2,0,L|96:246,1,121.499996292114,0|0,0:0|0:0,0:0:0:0:
165,313,21314,1,2,0:0:0:0:
263,256,21485,2,0,B|294:200|266:135|266:135|242:145|195:149,1,182.249994438172,0|2,0:0|0:0,0:0:0:0:
128,91,22171,1,0,0:0:0:0:
209,22,22342,6,0,P|284:36|344:14,1,121.499996292114,2|2,0:0|0:0,0:0:0:0:
377,143,22857,2,0,P|318:128|259:140,1,121.499996292114
319,232,23371,1,2,0:0:0:0:
319,232,23542,2,0,L|339:358,1,121.499996292114
229,379,24057,1,2,0:0:0:0:
229,379,24228,2,0,L|167:371,1,60.7499981460572,0|2,0:0|0:0,0:0:0:0:
120,280,24571,2,0,L|182:272,2,60.7499981460572,0|2|0,0:0|0:0|0:0,0:0:0:0:
46,197,25085,6,0,P|119:172|171:185,1,121.499996292114,2|2,0:0|0:0,0:0:0:0:
251,227,25600,1,0,0:0:0:0:
365,190,25771,2,0,B|376:91|376:91|343:112,1,121.499996292114,2|8,0:0|0:0,0:0:0:0:
459,153,26285,6,0,B|456:217|456:217|486:280,1,121.499996292114,6|0,0:0|0:0,0:0:0:0:
420,341,26800,1,8,0:0:0:0:
332,284,26971,2,0,P|263:270|195:303,1,121.499996292114,4|0,0:0|0:0,0:0:0:0:
135,345,27485,1,8,0:0:0:0:
135,345,27571,1,0,0:0:0:0:
135,345,27657,1,2,0:0:0:0:
135,345,27742,1,0,0:0:0:0:
135,345,27828,6,0,L|135:182,1,135,6|8,0:0|0:0,0:0:0:0:
67,134,28342,1,0,0:0:0:0:
160,74,28514,2,0,L|159:-13,1,67.5,2|0,0:0|0:0,0:0:0:0:
236,160,28857,1,8,0:0:0:0:
67,270,29200,6,0,L|-27:265,2,67.5,2|0|8,0:0|0:0|0:0,0:0:0:0:
152,327,29714,1,8,0:0:0:0:
152,327,29800,1,8,0:0:0:0:
152,327,29885,2,0,L|236:320,1,67.5,2|0,0:0|0:0,0:0:0:0:
312,362,30228,1,8,0:0:0:0:
474,247,30571,6,0,P|497:179|454:107,1,135,2|8,0:0|0:0,0:0:0:0:
325,166,31085,2,0,B|303:194|303:194|421:187,1,135,2|0,2:2|0:0,0:0:0:0:
366,78,31600,1,8,0:0:0:0:
254,85,31771,6,0,L|192:156,1,67.5,0|2,0:0|0:0,0:0:0:0:
211,239,32114,1,0,0:0:0:0:
211,239,32285,1,8,0:0:0:0:
144,321,32457,2,0,P|78:349|9:331,1,135
72,250,32971,1,8,0:0:0:0:
315,353,33314,6,0,L|454:335,1,135,6|8,0:0|0:0,0:0:0:0:
290,255,33828,2,0,P|249:277|138:247,1,135,0|0,0:0|0:0,0:0:0:0:
221,181,34342,1,8,0:0:0:0:
140,271,34514,6,0,L|5:277,1,135,4|0,0:0|0:0,0:0:0:0:
77,362,35028,1,8,0:0:0:0:
90,185,35200,2,0,P|79:93|58:29,1,135,4|0,0:0|0:0,0:0:0:0:
165,86,35714,1,8,0:0:0:0:
376,21,36057,6,0,P|435:25|469:107,1,135,6|8,0:0|0:0,0:0:0:0:
427,177,36571,1,0,0:0:0:0:
274,40,36914,1,0,0:0:0:0:
274,40,37085,1,8,0:0:0:0:
204,105,37257,6,0,B|149:104|149:104|125:116|125:116|53:117,1,135,6|0,0:0|0:0,0:0:0:0:
0,180,37771,1,8,0:0:0:0:
79,258,37942,1,0,0:0:0:0:
79,258,38028,1,8,0:0:0:0:
79,258,38114,2,0,L|161:257,1,67.5,2|0,0:0|0:0,0:0:0:0:
226,317,38457,1,8,0:3:0:0:
348,195,38800,6,0,P|419:210|463:200,1,101.250003862381,6|2,0:0|0:0,0:0:0:0:
507,140,39314,1,0,0:0:0:0:
507,140,39485,1,8,0:0:0:0:
285,91,39828,1,2,0:0:0:0:
212,157,40000,6,0,L|97:151,1,101.250003862381,0|0,0:0|0:0,0:0:0:0:
33,94,40514,2,0,P|25:118|19:142,1,50.6250019311906,2|0,0:0|0:0,0:0:0:0:
54,229,40857,1,8,0:0:0:0:
167,296,41200,1,2,0:0:0:0:
239,185,41542,6,0,P|304:182|359:194,1,101.250003862381,2|2,0:0|0:0,0:0:0:0:
409,252,42057,2,0,L|419:320,1,50.6250019311906,0|8,0:0|0:0,0:0:0:0:
320,369,42400,2,0,L|327:318,1,50.6250019311906,0|2,0:0|0:0,0:0:0:0:
238,272,42742,5,0,0:0:0:0:
68,318,43085,2,0,L|4:315,1,50.6250019311906,0|2,0:0|0:0,0:0:0:0:
131,223,43428,1,0,0:0:0:0:
131,223,43514,1,8,0:0:0:0:
131,223,43600,2,0,L|160:279,1,50.6250019311906,2|2,0:0|0:0,0:0:0:0:
18,216,43942,2,0,L|52:162,1,50.6250019311906,8|2,0:0|0:0,0:0:0:0:
169,123,44285,6,0,B|236:112|236:112|320:133,1,135,6|8,0:0|0:0,0:0:0:0:
392,202,44800,1,0,0:0:0:0:
493,142,44971,2,0,L|499:47,1,67.5,2|0,0:0|0:0,0:0:0:0:
502,252,45314,2,0,L|506:319,1,67.5,8|0,0:0|0:0,0:0:0:0:
418,379,45657,6,0,P|400:333|403:311,2,67.5,2|0|8,0:0|0:0|0:0,0:0:0:0:
292,271,46171,2,0,B|238:292|238:292|133:266,1,135,0|0,0:0|0:0,0:0:0:0:
89,188,46685,1,8,0:0:0:0:
8,264,46857,1,2,0:0:0:0:
8,264,46942,1,2,0:0:0:0:
8,264,47028,6,0,L|9:351,1,67.5,12|0,0:0|0:0,0:0:0:0:
118,343,47371,2,0,L|119:276,1,67.5,8|0,0:0|0:0,0:0:0:0:
232,266,47714,2,0,L|232:333,1,67.5,8|0,0:0|0:0,0:0:0:0:
343,321,48057,2,0,L|343:253,1,67.5,8|0,0:0|0:0,0:0:0:0:
433,169,48400,6,0,P|482:161|515:171,1,67.5,8|0,0:0|0:0,0:0:0:0:
329,155,48742,2,0,P|295:158|263:150,1,67.5,8|0,0:0|0:0,0:0:0:0:
421,102,49085,2,0,L|436:188,1,67.5,8|0,0:0|0:0,0:0:0:0:
300,66,49428,2,0,L|312:-3,1,67.5,8|0,0:0|0:0,0:0:0:0:
199,100,49771,6,0,P|150:108|65:58,1,135,12|8,0:0|0:0,0:0:0:0:
156,14,50285,1,8,0:0:0:0:
219,118,50457,2,0,L|227:195,1,67.5,8|0,0:0|0:0,0:0:0:0:
142,272,50800,2,0,L|135:339,1,67.5,8|0,0:0|0:0,0:0:0:0:
21,282,51142,6,0,L|14:214,1,67.5,12|0,0:0|0:0,0:0:0:0:
102,131,51485,2,0,P|156:149|248:122,1,135,8|8,0:0|0:0,0:0:0:0:
328,63,52000,1,8,0:0:0:0:
437,116,52171,2,0,L|447:201,1,67.5,12|0,0:0|0:0,0:0:0:0:
382,272,52514,5,12,0:0:0:0:
382,272,52857,1,8,0:0:0:0:
290,222,53028,1,8,0:0:0:0:
219,292,53200,2,0,L|131:295,1,67.5,8|8,0:0|0:0,0:0:0:0:
88,194,53542,2,0,L|155:196,1,67.5,8|8,0:0|0:0,0:0:0:0:
2,268,53885,5,8,0:0:0:0:
2,268,54057,1,8,0:0:0:0:
6,140,54228,1,8,0:0:0:0:
6,140,54400,1,8,0:0:0:0:
111,213,54571,6,0,L|200:216,1,67.5,8|0,0:0|0:0,0:0:0:0:
207,208,54828,1,2,0:0:0:0:
207,208,54914,2,0,L|294:210,1,67.5,8|0,0:0|0:0,0:0:0:0:
382,159,55257,6,0,P|395:92|396:83,2,67.5,12|0|2,0:0|0:0|0:0,0:0:0:0:
459,282,55771,2,0,P|464:315|471:348,2,67.5,12|0|2,0:0|0:0|0:0,0:0:0:0:
276,263,56285,2,0,P|308:270|342:275,2,67.5,12|0|2,0:0|0:0|0:0,0:0:0:0:
181,321,56800,1,12,0:0:0:0:
181,321,56971,1,12,0:0:0:0:
103,243,57142,5,2,0:0:0:0:
196,176,57314,2,0,L|190:124,3,33.75,2|0|0|0,0:0|0:0|0:0|0:0,0:0:0:0:
280,216,57657,2,0,L|277:269,3,33.75,8|8|2|2,0:0|0:0|0:0|0:0,0:0:0:0:
356,151,58000,6,0,P|424:147|472:235,1,161.999995056153,6|8,0:0|0:0,0:0:0:0:
407,314,58514,1,0,0:0:0:0:
312,257,58685,2,0,B|233:234|239:295|149:263,1,161.999995056153,2|8,0:0|0:0,0:0:0:0:
194,175,59200,1,0,0:3:0:0:
284,348,59371,6,0,L|458:355,1,161.999995056153,2|8,0:0|0:0,0:0:0:0:
506,260,59885,1,0,0:0:0:0:
414,186,60057,2,0,P|391:137|427:38,1,161.999995056153,2|8,0:0|0:0,0:0:0:0:
494,114,60571,1,0,0:0:0:0:
400,212,60742,6,0,L|307:210,1,80.9999975280763,2|0,0:0|0:0,0:0:0:0:
216,166,61085,1,8,0:0:0:0:
117,229,61257,2,0,L|104:327,1,80.9999975280763,0|2,0:0|0:0,0:0:0:0:
19,171,61600,2,0,L|9:91,1,80.9999975280763,0|8,0:0|0:0,0:0:0:0:
88,17,61942,1,0,0:0:0:0:
176,87,62114,6,0,B|238:83|238:83|279:99|279:99|365:93,1,161.999995056153,2|8,0:0|0:0,0:0:0:0:
424,41,62628,1,0,0:0:0:0:
507,126,62800,1,2,0:0:0:0:
507,126,62885,2,0,L|520:270,1,121.499996292114,8|8,0:0|0:0,0:0:0:0:
334,348,63485,6,0,P|312:287|358:205,1,161.999995056153,6|8,0:0|0:0,0:0:0:0:
476,243,64000,1,0,0:0:0:0:
507,126,64171,2,0,B|525:72|499:10|499:10|437:55,1,161.999995056153,2|8,0:0|0:0,0:0:0:0:
376,104,64685,1,0,0:0:0:0:
277,36,64857,2,0,B|233:42|199:25|199:25|163:26|102:77,1,161.999995056153,2|8,0:0|0:0,0:0:0:0:
85,151,65371,1,0,0:0:0:0:
185,223,65542,2,0,B|179:267|196:309|196:312|196:312|180:343|114:371,1,161.999995056153,2|8,0:0|0:0,0:0:0:0:
93,273,66057,1,0,0:0:0:0:
289,257,66228,6,0,L|386:256,1,80.9999975280763,2|0,0:0|0:0,0:0:0:0:
463,161,66571,1,8,0:0:0:0:
463,161,66742,2,0,L|366:160,1,80.9999975280763,0|2,0:0|0:0,0:0:0:0:
286,92,67085,2,0,P|276:30|282:4,2,80.9999975280763,0|8|0,0:0|0:0|0:0,0:0:0:0:
214,174,67600,5,2,0:0:0:0:
120,113,67771,1,12,0:0:0:0:
120,113,67942,1,8,0:0:0:0:
41,176,68114,1,2,0:0:0:0:
41,176,68200,1,8,0:0:0:0:
41,176,68285,2,0,P|23:237|4:271,1,80.9999975280763,2|2,0:0|0:0,0:0:0:0:
56,382,68628,2,0,L|52:341,3,40.4999987640381,8|8|2|2,0:0|0:0|0:0|0:0,0:0:0:0:
141,357,68971,6,0,P|193:361|272:285,1,161.999995056153,6|8,0:0|0:0,0:0:0:0:
185,179,69485,2,0,L|177:275,1,80.9999975280763,0|2,0:0|0:0,0:0:0:0:
284,189,69828,2,0,L|277:108,1,80.9999975280763,0|8,0:0|0:0,0:0:0:0:
372,248,70171,2,0,B|443:219|443:217|444:217|444:217|549:261,1,161.999995056153,2|2,0:0|0:0,0:0:0:0:
444,335,70685,1,8,0:0:0:0:
239,216,71028,6,0,P|226:147|240:91,2,121.499996292114,2|2|2,0:0|0:0|0:0,0:0:0:0:
414,188,71714,2,0,B|436:146|436:146|309:155,1,161.999995056153,2|8,0:0|0:0,0:0:0:0:
373,274,72228,2,0,P|431:281|471:269,1,80.9999975280763,0|2,0:0|0:0,0:0:0:0:
293,336,72571,2,0,P|253:331|214:339,1,80.9999975280763,0|8,0:0|0:0,0:0:0:0:
127,281,72914,1,0,0:0:0:0:
127,281,73085,2,0,L|113:101,1,161.999995056153,2|8,0:0|0:0,0:0:0:0:
285,33,73771,5,2,0:0:0:0:
285,33,73857,1,2,0:0:0:0:
285,33,73942,2,0,L|382:34,1,80.9999975280763,2|8,0:0|0:0,0:0:0:0:
453,97,74285,1,2,0:0:0:0:
381,187,74457,6,0,B|328:176|278:158|278:158|246:186|258:236,1,161.999995056153,6|8,0:0|0:0,0:0:0:0:
337,286,74971,1,8,0:0:0:0:
413,210,75142,2,0,L|421:125,1,80.9999975280763,8|8,0:0|0:0,0:0:0:0:
504,289,75485,2,0,L|512:370,1,80.9999975280763,8|8,0:0|0:0,0:0:0:0:
344,321,75828,6,0,L|243:312,1,80.9999975280763,8|8,0:0|0:0,0:0:0:0:
184,232,76171,1,8,0:0:0:0:
78,288,76342,2,0,L|68:368,1,80.9999975280763,8|8,0:0|0:0,0:0:0:0:
14,209,76685,1,2,0:0:0:0:
14,209,76771,1,0,0:0:0:0:
14,209,76857,2,0,L|23:123,1,80.9999975280763,8|0,0:0|0:0,0:0:0:0:
120,65,77200,6,0,B|194:69|194:69|206:80|206:80|309:85,1,161.999995056153,12|2,0:0|0:0,0:0:0:0:
55,143,77714,2,0,P|23:95|49:-3,1,161.999995056153,12|2,0:0|0:0,0:0:0:0:
150,165,78228,2,0,L|151:265,2,80.9999975280763,12|0|2,0:0|0:0|0:0,0:0:0:0:
272,272,78742,1,12,0:0:0:0:
272,272,78914,2,0,L|271:372,1,80.9999975280763,12|2,0:0|0:0,0:0:0:0:
372,254,79257,6,0,P|354:208|297:176,1,80.9999975280763,8|2,0:0|0:0,0:0:0:0:
300,174,79514,1,8,0:0:0:0:
300,174,79600,2,0,L|207:180,1,80.9999975280763,8|2,0:0|0:0,0:0:0:0:
137,255,79942,6,0,B|100:270|80:267|80:267|29:202|68:154,1,161.999995056153,12|2,0:0|0:0,0:0:0:0:
215,151,80457,2,0,B|244:254|244:254|219:319,1,161.999995056153,12|2,0:0|0:0,0:0:0:0:
113,361,80971,2,0,L|7:347,1,80.9999975280763,12|0,0:0|0:0,0:0:0:0:
215,323,81314,5,2,0:0:0:0:
310,367,81485,2,0,L|417:358,2,80.9999975280763,12|0|2,0:0|0:0|0:0,0:0:0:0:
456,282,82000,2,0,P|485:321|489:367,1,80.9999975280763,12|0,0:0|0:0,0:0:0:0:
365,251,82342,1,12,0:0:0:0:
365,251,82514,1,8,0:0:0:0:
454,179,82685,6,0,L|455:-1,1,161.999995056153,12|8,0:0|0:0,0:0:0:0:
354,82,83200,1,8,0:0:0:0:
262,26,83371,2,0,L|162:19,1,80.9999975280763,8|8,0:0|0:0,0:0:0:0:
87,128,83714,2,0,L|168:123,1,80.9999975280763,8|8,0:0|0:0,0:0:0:0:
35,37,84057,6,0,P|-4:76|95:234,1,270,12|0,0:0|0:0,0:0:0:0:
253,163,85085,1,8,0:3:0:0:
394,288,85428,2,0,L|534:280,1,135,6|8,0:0|0:0,0:0:0:0:
382,185,85942,1,2,0:0:0:0:
224,335,86285,1,2,0:0:0:0:
45,211,86628,6,0,B|-3:160|20:70|77:46|77:46|145:107|234:62,1,337.5,6|8,0:0|0:3,0:0:0:0:
