osu file format v14

[General]
AudioFilename: audio.mp3
AudioLeadIn: 0
PreviewTime: 142958
Countdown: 0
SampleSet: Normal
StackLeniency: 0.7
Mode: 0
LetterboxInBreaks: 0
WidescreenStoryboard: 0

[Editor]
DistanceSpacing: 2
BeatDivisor: 4
GridSize: 4
TimelineZoom: 2.2

[Metadata]
Title:Hakkensha wa Watashi (Full ver.)
TitleUnicode:発見者はワタシ
Artist:Tapimiru
ArtistUnicode:たぴみる
Creator:gottagof4ast
Version:Grimoire
Source:ゼロから始める魔法の書
Tags:Grimoire of Zero OP Zero kara Hajimeru Mahou no Sho
BeatmapID:1304736
BeatmapSetID:618946

[Difficulty]
HPDrainRate:6
CircleSize:4
OverallDifficulty:8.8
ApproachRate:9.3
SliderMultiplier:1.4
SliderTickRate:1

[Events]
//Background and Video events
0,0,"background.jpg",0,0
//Break Periods
2,166472,176674
2,224072,232902
//Storyboard Layer 0 (Background)
//Storyboard Layer 1 (Fail)
//Storyboard Layer 2 (Pass)
//Storyboard Layer 3 (Foreground)
//Storyboard Sound Samples

[TimingPoints]
9930,342.857142857143,4,1,0,40,1,0
9930,-100,4,1,0,40,0,0
15415,-80,4,1,0,40,0,0
26387,-100,4,1,0,40,0,0
37358,-90.9090909090909,4,1,0,40,0,0
48330,-100,4,1,0,40,0,0
53815,-83.3333333333333,4,1,0,40,0,0
67530,-71.4285714285714,4,1,0,40,0,1
89644,-80,4,1,0,40,0,0
103187,-100,4,1,0,40,0,0
114158,-90.9090909090909,4,1,0,40,0,0
125130,-100,4,1,0,40,0,0
130444,-83.3333333333333,4,1,0,40,0,0
144330,-71.4285714285714,4,1,0,40,0,1
165587,-100,4,1,0,40,0,1
166272,-100,4,1,0,40,0,0
177244,-133.333333333333,4,1,0,40,0,0
187872,-100,4,1,0,40,0,0
199187,-83.3333333333333,4,1,0,40,0,0
233472,-100,4,1,0,40,0,0
240672,-83.3333333333333,4,1,0,40,0,0
251301,-71.4285714285714,4,1,0,40,0,1
271872,-71.4285714285714,4,1,0,40,0,0

[HitObjects]
136,216,9930,5,0,0:0:0:0:
400,60,10101,1,0,0:0:0:0:
144,48,10615,5,0,0:0:0:0:
294,315,10787,1,0,0:0:0:0:
148,312,11301,5,0,0:0:0:0:
298,44,11473,1,0,0:0:0:0:
104,136,11815,6,0,L|200:128,1,70
372,196,12158,1,0,0:0:0:0:
228,44,12329,1,0,0:0:0:0:
228,256,12501,1,0,0:0:0:0:
372,104,12672,5,0,0:0:0:0:
108,260,12844,1,0,0:0:0:0:
228,44,13358,5,0,0:0:0:0:
231,350,13530,1,0,0:0:0:0:
120,164,14044,5,0,0:0:0:0:
386,315,14216,1,0,0:0:0:0:
228,124,14558,6,0,P|228:200|184:260,1,140
48,100,15072,1,0,0:0:0:0:
72,72,15158,1,0,0:0:0:0:
100,52,15244,1,0,0:0:0:0:
132,40,15330,1,0,0:0:0:0:
168,36,15415,6,0,P|216:40|260:68,1,87.5
392,192,15758,1,0,0:0:0:0:
196,120,15930,1,0,0:0:0:0:
196,120,16015,1,0,0:0:0:0:
196,120,16101,1,0,0:0:0:0:
384,28,16272,1,0,0:0:0:0:
248,188,16444,1,0,0:0:0:0:
436,96,16615,6,0,P|488:156|480:252,1,175
328,320,17130,2,0,L|228:312,1,87.5
132,236,17472,1,0,0:0:0:0:
352,236,17644,1,0,0:0:0:0:
152,324,17815,1,0,0:0:0:0:
220,160,17987,6,0,P|176:108|72:104,1,175
292,80,18501,2,0,P|364:68|400:28,1,87.5
144,8,18844,1,0,0:0:0:0:
328,156,19015,1,0,0:0:0:0:
74,102,19187,1,0,0:0:0:0:
284,236,19358,6,0,P|352:252|416:176,1,175
204,68,19872,1,0,0:0:0:0:
204,304,20044,1,0,0:0:0:0:
332,84,20215,1,0,0:0:0:0:
332,84,20301,1,0,0:0:0:0:
332,84,20387,1,0,0:0:0:0:
132,216,20558,1,0,0:0:0:0:
360,340,20730,1,0,0:0:0:0:
360,340,20815,1,0,0:0:0:0:
360,340,20901,6,0,P|399:317|428:271,1,87.5
412,128,21244,1,0,0:0:0:0:
248,272,21415,1,0,0:0:0:0:
456,208,21587,1,0,0:0:0:0:
456,208,21672,1,0,0:0:0:0:
456,208,21758,1,0,0:0:0:0:
236,296,21930,1,0,0:0:0:0:
332,96,22101,6,0,B|280:12|172:48,1,175
56,172,22615,1,0,0:0:0:0:
268,220,22787,1,0,0:0:0:0:
56,272,22958,1,0,0:0:0:0:
276,140,23130,2,0,P|320:132|380:136,1,87.5
436,248,23472,6,0,P|496:196|488:100,1,175
276,140,23987,1,0,0:0:0:0:
412,332,24158,1,0,0:0:0:0:
412,76,24330,1,0,0:0:0:0:
252,248,24501,2,0,L|204:296,2,43.75
324,24,24844,6,0,P|252:16|168:72,1,175
96,212,25358,1,0,0:0:0:0:
276,140,25530,1,0,0:0:0:0:
72,68,25701,1,0,0:0:0:0:
72,68,25787,1,0,0:0:0:0:
72,68,25872,1,0,0:0:0:0:
112,300,26044,1,0,0:0:0:0:
112,300,26387,6,0,L|256:296,1,140
204,160,26901,1,0,0:0:0:0:
40,236,27072,2,0,P|16:280|12:328,1,70
192,240,27415,1,0,0:0:0:0:
16,164,27587,1,0,0:0:0:0:
204,160,27758,5,0,0:0:0:0:
96,316,27930,1,0,0:0:0:0:
88,112,28101,1,0,0:0:0:0:
276,220,28272,2,0,P|344:236|404:196,1,140
268,308,28787,1,0,0:0:0:0:
328,144,28958,1,0,0:0:0:0:
188,252,29130,6,0,P|152:256|104:256,1,70
16,180,29472,1,0,0:0:0:0:
180,144,29644,2,0,P|216:140|264:140,1,70
308,48,29987,1,0,0:0:0:0:
136,60,30158,1,0,0:0:0:0:
136,60,30330,6,0,P|92:104|96:188,1,140
176,264,30844,1,0,0:0:0:0:
180,144,31015,2,0,L|40:88,1,140
304,32,31701,5,0,0:0:0:0:
304,32,31872,2,0,L|388:160,1,140
468,168,32387,2,0,P|411:182|357:240,1,140
472,292,32901,1,0,0:0:0:0:
292,180,33072,6,0,P|236:204|268:288,1,140
336,324,33587,1,0,0:0:0:0:
220,160,33758,2,0,P|180:156|124:160,1,70
24,260,34101,2,0,P|64:264|120:260,1,70
256,328,34444,1,0,0:0:0:0:
256,328,34615,6,0,P|292:292|304:268,1,70
264,107,34958,2,0,P|228:143|216:167,1,70
168,300,35301,1,0,0:0:0:0:
168,300,35644,1,0,0:0:0:0:
88,152,35815,6,0,P|100:108|130:65,1,70
216,0,36158,1,0,0:0:0:0:
164,168,36330,1,0,0:0:0:0:
72,4,36501,1,0,0:0:0:0:
292,76,36672,6,0,L|316:88,8,17.5
324,104,37101,1,0,0:0:0:0:
348,140,37187,1,0,0:0:0:0:
360,180,37272,1,0,0:0:0:0:
360,228,37358,2,0,P|344:280|312:324,1,77.0000023498536
172,304,37701,1,0,0:0:0:0:
172,304,37872,6,0,P|168:220|236:180,1,154.000004699707
368,144,38387,1,0,0:0:0:0:
260,264,38558,1,0,0:0:0:0:
260,264,38730,6,0,L|160:232,1,77.0000023498536
112,124,39072,1,0,0:0:0:0:
52,304,39244,2,0,L|200:356,1,154.000004699707
340,308,39758,1,0,0:0:0:0:
236,144,39930,1,0,0:0:0:0:
220,252,40101,6,0,P|300:236|344:176,1,154.000004699707
432,204,40615,2,0,P|370:150|362:76,1,154.000004699707
424,0,41130,1,0,0:0:0:0:
473,101,41301,6,0,L|329:189,1,154.000004699707
236,144,41815,1,0,0:0:0:0:
304,324,41987,2,0,L|384:280,1,77.0000023498536
476,336,42330,1,0,0:0:0:0:
232,236,42501,1,0,0:0:0:0:
232,236,42844,6,0,P|200:264|148:284,1,77.0000023498536
48,172,43187,1,0,0:0:0:0:
260,144,43358,2,0,P|316:188|320:280,1,154.000004699707
128,340,43872,1,0,0:0:0:0:
164,120,44044,6,0,P|208:64|300:60,1,154.000004699707
392,208,44558,1,0,0:0:0:0:
132,220,44730,2,0,P|76:176|72:84,1,154.000004699707
128,4,45244,1,0,0:0:0:0:
160,132,45415,1,0,0:0:0:0:
160,132,45587,6,0,L|24:228,1,154.000004699707
140,320,46101,1,0,0:0:0:0:
304,108,46444,1,0,0:0:0:0:
372,368,46787,1,0,0:0:0:0:
372,368,47130,5,0,0:0:0:0:
332,236,47301,1,0,0:0:0:0:
460,272,47472,1,0,0:0:0:0:
460,272,47558,1,0,0:0:0:0:
460,272,47644,2,0,P|468:224|464:188,1,77.0000023498536
388,124,47987,2,0,P|380:76|384:40,1,77.0000023498536
272,136,48330,6,0,P|208:148|192:224,1,140
276,296,48844,1,0,0:0:0:0:
156,296,49015,1,0,0:0:0:0:
88,56,49358,1,0,0:0:0:0:
88,56,49530,6,0,P|144:88|176:100,1,70
260,56,49872,1,0,0:0:0:0:
208,184,50044,1,0,0:0:0:0:
348,120,50215,2,0,P|368:80|368:40,2,70
136,172,50901,1,0,0:0:0:0:
136,172,51072,6,0,P|104:232|144:312,1,140
260,340,51587,2,0,L|332:336,1,70
428,236,51930,2,0,L|356:240,1,70
244,108,52272,6,0,P|272:68|292:48,1,70
288,208,52615,2,0,P|260:248|240:268,1,70
88,184,52958,1,0,0:0:0:0:
88,184,53044,1,0,0:0:0:0:
88,184,53130,1,0,0:0:0:0:
244,108,53301,1,0,0:0:0:0:
164,304,53472,1,0,0:0:0:0:
164,60,53644,1,0,0:0:0:0:
164,60,53815,6,0,P|212:28|248:16,1,83.9999974365235
408,92,54158,1,0,0:0:0:0:
356,272,54330,1,0,0:0:0:0:
244,108,54501,1,0,0:0:0:0:
456,152,54672,1,0,0:0:0:0:
296,336,54844,1,0,0:0:0:0:
328,104,55015,1,0,0:0:0:0:
328,104,55101,1,0,0:0:0:0:
328,103,55187,6,0,P|313:63|286:31,1,83.9999974365235
456,152,55530,1,0,0:0:0:0:
236,100,55701,2,0,P|250:139|277:171,1,83.9999974365235
412,224,56044,1,0,0:0:0:0:
128,208,56215,1,0,0:0:0:0:
128,208,56301,1,0,0:0:0:0:
128,208,56387,1,0,0:0:0:0:
128,208,56472,1,0,0:0:0:0:
128,208,56558,6,0,P|82:248|63:280,1,83.9999974365235
312,309,56901,2,0,P|357:268|376:236,1,83.9999974365235
144,296,57244,2,0,P|114:349|108:385,1,83.9999974365235
296,204,57587,2,0,P|325:150|331:114,1,83.9999974365235
144,156,57930,6,0,L|64:104,1,83.9999974365235
392,164,58273,2,0,L|472:216,1,83.9999974365235
144,260,58615,2,0,L|64:208,1,83.9999974365235
388,264,58958,2,0,L|468:316,1,83.9999974365235
348,112,59301,6,0,P|328:44|296:16,1,83.9999974365235
88,272,59644,2,0,P|108:340|140:368,1,83.9999974365235
232,60,59987,2,0,P|180:11|138:2,1,83.9999974365235
204,324,60330,2,0,P|255:372|297:381,1,83.9999974365235
416,200,60672,6,0,L|488:140,1,83.9999974365235
80,112,61015,2,0,L|8:172,1,83.9999974365235
400,312,61358,2,0,L|472:252,1,83.9999974365235
72,236,61701,2,0,L|0:296,1,83.9999974365235
304,256,62044,6,0,P|352:224|380:184,1,83.9999974365235
380,88,62387,1,0,0:0:0:0:
160,144,62558,1,0,0:0:0:0:
404,124,62730,1,0,0:0:0:0:
144,116,62901,1,0,0:0:0:0:
304,256,63072,1,0,0:0:0:0:
300,28,63244,1,0,0:0:0:0:
264,268,63415,5,0,0:0:0:0:
340,20,63587,1,0,0:0:0:0:
224,272,63758,1,0,0:0:0:0:
380,20,63930,1,0,0:0:0:0:
136,184,64101,1,0,0:0:0:0:
112,148,64187,1,0,0:0:0:0:
104,108,64272,1,0,0:0:0:0:
112,68,64358,1,0,0:0:0:0:
132,32,64444,2,0,P|168:12|212:4,1,83.9999974365235
360,72,64787,5,0,0:0:0:0:
136,184,64958,1,0,0:0:0:0:
396,204,65130,1,0,0:0:0:0:
132,32,65301,5,0,0:0:0:0:
115,312,65472,1,0,0:0:0:0:
280,71,65644,1,0,0:0:0:0:
0,168,65815,5,0,0:0:0:0:
292,361,65986,1,0,0:0:0:0:
134,32,66158,1,0,0:0:0:0:
200,340,66330,5,0,0:0:0:0:
388,16,66501,1,0,0:0:0:0:
104,200,66672,1,0,0:0:0:0:
108,204,66844,2,0,P|160:204|208:176,1,83.9999974365235
292,40,67187,1,0,0:0:0:0:
332,44,67272,1,0,0:0:0:0:
372,60,67358,1,0,0:0:0:0:
404,88,67444,1,0,0:0:0:0:
428,128,67530,6,0,B|456:168|456:168|444:200|444:200|496:256|460:320,1,195.999994018555
304,280,68044,1,0,0:0:0:0:
104,152,68215,2,0,B|52:120|48:48|48:48|132:32,1,195.999994018555
288,24,68730,1,0,0:0:0:0:
192,224,68901,6,0,B|176:304|176:304|252:276|208:364|304:368,1,195.999994018555
404,272,69415,1,0,0:0:0:0:
184,120,69587,2,0,B|108:132|88:208|88:208|44:168,1,195.999994018555
119,34,70101,1,0,0:0:0:0:
192,224,70272,6,0,P|232:277|286:296,1,97.9999970092774
88,208,70615,1,0,0:0:0:0:
320,160,70787,2,0,P|279:106|225:87,1,97.9999970092774
88,76,71130,1,0,0:0:0:0:
344,20,71301,1,0,0:0:0:0:
192,224,71472,6,0,P|272:288|360:272,1,195.999994018555
464,160,71987,1,0,0:0:0:0:
220,136,72158,1,0,0:0:0:0:
352,368,72330,1,0,0:0:0:0:
352,368,72415,1,0,0:0:0:0:
352,368,72501,1,0,0:0:0:0:
396,76,72672,1,0,0:0:0:0:
192,224,72844,1,0,0:0:0:0:
52,76,73015,6,0,B|104:8|176:8|176:8|196:84,1,195.999994018555
60,164,73530,1,0,0:0:0:0:
240,340,73701,2,0,B|320:304|316:220|316:220|396:224,1,195.999994018555
444,364,74215,1,0,0:0:0:0:
192,224,74387,6,0,B|208:132|272:112|272:112|212:64,1,195.999994018555
316,220,74901,1,0,0:0:0:0:
112,48,75072,2,0,B|68:60|68:60|68:88|68:88|28:128|32:208,1,195.999994018555
132,336,75587,1,0,0:0:0:0:
180,136,75758,6,0,P|228:112|296:116,1,97.9999970092774
112,48,76101,1,0,0:0:0:0:
240,216,76272,2,0,P|276:254|342:274,1,97.9999970092774
468,228,76615,1,0,0:0:0:0:
360,96,76787,1,0,0:0:0:0:
236,340,76958,1,0,0:0:0:0:
444,132,77130,5,0,0:0:0:0:
224,28,77301,1,0,0:0:0:0:
224,28,77472,2,0,P|148:44|116:60,1,97.9999970092774
32,188,77815,1,0,0:0:0:0:
216,268,77987,1,0,0:0:0:0:
264,252,78072,1,0,0:0:0:0:
300,220,78158,1,0,0:0:0:0:
328,180,78244,1,0,0:0:0:0:
364,144,78330,1,0,0:0:0:0:
408,128,78415,1,0,0:0:0:0:
456,124,78501,6,0,P|480:168|488:228,1,97.9999970092774
392,352,78844,1,0,0:0:0:0:
248,124,79015,2,0,P|224:80|216:20,1,97.9999970092774
393,197,79358,2,0,P|443:198|499:221,1,97.9999970092774
276,248,79701,6,0,P|200:244|120:148,1,195.999994018555
0,288,80215,1,0,0:0:0:0:
248,124,80558,2,0,P|296:97|348:68,1,97.9999970092774
380,64,80815,2,0,P|436:80|478:122,1,97.9999970092774
476,152,81072,1,0,0:0:0:0:
228,40,81244,6,0,L|128:96,1,97.9999970092774
92,248,81587,1,0,0:0:0:0:
92,248,81758,2,0,P|158:277|213:276,1,97.9999970092774
339,155,82101,2,0,P|272:125|217:126,1,97.9999970092774
368,276,82444,6,0,P|452:212|460:124,1,195.999994018555
340,12,82958,1,0,0:0:0:0:
224,208,83130,1,0,0:0:0:0:
428,40,83301,1,0,0:0:0:0:
428,40,83387,1,0,0:0:0:0:
428,40,83472,1,0,0:0:0:0:
156,120,83644,2,0,P|92:140|40:140,1,97.9999970092774
140,8,83987,6,0,P|216:24|264:112,1,146.999995513916
264,116,84330,1,0,0:0:0:0:
244,336,84501,1,0,0:0:0:0:
305,117,84672,1,0,0:0:0:0:
200,338,84844,1,0,0:0:0:0:
337,117,85015,1,0,0:0:0:0:
136,186,85186,1,0,0:0:0:0:
335,296,85358,5,0,0:0:0:0:
146,145,85530,1,0,0:0:0:0:
322,335,85701,1,0,0:0:0:0:
162,108,85872,1,0,0:0:0:0:
204,364,86044,1,0,0:0:0:0:
156,368,86130,1,0,0:0:0:0:
108,356,86215,1,0,0:0:0:0:
68,324,86301,1,0,0:0:0:0:
44,280,86387,2,0,P|24:216|32:172,1,97.9999970092774
168,84,86730,5,0,0:0:0:0:
392,196,86901,1,0,0:0:0:0:
132,216,87073,1,0,0:0:0:0:
327,43,87244,5,0,0:0:0:0:
345,342,87415,1,0,0:0:0:0:
168,84,87587,1,0,0:0:0:0:
462,179,87758,5,0,0:0:0:0:
169,372,87929,1,0,0:0:0:0:
327,43,88101,1,0,0:0:0:0:
416,376,88272,5,0,0:0:0:0:
40,196,88443,1,0,0:0:0:0:
47,148,88530,1,0,0:0:0:0:
67,104,88615,1,0,0:0:0:0:
103,68,88701,1,0,0:0:0:0:
152,52,88787,2,0,P|208:48|253:52,1,97.9999970092774
320,128,89044,2,0,P|264:132|219:128,1,97.9999970092774
152,184,89301,1,0,0:0:0:0:
400,188,89472,6,0,P|420:128|404:72,1,97.9999970092774
132,60,90330,5,0,0:0:0:0:
132,60,90415,1,0,0:0:0:0:
132,60,90501,2,0,P|124:104|120:168,1,87.5
192,276,90844,5,0,0:0:0:0:
360,160,91015,1,0,0:0:0:0:
360,160,91100,1,0,0:0:0:0:
360,160,91187,2,0,L|312:164,1,43.75
212,40,91357,1,0,0:0:0:0:
212,40,91443,1,0,0:0:0:0:
212,40,91530,2,0,L|269:37,1,43.75
468,196,91700,1,0,0:0:0:0:
468,196,91786,1,0,0:0:0:0:
468,196,91872,2,0,P|432:248|388:268,1,87.5
140,296,92215,6,0,P|129:234|142:186,1,87.5
268,48,92558,1,0,0:0:0:0:
220,252,92730,1,0,0:0:0:0:
220,252,92815,1,0,0:0:0:0:
220,252,92901,1,0,0:0:0:0:
124,48,93072,1,0,0:0:0:0:
364,48,93244,1,0,0:0:0:0:
344,264,93415,6,0,P|304:348|196:372,1,175
112,268,93930,2,0,L|100:172,1,87.5
160,8,94272,1,0,0:0:0:0:
184,228,94444,1,0,0:0:0:0:
64,48,94615,1,0,0:0:0:0:
272,104,94787,6,0,P|336:96|416:16,1,175
312,208,95301,2,0,P|280:228|252:292,1,87.5
416,184,95644,1,0,0:0:0:0:
228,172,95815,1,0,0:0:0:0:
413,22,95987,1,0,0:0:0:0:
512,244,96158,6,0,P|432:296|348:276,1,175
152,164,96672,1,0,0:0:0:0:
388,160,96844,1,0,0:0:0:0:
132,248,97015,1,0,0:0:0:0:
132,248,97101,1,0,0:0:0:0:
132,248,97187,1,0,0:0:0:0:
264,12,97358,1,0,0:0:0:0:
273,278,97530,1,0,0:0:0:0:
273,278,97616,1,0,0:0:0:0:
273,278,97701,6,0,P|317:290|357:282,1,87.5
476,184,98044,1,0,0:0:0:0:
260,160,98215,1,0,0:0:0:0:
328,368,98387,1,0,0:0:0:0:
328,368,98472,1,0,0:0:0:0:
328,368,98558,1,0,0:0:0:0:
252,144,98730,1,0,0:0:0:0:
164,364,98901,6,0,P|64:324|16:272,1,175
68,96,99415,1,0,0:0:0:0:
192,276,99587,1,0,0:0:0:0:
16,168,99758,1,0,0:0:0:0:
235,172,99930,2,0,P|279:173|322:183,1,87.5
372,316,100272,6,0,P|424:284|460:168,1,175
235,172,100787,1,0,0:0:0:0:
328,384,100958,1,0,0:0:0:0:
392,128,101130,1,0,0:0:0:0:
224,292,101301,2,0,L|172:336,2,43.75
296,64,101644,6,0,P|208:48|136:92,1,175
84,248,102158,1,0,0:0:0:0:
280,348,102330,1,0,0:0:0:0:
232,136,102501,1,0,0:0:0:0:
232,136,102587,1,0,0:0:0:0:
232,136,102672,1,0,0:0:0:0:
140,355,102844,1,0,0:0:0:0:
140,355,103187,6,0,L|284:347,1,140
248,172,103701,1,0,0:0:0:0:
80,280,103872,2,0,P|56:320|44:368,1,70
264,260,104215,1,0,0:0:0:0:
72,200,104387,1,0,0:0:0:0:
248,172,104558,5,0,0:0:0:0:
140,355,104730,1,0,0:0:0:0:
140,144,104901,1,0,0:0:0:0:
340,196,105072,2,0,P|364:256|344:320,1,105
348,316,105415,1,0,0:0:0:0:
424,156,105587,1,0,0:0:0:0:
264,84,105758,1,0,0:0:0:0:
264,84,105844,1,0,0:0:0:0:
264,84,105930,6,0,P|224:68|172:64,1,70
72,200,106272,1,0,0:0:0:0:
72,200,106444,2,0,P|136:244|212:224,1,140
152,152,106958,1,0,0:0:0:0:
152,152,107130,6,0,L|116:272,1,105
112,288,107472,1,0,0:0:0:0:
236,164,107644,1,0,0:0:0:0:
292,344,107815,1,0,0:0:0:0:
292,344,107901,1,0,0:0:0:0:
292,344,107987,1,0,0:0:0:0:
412,216,108158,1,0,0:0:0:0:
412,216,108244,1,0,0:0:0:0:
412,216,108330,1,0,0:0:0:0:
300,84,108501,1,0,0:0:0:0:
300,84,108587,1,0,0:0:0:0:
300,84,108672,6,0,P|236:100|240:168,1,140
216,56,109187,2,0,P|172:48|136:52,1,70
52,168,109530,1,0,0:0:0:0:
52,168,109701,2,0,L|132:172,1,70
232,256,110044,6,0,L|312:252,1,70
204,368,110387,2,0,P|160:336|140:304,1,70
121,171,110730,1,0,0:0:0:0:
308,168,110901,2,0,P|352:164|396:132,1,70
350,49,111244,1,0,0:0:0:0:
350,49,111330,1,0,0:0:0:0:
350,49,111415,6,0,P|305:97|308:160,1,105
308,168,111758,1,0,0:0:0:0:
500,40,111930,1,0,0:0:0:0:
256,16,112101,1,0,0:0:0:0:
340,260,112272,1,0,0:0:0:0:
340,260,112358,1,0,0:0:0:0:
340,260,112444,1,0,0:0:0:0:
204,144,112615,6,0,P|136:120|64:156,1,140
32,256,113130,1,0,0:0:0:0:
204,224,113301,1,0,0:0:0:0:
200,48,113472,2,0,L|200:28,12,11.6666666666667
200,48,114158,6,0,P|284:48|356:76,1,154.000004699707
460,168,114672,1,0,0:0:0:0:
460,168,114844,2,0,L|464:248,1,77.0000023498536
352,324,115187,2,0,L|348:240,1,77.0000023498536
276,136,115530,5,0,0:0:0:0:
252,308,115701,1,0,0:0:0:0:
428,300,115872,1,0,0:0:0:0:
260,212,116044,2,0,P|192:232|156:304,1,154.000004699707
252,308,116558,1,0,0:0:0:0:
136,172,116730,1,0,0:0:0:0:
136,172,116901,6,0,P|120:96|40:56,1,154.000004699707
164,80,117415,2,0,L|244:76,1,77.0000023498536
396,160,117758,2,0,L|316:164,1,77.0000023498536
436,72,118101,1,0,0:0:0:0:
436,72,118272,6,0,P|480:108|468:224,1,154.000004699707
508,276,118787,2,0,P|480:236|376:208,1,154.000004699707
272,312,119301,1,0,0:0:0:0:
240,160,119472,1,0,0:0:0:0:
240,160,119644,6,0,L|224:80,1,77.0000023498536
96,176,119987,1,0,0:0:0:0:
96,176,120158,2,0,L|112:256,1,77.0000023498536
156,120,120501,1,0,0:0:0:0:
24,280,120672,1,0,0:0:0:0:
224,340,120844,6,0,P|288:312|248:240,1,154.000004699707
120,312,121358,1,0,0:0:0:0:
336,200,121530,2,0,L|424:148,1,77.0000023498536
248,160,121872,1,0,0:0:0:0:
452,36,122215,1,0,0:0:0:0:
452,36,122301,1,0,0:0:0:0:
452,36,122387,6,0,L|298:126,1,154.000004699707
280,20,122901,1,0,0:0:0:0:
381,268,123244,1,0,0:0:0:0:
122,196,123587,1,0,0:0:0:0:
122,196,123930,5,0,0:0:0:0:
154,322,124101,1,0,0:0:0:0:
250,234,124272,1,0,0:0:0:0:
250,234,124358,1,0,0:0:0:0:
250,234,124444,2,0,P|296:240|336:248,1,77.0000023498536
384,344,124787,2,0,P|430:338|470:330,1,77.0000023498536
376,176,125130,6,0,P|400:96|472:68,1,140
320,72,125644,1,0,0:0:0:0:
468,160,125815,1,0,0:0:0:0:
216,268,126158,1,0,0:0:0:0:
216,268,126330,6,0,P|148:296|128:228,1,140
236,176,126844,1,0,0:0:0:0:
108,144,127015,1,0,0:0:0:0:
236,64,127187,2,0,P|284:76|332:128,2,105
348,68,127872,6,0,L|436:60,1,70
504,188,128215,1,0,0:0:0:0:
504,188,128387,2,0,L|416:196,1,70
308,288,128730,2,0,L|220:296,1,70
340,208,129072,6,0,P|388:260|384:328,1,140
248,180,129587,1,0,0:0:0:0:
160,296,129758,1,0,0:0:0:0:
160,296,129844,1,0,0:0:0:0:
160,296,129930,2,0,L|108:292,1,35
36,176,130101,1,0,0:0:0:0:
36,176,130187,1,0,0:0:0:0:
36,176,130273,2,0,L|84:172,1,35
272,240,130444,1,0,0:0:0:0:
200,44,130615,5,0,0:0:0:0:
380,160,130787,1,0,0:0:0:0:
176,132,130958,1,0,0:0:0:0:
380,40,131130,1,0,0:0:0:0:
380,40,131215,1,0,0:0:0:0:
380,40,131301,1,0,0:0:0:0:
320,272,131472,1,0,0:0:0:0:
223,55,131644,1,0,0:0:0:0:
392,236,131815,1,0,0:0:0:0:
140,208,131987,6,0,P|92:168|72:124,1,83.9999974365235
68,328,132330,1,0,0:0:0:0:
176,132,132501,2,0,P|224:172|244:216,1,83.9999974365235
220,296,132844,1,0,0:0:0:0:
237,77,133015,1,0,0:0:0:0:
237,77,133101,1,0,0:0:0:0:
237,77,133187,1,0,0:0:0:0:
328,240,133358,6,0,P|384:268|416:272,1,83.9999974365235
314,109,133701,2,0,P|258:81|226:77,1,83.9999974365235
428,140,134044,2,0,P|490:136|520:123,1,83.9999974365235
212,212,134387,2,0,P|149:215|119:228,1,83.9999974365235
292,284,134730,6,0,L|328:359,1,83.9999974365235
205,134,135073,2,0,L|168:58,1,83.9999974365235
368,195,135415,2,0,L|404:270,1,83.9999974365235
129,223,135758,2,0,L|92:147,1,83.9999974365235
304,124,136101,6,0,P|344:104|408:112,1,83.9999974365235
192,293,136444,2,0,P|152:313|88:305,1,83.9999974365235
404,270,136787,2,0,P|448:272|500:311,1,83.9999974365235
92,147,137130,2,0,P|47:144|-4:105,1,83.9999974365235
324,280,137472,6,0,L|356:372,1,83.9999974365235
328,92,137815,2,0,L|296:0,1,83.9999974365235
482,291,138158,2,0,L|514:383,1,83.9999974365235
170,81,138501,2,0,L|138:-11,1,83.9999974365235
68,208,138844,6,0,P|108:240|156:252,1,83.9999974365235
296,112,139187,1,0,0:0:0:0:
232,312,139358,1,0,0:0:0:0:
252,92,139530,1,0,0:0:0:0:
276,324,139701,1,0,0:0:0:0:
208,80,139872,1,0,0:0:0:0:
320,324,140044,1,0,0:0:0:0:
128,204,140215,5,0,0:0:0:0:
380,184,140387,1,0,0:0:0:0:
116,240,140558,1,0,0:0:0:0:
388,144,140730,1,0,0:0:0:0:
152,332,140901,1,0,0:0:0:0:
188,352,140987,1,0,0:0:0:0:
228,356,141072,1,0,0:0:0:0:
272,356,141158,1,0,0:0:0:0:
312,344,141244,2,0,P|376:312|392:292,1,83.9999974365235
380,108,141587,5,0,0:0:0:0:
144,188,141758,1,0,0:0:0:0:
383,303,141930,1,0,0:0:0:0:
276,52,142101,5,0,0:0:0:0:
217,344,142272,1,0,0:0:0:0:
480,164,142444,1,0,0:0:0:0:
168,148,142615,5,0,0:0:0:0:
422,372,142786,1,0,0:0:0:0:
393,10,142958,1,0,0:0:0:0:
160,272,143130,5,0,0:0:0:0:
480,164,143301,1,0,0:0:0:0:
160,56,143472,1,0,0:0:0:0:
160,56,143558,1,0,0:0:0:0:
160,56,143644,2,0,P|108:64|52:80,1,83.9999974365235
68,264,143987,1,0,0:0:0:0:
84,300,144072,1,0,0:0:0:0:
112,332,144158,1,0,0:0:0:0:
148,352,144244,1,0,0:0:0:0:
188,368,144330,6,0,B|260:356|260:356|272:328|272:328|332:312|332:240,1,195.999994018555
176,196,144844,1,0,0:0:0:0:
336,40,145015,2,0,B|392:52|392:52|396:84|396:84|428:104|456:180,1,195.999994018555
388,328,145530,1,0,0:0:0:0:
256,160,145701,6,0,B|188:112|188:112|104:152|88:104,1,195.999994018555
96,272,146215,1,0,0:0:0:0:
264,68,146387,2,0,B|331:46|389:89|389:89|374:164,1,195.999994018555
480,20,146901,1,0,0:0:0:0:
384,272,147072,6,0,P|312:248|280:212,1,97.9999970092774
264,68,147415,1,0,0:0:0:0:
484,220,147587,2,0,P|496:268|480:332,1,97.9999970092774
240,280,147930,1,0,0:0:0:0:
436,132,148101,1,0,0:0:0:0:
312,348,148272,6,0,P|220:376|144:308,1,195.999994018555
28,160,148787,1,0,0:0:0:0:
240,280,148958,1,0,0:0:0:0:
140,36,149130,1,0,0:0:0:0:
140,36,149215,1,0,0:0:0:0:
140,36,149301,1,0,0:0:0:0:
68,288,149472,1,0,0:0:0:0:
288,108,149644,1,0,0:0:0:0:
376,316,149815,6,0,B|440:340|508:312|508:312|496:240,1,195.999994018555
432,96,150330,1,0,0:0:0:0:
232,232,150501,2,0,B|196:144|112:144|112:144|140:108|144:70,1,195.999994018555
280,40,151015,1,0,0:0:0:0:
148,248,151187,6,0,B|180:332|272:304|272:304|268:376,1,195.999994018555
104,324,151701,1,0,0:0:0:0:
131,113,151872,2,0,B|179:57|179:57|235:105|235:105|282:103|311:57,1,195.999994018555
432,16,152387,1,0,0:0:0:0:
384,216,152558,6,0,P|348:260|300:284,1,97.9999970092774
184,168,152901,1,0,0:0:0:0:
464,156,153072,2,0,P|484:209|480:262,1,97.9999970092774
316,352,153415,1,0,0:0:0:0:
280,90,153587,1,0,0:0:0:0:
483,249,153758,1,0,0:0:0:0:
192,296,153930,5,0,0:0:0:0:
88,128,154101,1,0,0:0:0:0:
88,128,154272,2,0,P|136:88|192:64,1,97.9999970092774
364,48,154615,1,0,0:0:0:0:
436,232,154787,1,0,0:0:0:0:
420,276,154872,1,0,0:0:0:0:
384,312,154958,1,0,0:0:0:0:
344,340,155044,1,0,0:0:0:0:
296,344,155130,1,0,0:0:0:0:
248,332,155215,1,0,0:0:0:0:
204,312,155301,6,0,P|152:280|116:248,1,97.9999970092774
76,96,155644,1,0,0:0:0:0:
288,120,155815,2,0,P|320:172|328:240,1,97.9999970092774
124,256,156158,2,0,P|62:257|0:230,1,97.9999970092774
220,32,156501,6,0,P|320:12|392:88,1,195.999994018555
464,216,157015,1,0,0:0:0:0:
144,160,157358,2,0,L|123:262,1,97.9999970092774
8,376,157701,1,0,0:0:0:0:
40,184,157872,1,0,0:0:0:0:
228,288,158044,6,0,L|249:390,1,97.9999970092774
388,248,158387,1,0,0:0:0:0:
388,248,158558,2,0,P|404:196|409:146,1,97.9999970092774
328,8,158901,2,0,P|312:60|307:110,1,97.9999970092774
336,332,159244,6,0,P|444:332|480:248,1,195.999994018555
464,68,159758,1,0,0:0:0:0:
240,168,159930,1,0,0:0:0:0:
484,172,160101,1,0,0:0:0:0:
484,172,160187,1,0,0:0:0:0:
484,172,160272,1,0,0:0:0:0:
260,72,160444,2,0,P|176:92|148:136,1,97.9999970092774
72,232,160787,6,0,L|172:264,1,97.9999970092774
328,320,161130,1,0,0:0:0:0:
264,120,161301,1,0,0:0:0:0:
284,340,161473,1,0,0:0:0:0:
308,108,161644,1,0,0:0:0:0:
240,352,161815,1,0,0:0:0:0:
352,108,161987,1,0,0:0:0:0:
160,228,162158,5,0,0:0:0:0:
412,248,162330,1,0,0:0:0:0:
148,192,162501,1,0,0:0:0:0:
420,288,162673,1,0,0:0:0:0:
168,104,162844,1,0,0:0:0:0:
200,64,162930,1,0,0:0:0:0:
240,36,163015,1,0,0:0:0:0:
288,24,163101,1,0,0:0:0:0:
336,28,163187,2,0,P|400:52|432:76,1,97.9999970092774
352,308,163530,5,0,0:0:0:0:
116,228,163701,1,0,0:0:0:0:
355,113,163873,1,0,0:0:0:0:
220,332,164044,5,0,0:0:0:0:
161,38,164215,1,0,0:0:0:0:
424,218,164387,1,0,0:0:0:0:
116,228,164558,5,0,0:0:0:0:
362,11,164729,1,0,0:0:0:0:
336,359,164901,5,0,0:0:0:0:
96,128,165072,1,0,0:0:0:0:
444,336,165244,1,0,0:0:0:0:
376,72,165415,2,0,P|332:36|268:24,1,97.9999970092774
200,40,165701,2,0,L|168:-12,2,46.6666666666667
168,128,166044,2,0,L|200:180,1,46.6666666666667
280,200,166272,5,0,0:0:0:0:
176,56,177244,5,0,0:0:0:0:
320,120,177587,1,0,0:0:0:0:
320,120,177758,2,0,P|316:176|276:272,1,157.500006008148
308,344,178444,2,0,P|240:312|160:328,1,157.500006008148
88,356,179130,1,0,0:0:0:0:
60,112,179472,2,0,L|180:120,1,105.000004005432
216,180,179987,6,0,L|320:173,1,105.000004005432
344,100,180501,2,0,P|384:128|396:192,1,105.000004005432
352,244,181015,1,0,0:0:0:0:
352,244,181187,2,0,L|288:272,1,52.5000020027161
144,108,183072,5,0,0:0:0:0:
144,108,183244,2,0,P|184:152|244:156,1,105.000004005432
220,80,183758,1,0,0:0:0:0:
220,80,183930,2,0,L|152:188,1,105.000004005432
100,216,184444,1,0,0:0:0:0:
100,216,184615,2,0,L|112:324,1,105.000004005432
268,292,185301,1,0,0:0:0:0:
268,292,185472,6,0,B|320:260|360:292|360:292|432:336|456:248,1,210.000008010865
392,84,186501,1,0,0:0:0:0:
392,84,186672,2,0,B|344:124|264:88|264:88|244:144|212:152,1,210.000008010865
136,280,187701,1,0,0:0:0:0:
136,280,187872,2,0,P|196:288|256:304,1,105
272,304,188215,5,0,0:0:0:0:
456,216,188558,2,0,P|439:185|417:157,1,70
268,68,188901,1,0,0:0:0:0:
352,220,189072,1,0,0:0:0:0:
188,100,189244,1,0,0:0:0:0:
272,252,189415,1,0,0:0:0:0:
356,88,189587,6,0,P|404:64|448:68,1,70
417,157,189930,1,0,0:0:0:0:
268,68,190101,2,0,L|192:16,1,70
64,92,190444,1,0,0:0:0:0:
64,92,190615,2,0,L|140:144,1,70
200,252,190958,6,0,P|252:196|328:232,1,140
436,348,191472,1,0,0:0:0:0:
368,172,191644,1,0,0:0:0:0:
500,308,191815,1,0,0:0:0:0:
432,132,191987,1,0,0:0:0:0:
368,312,192158,1,0,0:0:0:0:
504,172,192330,6,0,P|508:112|460:48,1,140
356,44,192844,2,0,L|280:52,1,70
212,128,193187,2,0,L|51:111,1,140
56,268,193701,2,0,P|80:300|124:328,1,70
180,204,194044,5,0,0:0:0:0:
188,356,194215,1,0,0:0:0:0:
248,172,194387,5,0,0:0:0:0:
346,324,194558,1,0,0:0:0:0:
296,112,194730,5,0,0:0:0:0:
488,208,194901,1,0,0:0:0:0:
232,240,195072,5,0,0:0:0:0:
443,131,195243,1,0,0:0:0:0:
148,128,195415,5,0,0:0:0:0:
401,258,195586,1,0,0:0:0:0:
92,212,195758,5,0,0:0:0:0:
395,56,195929,1,0,0:0:0:0:
38,71,196101,5,0,0:0:0:0:
401,258,196272,1,0,0:0:0:0:
64,288,196444,6,0,L|24:380,1,70
188,112,196787,1,0,0:0:0:0:
300,288,196958,2,0,L|340:380,1,70
104,68,197301,1,0,0:0:0:0:
160,292,197472,2,0,L|136:384,1,70
240,32,197815,5,0,0:0:0:0:
464,288,197987,2,0,L|488:380,1,70
460,132,198330,1,0,0:0:0:0:
300,288,198501,1,0,0:0:0:0:
216,80,198672,1,0,0:0:0:0:
180,56,198758,1,0,0:0:0:0:
140,52,198844,1,0,0:0:0:0:
100,64,198930,1,0,0:0:0:0:
68,92,199015,1,0,0:0:0:0:
52,132,199101,1,0,0:0:0:0:
44,172,199187,6,0,P|40:216|64:272,1,83.9999974365235
248,332,199530,1,0,0:0:0:0:
224,124,199701,1,0,0:0:0:0:
128,328,199872,1,0,0:0:0:0:
352,284,200044,1,0,0:0:0:0:
288,68,200215,2,0,P|252:44|192:44,1,83.9999974365235
312,192,200558,6,0,P|380:156|396:120,1,83.9999974365235
212,40,200901,1,0,0:0:0:0:
256,260,201072,1,0,0:0:0:0:
460,156,201244,6,0,P|424:88|388:72,1,83.9999974365235
208,128,201587,1,0,0:0:0:0:
348,316,201758,1,0,0:0:0:0:
281,82,201930,6,0,P|237:46|177:42,1,83.9999974365235
16,112,202272,2,0,P|60:148|120:152,1,83.9999974365235
296,156,202615,1,0,0:0:0:0:
88,64,202787,1,0,0:0:0:0:
100,288,202958,2,0,L|176:324,1,83.9999974365235
396,204,203301,6,0,L|320:240,1,83.9999974365235
100,112,203644,2,0,L|176:148,1,83.9999974365235
428,116,203987,2,0,P|472:160|480:216,1,83.9999974365235
240,96,204330,2,0,P|196:52|188:-4,1,83.9999974365235
239,273,204672,6,0,P|195:317|139:325,1,83.9999974365235
128,100,205015,1,0,0:0:0:0:
324,216,205187,1,0,0:0:0:0:
100,184,205358,2,0,P|52:152|36:108,1,83.9999974365235
268,120,205701,1,0,0:0:0:0:
96,264,205872,1,0,0:0:0:0:
196,60,206044,6,0,P|260:32|300:36,1,83.9999974365235
204,248,206387,1,0,0:0:0:0:
120,40,206558,1,0,0:0:0:0:
284,196,206730,2,0,P|300:256|280:308,1,83.9999974365235
112,148,207072,1,0,0:0:0:0:
340,124,207244,1,0,0:0:0:0:
144,236,207415,6,0,L|40:224,1,83.9999974365235
204,48,207758,1,0,0:0:0:0:
204,48,207930,2,0,L|304:60,1,83.9999974365235
304,252,208272,1,0,0:0:0:0:
424,100,208444,1,0,0:0:0:0:
448,324,208615,1,0,0:0:0:0:
424,336,208701,1,0,0:0:0:0:
396,348,208787,5,0,0:0:0:0:
368,356,208872,1,0,0:0:0:0:
340,360,208958,2,0,L|244:360,1,83.9999974365235
56,272,209301,1,0,0:0:0:0:
56,272,209387,1,0,0:0:0:0:
56,272,209472,2,0,L|112:268,1,41.9999987182618
328,200,209644,2,0,L|272:196,1,41.9999987182618
56,128,209815,2,0,L|112:124,1,41.9999987182618
286,53,209987,1,0,0:0:0:0:
286,53,210072,1,0,0:0:0:0:
286,53,210158,6,0,L|327:55,1,41.9999987182618
480,108,210330,1,0,0:0:0:0:
286,197,210501,2,0,L|214:133,1,83.9999974365235
408,36,210844,1,0,0:0:0:0:
460,240,211015,1,0,0:0:0:0:
256,288,211187,2,0,L|184:224,1,83.9999974365235
0,320,211530,5,0,0:0:0:0:
200,368,211701,1,0,0:0:0:0:
128,172,211872,2,0,L|56:108,1,83.9999974365235
276,132,212215,1,0,0:0:0:0:
108,260,212387,1,0,0:0:0:0:
208,76,212558,2,0,L|316:28,1,83.9999974365235
460,156,212901,6,0,L|290:231,1,167.999994873047
140,96,213415,1,0,0:0:0:0:
72,296,213587,1,0,0:0:0:0:
52,88,213758,1,0,0:0:0:0:
252,148,213930,1,0,0:0:0:0:
36,220,214101,1,0,0:0:0:0:
312,68,214272,6,0,P|348:172|324:216,1,167.999994873047
120,356,214787,1,0,0:0:0:0:
252,148,214958,2,0,L|428:140,1,167.999994873047
196,40,215472,1,0,0:0:0:0:
196,40,215558,1,0,0:0:0:0:
196,40,215644,5,0,0:0:0:0:
72,208,215815,1,0,0:0:0:0:
260,76,215987,5,0,0:0:0:0:
157,280,216158,1,0,0:0:0:0:
332,108,216330,5,0,0:0:0:0:
259,348,216501,1,0,0:0:0:0:
260,76,216672,5,0,0:0:0:0:
396,286,216843,1,0,0:0:0:0:
184,92,217015,5,0,0:0:0:0:
429,217,217186,1,0,0:0:0:0:
120,276,217358,5,0,0:0:0:0:
389,138,217529,1,0,0:0:0:0:
60,136,217701,5,0,0:0:0:0:
355,287,217872,1,0,0:0:0:0:
232,28,218044,1,0,0:0:0:0:
204,348,218215,1,0,0:0:0:0:
204,348,218301,1,0,0:0:0:0:
204,348,218387,5,0,0:0:0:0:
424,152,218558,1,0,0:0:0:0:
416,120,218644,1,0,0:0:0:0:
396,92,218730,1,0,0:0:0:0:
372,72,218815,1,0,0:0:0:0:
340,64,218901,1,0,0:0:0:0:
264,260,219072,5,0,0:0:0:0:
272,292,219158,1,0,0:0:0:0:
292,320,219244,1,0,0:0:0:0:
316,340,219329,1,0,0:0:0:0:
348,348,219415,1,0,0:0:0:0:
280,148,219587,5,0,0:0:0:0:
257,124,219673,1,0,0:0:0:0:
225,110,219759,1,0,0:0:0:0:
194,104,219844,1,0,0:0:0:0:
163,113,219930,1,0,0:0:0:0:
40,280,220101,5,0,0:0:0:0:
63,304,220187,1,0,0:0:0:0:
95,318,220273,1,0,0:0:0:0:
126,324,220358,1,0,0:0:0:0:
157,315,220444,1,0,0:0:0:0:
436,160,220615,1,0,0:0:0:0:
136,52,220787,1,0,0:0:0:0:
136,52,221130,5,0,0:0:0:0:
256,192,221215,12,0,222244,0:0:0:0:
296,320,222330,6,0,L|308:372,2,41.9999987182618
392,144,223015,2,0,L|336:72,1,83.9999974365235
224,88,223358,1,0,0:0:0:0:
312,188,223530,1,0,0:0:0:0:
312,188,223872,5,0,0:0:0:0:
308,144,233472,5,0,0:0:0:0:
120,60,233815,2,0,L|108:136,1,70
108,232,234158,2,0,L|72:296,2,46.6666666666667
148,204,234501,1,0,0:0:0:0:
192,188,234615,1,0,0:0:0:0:
240,196,234730,1,0,0:0:0:0:
284,216,234844,6,0,P|344:248|440:240,1,140
500,188,235358,2,0,P|504:136|496:112,1,70
444,28,235701,2,0,P|392:24|368:32,1,70
308,108,236044,6,0,L|164:96,1,140
208,356,236729,1,0,0:0:0:0:
208,356,236901,2,0,L|145:302,1,70
72,236,237244,1,0,0:0:0:0:
192,228,237415,1,0,0:0:0:0:
192,228,237587,6,0,L|292:232,1,70
324,316,237930,1,0,0:0:0:0:
324,316,238102,2,0,L|424:312,1,70
436,220,238444,2,0,P|416:168|416:136,1,70
440,48,238787,6,0,P|412:100|328:112,1,140
128,88,239472,1,0,0:0:0:0:
128,88,239644,2,0,L|124:184,1,70
48,232,239987,2,0,L|52:328,1,70
212,220,240330,5,0,0:0:0:0:
212,220,240672,1,0,0:0:0:0:
378,130,240844,1,0,0:0:0:0:
184,195,241015,1,0,0:0:0:0:
399,163,241187,1,0,0:0:0:0:
166,163,241358,1,0,0:0:0:0:
414,199,241530,1,0,0:0:0:0:
256,69,241701,5,0,0:0:0:0:
302,281,241872,1,0,0:0:0:0:
220,62,242044,1,0,0:0:0:0:
338,281,242215,1,0,0:0:0:0:
130,120,242387,1,0,0:0:0:0:
115,156,242472,1,0,0:0:0:0:
112,192,242558,1,0,0:0:0:0:
115,227,242644,1,0,0:0:0:0:
130,263,242730,2,0,P|151:296|200:332,1,83.9999974365235
360,245,243072,5,0,0:0:0:0:
256,69,243244,1,0,0:0:0:0:
241,271,243415,1,0,0:0:0:0:
406,108,243587,5,0,0:0:0:0:
159,110,243759,1,0,0:0:0:0:
360,245,243930,1,0,0:0:0:0:
270,48,244101,5,0,0:0:0:0:
184,312,244273,1,0,0:0:0:0:
424,188,244444,2,0,L|512:148,1,83.9999974365235
159,110,244787,2,0,L|71:150,1,83.9999974365235
228,332,245130,1,0,0:0:0:0:
264,352,245215,1,0,0:0:0:0:
308,352,245301,1,0,0:0:0:0:
348,336,245387,1,0,0:0:0:0:
372,304,245472,1,0,0:0:0:0:
384,264,245558,1,0,0:0:0:0:
376,224,245644,1,0,0:0:0:0:
352,188,245730,1,0,0:0:0:0:
324,160,245815,6,0,P|280:124|204:96,1,125.999996154785
176,96,246158,1,0,0:0:0:0:
16,232,246330,2,0,L|120:276,1,83.9999974365235
256,220,246672,1,0,0:0:0:0:
112,136,246844,1,0,0:0:0:0:
260,340,247101,5,0,0:0:0:0:
300,328,247187,1,0,0:0:0:0:
476,148,247444,5,0,0:0:0:0:
436,136,247530,1,0,0:0:0:0:
264,52,247701,2,0,P|208:52|172:68,1,83.9999974365235
20,256,248130,5,0,0:0:0:0:
48,288,248215,1,0,0:0:0:0:
84,308,248301,1,0,0:0:0:0:
124,312,248387,1,0,0:0:0:0:
164,304,248472,1,0,0:0:0:0:
200,284,248558,6,0,P|240:244|256:212,1,83.9999974365235
264,52,248901,2,0,P|224:92|208:124,1,83.9999974365235
200,284,249244,1,0,0:0:0:0:
368,160,249415,1,0,0:0:0:0:
156,172,249587,1,0,0:0:0:0:
308,316,249758,1,0,0:0:0:0:
308,316,249844,1,0,0:0:0:0:
308,316,249930,6,0,L|412:308,1,83.9999974365235
488,204,250272,1,0,0:0:0:0:
280,224,250444,1,0,0:0:0:0:
280,224,250615,2,0,L|176:232,1,83.9999974365235
56,136,250958,2,0,L|160:128,1,83.9999974365235
328,60,251301,6,0,B|388:72|388:72|396:112|396:112|456:132|456:212,1,195.999994018555
348,312,251815,1,0,0:0:0:0:
188,124,251987,2,0,B|128:52|56:88|56:88|56:152,1,195.999994018555
68,300,252501,1,0,0:0:0:0:
264,164,252672,6,0,B|296:92|220:36|220:36|296:12,1,195.999994018555
432,32,253187,1,0,0:0:0:0:
320,248,253358,2,0,B|232:292|180:220|180:220|132:236,1,195.999994018555
20,340,253872,1,0,0:0:0:0:
116,136,254044,6,0,P|168:128|228:124,1,97.9999970092774
328,4,254387,1,0,0:0:0:0:
88,40,254558,2,0,P|24:96|16:128,1,97.9999970092774
180,292,254901,1,0,0:0:0:0:
172,48,255072,1,0,0:0:0:0:
64,264,255244,1,0,0:0:0:0:
284,116,255415,5,0,0:0:0:0:
428,248,255587,1,0,0:0:0:0:
428,248,255758,2,0,L|320:276,1,97.9999970092774
144,224,256101,2,0,L|252:196,1,97.9999970092774
432,164,256444,2,0,P|480:184|512:228,1,97.9999970092774
238,199,256787,6,0,P|175:103|241:21,1,195.999994018555
296,112,257301,1,0,0:0:0:0:
296,112,257472,2,0,L|156:136,1,97.9999970092774
92,40,257815,1,0,0:0:0:0:
64,264,257987,6,0,L|274:228,1,195.999994018555
368,68,258501,1,0,0:0:0:0:
148,172,258672,1,0,0:0:0:0:
392,160,258844,2,0,P|460:104|464:60,1,97.9999970092774
268,132,259187,1,0,0:0:0:0:
468,276,259358,1,0,0:0:0:0:
336,68,259530,6,0,P|272:36|224:48,1,97.9999970092774
120,184,259872,1,0,0:0:0:0:
120,184,260044,2,0,L|216:208,1,97.9999970092774
352,352,260387,2,0,L|256:328,1,97.9999970092774
72,268,260730,6,0,P|24:184|72:100,1,195.999994018555
296,192,261244,1,0,0:0:0:0:
112,32,261415,1,0,0:0:0:0:
352,20,261587,1,0,0:0:0:0:
352,20,261758,2,0,L|448:44,1,97.9999970092774
492,188,262101,5,0,0:0:0:0:
492,188,262272,2,0,L|396:164,1,97.9999970092774
191,109,262615,1,0,0:0:0:0:
342,271,262787,1,0,0:0:0:0:
220,76,262958,1,0,0:0:0:0:
309,296,263130,1,0,0:0:0:0:
252,48,263301,1,0,0:0:0:0:
273,321,263472,1,0,0:0:0:0:
385,130,263644,5,0,0:0:0:0:
140,227,263815,1,0,0:0:0:0:
414,159,263987,1,0,0:0:0:0:
119,195,264158,1,0,0:0:0:0:
435,192,264330,1,0,0:0:0:0:
104,159,264501,1,0,0:0:0:0:
450,227,264672,1,0,0:0:0:0:
220,94,264844,6,0,P|160:86|112:92,1,97.9999970092774
155,310,265187,1,0,0:0:0:0:
299,145,265358,1,0,0:0:0:0:
73,186,265530,5,0,0:0:0:0:
331,263,265701,1,0,0:0:0:0:
132,91,265872,1,0,0:0:0:0:
216,343,266044,5,0,0:0:0:0:
308,32,266215,1,0,0:0:0:0:
101,271,266386,1,0,0:0:0:0:
349,55,266558,1,0,0:0:0:0:
69,238,266730,1,0,0:0:0:0:
399,141,266901,1,0,0:0:0:0:
399,141,267072,2,0,L|496:156,1,97.9999970092774
421,217,267330,2,0,L|324:202,1,97.9999970092774
248,224,267587,1,0,0:0:0:0:
407,299,267758,6,0,P|486:271|504:235,1,97.9999970092774
349,80,268101,5,0,0:0:0:0:
288,287,268272,1,0,0:0:0:0:
425,128,268443,1,0,0:0:0:0:
184,134,268615,5,0,0:0:0:0:
362,321,268786,1,0,0:0:0:0:
279,84,268957,1,0,0:0:0:0:
86,307,269130,5,0,0:0:0:0:
387,234,269301,1,0,0:0:0:0:
91,177,269473,1,0,0:0:0:0:
391,104,269644,1,0,0:0:0:0:
108,56,269815,2,0,P|51:45|-3:45,1,97.9999970092774
387,234,270158,2,0,P|444:244|498:244,1,97.9999970092774
140,247,270501,5,0,0:0:0:0:
140,247,270844,1,0,0:0:0:0:
140,127,271015,1,0,0:0:0:0:
223,271,271187,1,0,0:0:0:0:
223,102,271358,1,0,0:0:0:0:
306,304,271530,1,0,0:0:0:0:
306,66,271701,1,0,0:0:0:0:
392,334,271872,5,0,0:0:0:0:
96,128,273244,6,0,P|148:180|272:168,1,195.999994018555
396,160,273758,2,0,P|432:216|440:256,1,97.9999970092774
344,364,274101,2,0,P|308:308|300:268,1,97.9999970092774
263,173,274444,6,0,B|283:105|235:33|235:33|175:117|175:117|143:57|143:57|83:169|0:128,1,489.999985046387
