osu file format v14

[General]
AudioFilename: audio.mp3
AudioLeadIn: 0
PreviewTime: 213704
Countdown: 0
SampleSet: None
StackLeniency: 0.7
Mode: 3
LetterboxInBreaks: 0
SpecialStyle: 0
WidescreenStoryboard: 0

[Editor]
Bookmarks: 189919
DistanceSpacing: 1
BeatDivisor: 4
GridSize: 4
TimelineZoom: 1.7

[Metadata]
Title:Hakkensha wa Watashi
TitleUnicode:発見者はワタシ
Artist:Tapimiru
ArtistUnicode:たぴみる
Creator:Arzenvald
Version:Anime
Source:ゼロから始める魔法の書
Tags:Zero kara Hajimeru Mahou no Sho Syo zeronosyo Opening Ajeemaniz ExUsagi Amiichii
BeatmapID:1296579
BeatmapSetID:614642

[Difficulty]
HPDrainRate:9
CircleSize:4
OverallDifficulty:8
ApproachRate:5
SliderMultiplier:1.4
SliderTickRate:1

[Events]
//Background and Video events
0,0,"BGez.jpg",0,0
//Break Periods
//Storyboard Layer 0 (Background)
//Storyboard Layer 1 (Fail)
//Storyboard Layer 2 (Pass)
//Storyboard Layer 3 (Foreground)
//Storyboard Sound Samples

[TimingPoints]
662,342.857142857143,4,3,1,69,1,0
58262,-100,4,3,1,69,0,1
80204,-100,4,3,1,69,0,0
135062,-100,4,3,1,69,0,1
157004,-100,4,3,1,69,0,0
225576,-100,4,3,1,69,0,1
231062,-100,4,3,1,69,0,0
235176,-200,4,3,1,69,0,0
235433,-50,4,3,1,69,0,0
235519,-200,4,3,1,69,0,0
235776,-50,4,3,1,69,0,0
235862,-200,4,3,1,69,0,0
235947,-66.6666666666667,4,3,1,69,0,0
236033,-100,4,3,1,69,0,0
236890,-50,4,3,1,69,0,1
236976,-200,4,3,1,69,0,1
237233,-100,4,3,1,69,0,1
241862,-100,4,3,1,69,0,0
242033,-100,4,3,1,69,0,1
242376,-50,4,3,1,69,0,1
242397,-200,4,3,1,69,0,1
242440,-100,4,3,1,69,0,1
243062,-50,4,3,1,69,0,1
243083,-200,4,3,1,69,0,1
243126,-100,4,3,1,69,0,1
243747,-50,4,3,1,69,0,1
243769,-200,4,3,1,69,0,1
243812,-100,4,3,1,69,0,1
244433,-50,4,3,1,69,0,1
244454,-200,4,3,1,69,0,1
244497,-100,4,3,1,69,0,1
245119,-50,4,3,1,69,0,1
245140,-200,4,3,1,69,0,1
245183,-100,4,3,1,69,0,1
245804,-50,4,3,1,69,0,1
245826,-200,4,3,1,69,0,1
245869,-100,4,3,1,69,0,1
246490,-50,4,3,1,69,0,1
246512,-200,4,3,1,69,0,1
246554,-100,4,3,1,69,0,1
247176,-50,4,3,1,69,0,1
247197,-200,4,3,1,69,0,1
247240,-100,4,3,1,69,0,1
247862,-50,4,3,1,69,0,1
247883,-200,4,3,1,69,0,1
247926,-100,4,3,1,69,0,1
248547,-50,4,3,1,69,0,1
248569,-200,4,3,1,69,0,1
248612,-100,4,3,1,69,0,1
249233,-50,4,3,1,69,0,1
249254,-200,4,3,1,69,0,1
249297,-100,4,3,1,69,0,1
249919,-50,4,3,1,69,0,1
249940,-200,4,3,1,69,0,1
249983,-100,4,3,1,69,0,1
250604,-50,4,3,1,69,0,1
250626,-200,4,3,1,69,0,1
250669,-100,4,3,1,69,0,1
251290,-50,4,3,1,69,0,1
251312,-200,4,3,1,69,0,1
251354,-100,4,3,1,69,0,1
251976,-50,4,3,1,69,0,1
251997,-200,4,3,1,69,0,1
252040,-100,4,3,1,69,0,1
252662,-50,4,3,1,69,0,1
252683,-200,4,3,1,69,0,1
252726,-100,4,3,1,69,0,1
253004,-50,4,3,1,69,0,1
253090,-200,4,3,1,69,0,1
253262,-100,4,3,1,69,0,1
257804,-100,4,3,1,69,0,0
258490,-100,4,3,1,69,0,1
263976,-100,4,3,1,69,0,0

[HitObjects]
64,192,319,128,2,662:0:0:0:0:
192,192,662,1,4,0:0:0:0:
320,192,662,1,8,0:0:0:0:
448,192,662,1,0,0:0:0:0:
192,192,833,1,8,0:0:0:0:
448,192,833,1,0,0:0:0:0:
64,192,1347,1,8,0:0:0:0:
320,192,1347,1,0,0:0:0:0:
64,192,1519,1,8,0:0:0:0:
320,192,1519,1,0,0:0:0:0:
192,192,2033,1,8,0:0:0:0:
320,192,2033,1,0,0:0:0:0:
192,192,2204,1,8,0:0:0:0:
320,192,2204,1,0,0:0:0:0:
64,192,2547,128,8,2890:0:0:0:0:
448,192,2547,128,4,2890:0:0:0:0:
192,192,2890,1,8,0:0:0:0:
320,192,2890,1,0,0:0:0:0:
192,192,3062,1,8,0:0:0:0:
320,192,3062,1,0,0:0:0:0:
192,192,3233,1,8,0:0:0:0:
320,192,3233,1,0,0:0:0:0:
64,192,3404,1,8,0:0:0:0:
448,192,3404,1,0,0:0:0:0:
64,192,3576,1,8,0:0:0:0:
448,192,3576,1,0,0:0:0:0:
64,192,4090,1,8,0:0:0:0:
192,192,4090,1,0,0:0:0:0:
64,192,4262,1,8,0:0:0:0:
192,192,4262,1,0,0:0:0:0:
192,192,4776,1,8,0:0:0:0:
320,192,4776,1,0,0:0:0:0:
192,192,4947,1,8,0:0:0:0:
320,192,4947,1,0,0:0:0:0:
64,192,5290,1,8,0:0:0:0:
320,192,5290,1,4,0:0:0:0:
448,192,5290,128,0,5804:0:0:0:0:
192,192,5633,1,8,0:0:0:0:
320,192,5719,1,8,0:0:0:0:
64,192,5804,1,8,0:0:0:0:
192,192,5804,1,0,0:0:0:0:
448,192,5890,1,8,0:0:0:0:
320,192,5976,1,8,0:0:0:0:
192,192,6062,1,8,0:0:0:0:
64,192,6147,1,2,0:0:0:0:
320,192,6147,1,4,0:0:0:0:
448,192,6147,1,0,0:0:0:0:
192,192,6319,1,2,0:0:0:0:
192,192,6490,1,8,0:0:0:0:
448,192,6490,1,0,0:0:0:0:
320,192,6662,1,0,0:0:0:0:
192,192,6747,1,0,0:0:0:0:
64,192,6833,1,2,0:0:0:0:
320,192,6833,1,0,0:0:0:0:
192,192,7004,1,2,0:0:0:0:
448,192,7004,1,0,0:0:0:0:
320,192,7176,1,8,0:0:0:0:
192,192,7176,1,0,0:0:0:0:
64,192,7347,128,2,7776:0:0:0:0:
448,192,7347,1,0,0:0:0:0:
320,192,7690,128,2,7947:0:0:0:0:
448,192,7690,1,0,0:0:0:0:
64,192,7862,128,8,8119:0:0:0:0:
192,192,7862,1,0,0:0:0:0:
320,192,8033,128,0,8547:0:0:0:0:
448,192,8033,1,0,0:0:0:0:
64,192,8204,128,2,8547:0:0:0:0:
192,192,8204,1,0,0:0:0:0:
192,192,8376,1,2,0:0:0:0:
192,192,8547,1,8,0:0:0:0:
448,192,8547,1,0,0:0:0:0:
64,192,8719,1,2,0:0:0:0:
448,192,8719,128,0,9062:0:0:0:0:
64,192,9062,1,0,0:0:0:0:
192,192,9233,1,8,0:0:0:0:
448,192,9233,1,0,0:0:0:0:
320,192,9404,1,0,0:0:0:0:
448,192,9404,1,0,0:0:0:0:
64,192,9576,1,2,0:0:0:0:
448,192,9576,1,0,0:0:0:0:
320,192,9683,1,0,0:0:0:0:
192,192,9790,1,0,0:0:0:0:
64,192,9919,1,8,0:0:0:0:
320,192,9919,1,0,0:0:0:0:
64,192,10090,1,2,0:0:0:0:
192,192,10090,1,4,0:0:0:0:
448,192,10090,128,0,10433:0:0:0:0:
64,192,10433,1,2,0:0:0:0:
320,192,10433,1,0,0:0:0:0:
64,192,10604,1,8,0:0:0:0:
192,192,10604,1,0,0:0:0:0:
64,192,10776,1,2,0:0:0:0:
320,192,10776,1,4,0:0:0:0:
448,192,10776,1,0,0:0:0:0:
192,192,10947,1,0,0:0:0:0:
448,192,10947,1,0,0:0:0:0:
320,192,11033,1,0,0:0:0:0:
192,192,11119,1,2,0:0:0:0:
64,192,11290,1,8,0:0:0:0:
320,192,11290,1,0,0:0:0:0:
192,192,11462,1,8,0:0:0:0:
192,192,11547,1,8,0:0:0:0:
64,192,11633,1,4,0:0:0:0:
320,192,11633,1,2,0:0:0:0:
448,192,11633,1,0,0:0:0:0:
448,192,11804,1,0,0:0:0:0:
64,192,11976,1,8,0:0:0:0:
320,192,11976,1,0,0:0:0:0:
192,192,12147,1,0,0:0:0:0:
320,192,12147,1,0,0:0:0:0:
448,192,12319,1,2,0:0:0:0:
320,192,12404,1,0,0:0:0:0:
192,192,12490,1,2,0:0:0:0:
448,192,12490,1,0,0:0:0:0:
64,192,12662,1,8,0:0:0:0:
320,192,12662,1,0,0:0:0:0:
64,192,12833,128,2,13262:0:0:0:0:
192,192,12833,1,0,0:0:0:0:
320,192,13176,1,2,0:0:0:0:
448,192,13176,128,0,13433:0:0:0:0:
64,192,13347,128,8,13604:0:0:0:0:
192,192,13347,1,0,0:0:0:0:
320,192,13519,1,0,0:0:0:0:
448,192,13519,128,0,14033:0:0:0:0:
64,192,13690,128,2,14033:0:0:0:0:
192,192,13690,1,0,0:0:0:0:
192,192,13862,1,2,0:0:0:0:
192,192,14033,1,8,0:0:0:0:
320,192,14033,1,0,0:0:0:0:
320,192,14204,1,2,0:0:0:0:
448,192,14204,128,0,14547:0:0:0:0:
192,192,14376,1,2,0:0:0:0:
64,192,14547,1,2,0:0:0:0:
320,192,14547,1,0,0:0:0:0:
192,192,14719,1,8,0:0:0:0:
320,192,14719,1,0,0:0:0:0:
192,192,14890,1,2,0:0:0:0:
448,192,14890,1,0,0:0:0:0:
320,192,15062,1,8,0:0:0:0:
448,192,15062,1,0,0:0:0:0:
64,192,15147,1,0,0:0:0:0:
192,192,15233,1,2,0:0:0:0:
448,192,15233,1,0,0:0:0:0:
64,192,15404,1,8,0:0:0:0:
320,192,15404,1,0,0:0:0:0:
64,192,15576,1,4,0:0:0:0:
192,192,15576,1,2,0:0:0:0:
448,192,15576,128,0,15919:0:0:0:0:
192,192,15919,1,2,0:0:0:0:
320,192,15919,1,0,0:0:0:0:
64,192,16090,1,8,0:0:0:0:
192,192,16090,1,0,0:0:0:0:
64,192,16262,1,4,0:0:0:0:
320,192,16262,1,2,0:0:0:0:
448,192,16262,1,0,0:0:0:0:
192,192,16433,1,0,0:0:0:0:
448,192,16433,1,0,0:0:0:0:
320,192,16547,1,0,0:0:0:0:
192,192,16604,1,2,0:0:0:0:
448,192,16604,1,0,0:0:0:0:
64,192,16776,128,2,17119:0:0:0:0:
320,192,16776,1,0,0:0:0:0:
192,192,17119,1,4,0:0:0:0:
320,192,17119,1,2,0:0:0:0:
448,192,17119,1,0,0:0:0:0:
192,192,17462,1,2,0:0:0:0:
320,192,17462,1,0,0:0:0:0:
192,192,17633,1,0,0:0:0:0:
192,192,17804,1,2,0:0:0:0:
320,192,17804,1,0,0:0:0:0:
192,192,17976,1,0,0:0:0:0:
192,192,18147,1,2,0:0:0:0:
320,192,18147,1,0,0:0:0:0:
192,192,18319,1,0,0:0:0:0:
320,192,18490,1,2,0:0:0:0:
448,192,18490,1,0,0:0:0:0:
448,192,18662,1,0,0:0:0:0:
320,192,18833,1,2,0:0:0:0:
448,192,18833,1,0,0:0:0:0:
448,192,19004,1,0,0:0:0:0:
320,192,19176,1,2,0:0:0:0:
448,192,19176,1,0,0:0:0:0:
448,192,19347,1,0,0:0:0:0:
320,192,19519,1,2,0:0:0:0:
448,192,19519,1,0,0:0:0:0:
448,192,19690,1,0,0:0:0:0:
64,192,19862,1,2,0:0:0:0:
320,192,19862,1,0,0:0:0:0:
320,192,20033,1,0,0:0:0:0:
64,192,20204,1,2,0:0:0:0:
320,192,20204,1,0,0:0:0:0:
320,192,20376,1,0,0:0:0:0:
64,192,20547,1,2,0:0:0:0:
320,192,20547,1,0,0:0:0:0:
320,192,20719,1,0,0:0:0:0:
64,192,20890,1,2,0:0:0:0:
320,192,20890,1,0,0:0:0:0:
320,192,21062,1,0,0:0:0:0:
64,192,21233,1,2,0:0:0:0:
448,192,21233,1,0,0:0:0:0:
64,192,21404,1,0,0:0:0:0:
64,192,21576,1,2,0:0:0:0:
448,192,21576,1,0,0:0:0:0:
64,192,21747,1,0,0:0:0:0:
64,192,21919,1,2,0:0:0:0:
448,192,21919,1,0,0:0:0:0:
64,192,22090,1,0,0:0:0:0:
64,192,22262,1,2,0:0:0:0:
448,192,22262,1,0,0:0:0:0:
64,192,22433,1,0,0:0:0:0:
192,192,22604,1,2,0:0:0:0:
448,192,22604,1,0,0:0:0:0:
192,192,22776,1,0,0:0:0:0:
192,192,22947,1,2,0:0:0:0:
448,192,22947,1,0,0:0:0:0:
192,192,23119,1,0,0:0:0:0:
192,192,23290,1,2,0:0:0:0:
448,192,23290,1,0,0:0:0:0:
192,192,23462,1,0,0:0:0:0:
192,192,23633,1,2,0:0:0:0:
448,192,23633,1,0,0:0:0:0:
192,192,23804,1,0,0:0:0:0:
64,192,23976,1,2,0:0:0:0:
192,192,23976,1,0,0:0:0:0:
64,192,24147,1,0,0:0:0:0:
64,192,24319,1,2,0:0:0:0:
192,192,24319,1,0,0:0:0:0:
64,192,24490,1,0,0:0:0:0:
320,192,24662,1,2,0:0:0:0:
448,192,24662,1,0,0:0:0:0:
448,192,24833,1,0,0:0:0:0:
320,192,25004,1,2,0:0:0:0:
448,192,25004,1,0,0:0:0:0:
448,192,25176,1,0,0:0:0:0:
64,192,25347,1,2,0:0:0:0:
320,192,25347,1,0,0:0:0:0:
320,192,25519,1,0,0:0:0:0:
64,192,25690,1,2,0:0:0:0:
192,192,25690,1,0,0:0:0:0:
192,192,25862,1,0,0:0:0:0:
64,192,26033,128,4,26376:0:0:0:0:
448,192,26033,1,2,0:0:0:0:
192,192,26376,1,8,0:0:0:0:
448,192,26376,1,0,0:0:0:0:
64,192,26547,1,2,0:0:0:0:
192,192,26547,1,4,0:0:0:0:
320,192,26547,128,0,26890:0:0:0:0:
192,192,26890,1,2,0:0:0:0:
320,192,26976,1,2,0:0:0:0:
64,192,27062,1,8,0:0:0:0:
192,192,27062,1,0,0:0:0:0:
64,192,27233,1,2,0:0:0:0:
320,192,27233,1,4,0:0:0:0:
448,192,27233,1,0,0:0:0:0:
64,192,27576,1,2,0:0:0:0:
448,192,27576,1,0,0:0:0:0:
64,192,27747,1,8,0:0:0:0:
192,192,27747,1,0,0:0:0:0:
320,192,27833,1,8,0:0:0:0:
448,192,27833,1,0,0:0:0:0:
64,192,27919,1,8,0:0:0:0:
192,192,27919,1,0,0:0:0:0:
320,192,28004,1,8,0:0:0:0:
64,192,28090,1,2,0:0:0:0:
192,192,28090,1,4,0:0:0:0:
448,192,28090,1,0,0:0:0:0:
64,192,28433,1,8,0:0:0:0:
448,192,28433,1,0,0:0:0:0:
320,192,28604,1,0,0:0:0:0:
64,192,28776,1,2,0:0:0:0:
192,192,28776,1,0,0:0:0:0:
192,192,28947,1,2,0:0:0:0:
320,192,29119,1,8,0:0:0:0:
448,192,29119,1,0,0:0:0:0:
448,192,29290,1,0,0:0:0:0:
64,192,29462,1,2,0:0:0:0:
192,192,29462,1,0,0:0:0:0:
192,192,29633,1,2,0:0:0:0:
320,192,29633,1,0,0:0:0:0:
320,192,29804,1,8,0:0:0:0:
448,192,29804,1,0,0:0:0:0:
64,192,29976,1,2,0:0:0:0:
448,192,29976,128,0,30319:0:0:0:0:
192,192,30062,1,8,0:0:0:0:
320,192,30147,1,2,0:0:0:0:
64,192,30319,1,2,0:0:0:0:
192,192,30319,1,0,0:0:0:0:
320,192,30490,1,8,0:0:0:0:
448,192,30490,1,0,0:0:0:0:
192,192,30662,1,0,0:0:0:0:
64,192,30833,1,2,0:0:0:0:
320,192,30833,1,0,0:0:0:0:
320,192,31176,1,8,0:0:0:0:
448,192,31176,1,0,0:0:0:0:
192,192,31347,1,2,0:0:0:0:
320,192,31433,1,8,0:0:0:0:
64,192,31519,1,2,0:0:0:0:
192,192,31519,1,0,0:0:0:0:
320,192,31690,1,2,0:0:0:0:
192,192,31862,1,8,0:0:0:0:
448,192,31862,1,0,0:0:0:0:
192,192,32033,1,0,0:0:0:0:
64,192,32204,1,2,0:0:0:0:
320,192,32204,1,0,0:0:0:0:
64,192,32376,1,2,0:0:0:0:
320,192,32376,1,0,0:0:0:0:
448,192,32547,1,8,0:0:0:0:
192,192,32719,128,2,32976:0:0:0:0:
448,192,32719,1,0,0:0:0:0:
192,192,33062,128,2,33147:0:0:0:0:
448,192,33062,1,0,0:0:0:0:
192,192,33233,128,8,33404:0:0:0:0:
448,192,33233,1,0,0:0:0:0:
64,192,33404,1,0,0:0:0:0:
64,192,33576,1,2,0:0:0:0:
192,192,33576,1,4,0:0:0:0:
448,192,33576,1,0,0:0:0:0:
192,192,33919,1,8,0:0:0:0:
320,192,33919,1,0,0:0:0:0:
448,192,34090,1,0,0:0:0:0:
64,192,34262,1,2,0:0:0:0:
192,192,34262,1,0,0:0:0:0:
64,192,34433,1,2,0:0:0:0:
192,192,34433,1,0,0:0:0:0:
320,192,34604,1,8,0:0:0:0:
448,192,34604,1,0,0:0:0:0:
64,192,34776,128,4,35119:0:0:0:0:
192,192,34776,1,2,0:0:0:0:
448,192,34776,1,0,0:0:0:0:
192,192,35119,1,2,0:0:0:0:
448,192,35119,1,0,0:0:0:0:
192,192,35290,1,8,0:0:0:0:
320,192,35290,1,0,0:0:0:0:
64,192,35462,1,2,0:0:0:0:
320,192,35462,1,4,0:0:0:0:
448,192,35462,128,0,35804:0:0:0:0:
64,192,35804,1,2,0:0:0:0:
192,192,35804,1,0,0:0:0:0:
320,192,35976,1,8,0:0:0:0:
448,192,35976,1,0,0:0:0:0:
192,192,36147,1,0,0:0:0:0:
64,192,36319,1,2,0:0:0:0:
320,192,36319,1,4,0:0:0:0:
448,192,36319,1,0,0:0:0:0:
64,192,36490,1,2,0:0:0:0:
320,192,36490,1,0,0:0:0:0:
192,192,36662,1,8,0:0:0:0:
448,192,36662,1,0,0:0:0:0:
64,192,36833,1,2,0:0:0:0:
320,192,36833,1,0,0:0:0:0:
64,192,37176,1,2,0:0:0:0:
320,192,37176,1,0,0:0:0:0:
192,192,37347,1,8,0:0:0:0:
320,192,37347,1,0,0:0:0:0:
64,192,37519,1,2,0:0:0:0:
192,192,37519,1,4,0:0:0:0:
448,192,37519,128,0,37862:0:0:0:0:
64,192,37862,1,2,0:0:0:0:
192,192,37862,1,0,0:0:0:0:
192,192,38033,1,8,0:0:0:0:
320,192,38033,1,0,0:0:0:0:
320,192,38204,1,8,0:0:0:0:
448,192,38204,128,0,38376:0:0:0:0:
64,192,38290,1,8,0:0:0:0:
192,192,38376,1,8,0:0:0:0:
320,192,38376,128,0,38547:0:0:0:0:
64,192,38547,1,2,0:0:0:0:
192,192,38547,128,0,38719:0:0:0:0:
64,192,38719,128,2,39062:0:0:0:0:
448,192,38719,1,0,0:0:0:0:
192,192,39062,1,4,0:0:0:0:
320,192,39062,1,2,0:0:0:0:
448,192,39062,1,0,0:0:0:0:
64,192,39233,1,0,0:0:0:0:
64,192,39404,1,0,0:0:0:0:
192,192,39576,1,0,0:0:0:0:
448,192,39576,1,0,0:0:0:0:
64,192,39919,1,0,0:0:0:0:
320,192,39919,1,0,0:0:0:0:
192,192,40090,1,0,0:0:0:0:
64,192,40262,1,0,0:0:0:0:
448,192,40262,1,0,0:0:0:0:
320,192,40433,1,0,0:0:0:0:
192,192,40604,1,0,0:0:0:0:
448,192,40604,1,0,0:0:0:0:
64,192,40776,1,0,0:0:0:0:
192,192,40947,128,0,41290:0:0:0:0:
320,192,41290,128,0,41633:0:0:0:0:
64,192,41462,1,0,0:0:0:0:
192,192,41804,1,0,0:0:0:0:
448,192,41804,1,0,0:0:0:0:
320,192,41976,1,0,0:0:0:0:
192,192,42147,1,0,0:0:0:0:
64,192,42319,1,0,0:0:0:0:
320,192,42319,1,0,0:0:0:0:
64,192,42662,1,0,0:0:0:0:
192,192,42833,1,0,0:0:0:0:
64,192,43004,1,0,0:0:0:0:
448,192,43004,1,0,0:0:0:0:
64,192,43347,1,2,0:0:0:0:
192,192,43347,1,0,0:0:0:0:
64,192,43519,1,2,0:0:0:0:
320,192,43519,1,0,0:0:0:0:
320,192,43690,1,2,0:0:0:0:
448,192,43690,1,0,0:0:0:0:
192,192,43776,1,2,0:0:0:0:
64,192,43862,1,8,0:0:0:0:
448,192,43862,1,0,0:0:0:0:
64,192,44033,1,2,0:0:0:0:
320,192,44033,1,0,0:0:0:0:
64,192,44204,1,8,0:0:0:0:
192,192,44204,1,4,0:0:0:0:
448,192,44204,1,0,0:0:0:0:
448,192,44376,128,0,44547:0:0:0:0:
64,192,44547,1,4,0:0:0:0:
320,192,44547,1,2,0:0:0:0:
64,192,44719,1,2,0:0:0:0:
320,192,44719,1,0,0:0:0:0:
64,192,44890,1,8,0:0:0:0:
192,192,44890,1,2,0:0:0:0:
320,192,44890,1,0,0:0:0:0:
64,192,45062,1,2,0:0:0:0:
320,192,45062,1,0,0:0:0:0:
192,192,45147,1,2,0:0:0:0:
320,192,45233,1,2,0:0:0:0:
448,192,45233,1,0,0:0:0:0:
320,192,45404,1,2,0:0:0:0:
448,192,45404,1,0,0:0:0:0:
64,192,45576,1,8,0:0:0:0:
320,192,45576,1,2,0:0:0:0:
448,192,45576,1,0,0:0:0:0:
320,192,45747,1,2,0:0:0:0:
448,192,45747,1,0,0:0:0:0:
192,192,45833,1,2,0:0:0:0:
64,192,45919,1,2,0:0:0:0:
448,192,45919,1,0,0:0:0:0:
64,192,46090,1,2,0:0:0:0:
448,192,46090,1,0,0:0:0:0:
64,192,46262,1,8,0:0:0:0:
192,192,46262,1,2,0:0:0:0:
448,192,46262,1,0,0:0:0:0:
64,192,46433,1,2,0:0:0:0:
320,192,46433,1,4,0:0:0:0:
448,192,46433,1,0,0:0:0:0:
64,192,46776,1,8,0:0:0:0:
192,192,46776,1,2,0:0:0:0:
320,192,46776,1,0,0:0:0:0:
192,192,46947,1,8,0:0:0:0:
320,192,46947,1,2,0:0:0:0:
448,192,46947,1,0,0:0:0:0:
64,192,47119,1,2,0:0:0:0:
192,192,47204,1,2,0:0:0:0:
64,192,47290,128,8,47633:0:0:0:0:
320,192,47290,1,2,0:0:0:0:
448,192,47290,1,4,0:0:0:0:
192,192,47633,128,8,47804:0:0:0:0:
448,192,47633,1,2,0:0:0:0:
320,192,47804,128,0,48662:0:0:0:0:
64,192,47976,1,8,0:0:0:0:
448,192,47976,1,2,0:0:0:0:
192,192,48147,1,2,0:0:0:0:
64,192,48319,1,8,0:0:0:0:
448,192,48319,1,2,0:0:0:0:
64,192,48662,1,8,0:0:0:0:
192,192,48662,128,2,49004:0:0:0:0:
64,192,49004,1,8,0:0:0:0:
320,192,49004,128,2,49176:0:0:0:0:
448,192,49176,128,0,50033:0:0:0:0:
64,192,49347,1,8,0:0:0:0:
320,192,49347,1,2,0:0:0:0:
192,192,49519,1,2,0:0:0:0:
64,192,49690,1,8,0:0:0:0:
320,192,49690,1,2,0:0:0:0:
320,192,49862,1,2,0:0:0:0:
64,192,50033,128,8,50376:0:0:0:0:
192,192,50033,1,2,0:0:0:0:
320,192,50033,1,4,0:0:0:0:
192,192,50376,1,8,0:0:0:0:
448,192,50376,128,2,50547:0:0:0:0:
320,192,50547,128,0,51233:0:0:0:0:
64,192,50719,1,8,0:0:0:0:
448,192,50719,1,2,0:0:0:0:
192,192,50890,1,2,0:0:0:0:
64,192,51062,1,8,0:0:0:0:
448,192,51062,1,2,0:0:0:0:
192,192,51233,128,2,51404:0:0:0:0:
320,192,51404,1,8,0:0:0:0:
448,192,51404,128,2,51747:0:0:0:0:
192,192,51747,1,8,0:0:0:0:
320,192,51747,128,2,51919:0:0:0:0:
64,192,51919,128,0,52690:0:0:0:0:
192,192,52090,1,8,0:0:0:0:
320,192,52090,1,2,0:0:0:0:
448,192,52262,128,2,52690:0:0:0:0:
192,192,52433,1,14,0:0:0:0:
64,192,52776,1,8,0:0:0:0:
320,192,52776,1,2,0:0:0:0:
448,192,52776,1,4,0:0:0:0:
192,192,53119,1,8,0:0:0:0:
448,192,53119,1,2,0:0:0:0:
192,192,53290,1,8,0:0:0:0:
448,192,53290,1,2,0:0:0:0:
192,192,53462,1,8,0:0:0:0:
448,192,53462,1,2,0:0:0:0:
64,192,53633,1,8,0:0:0:0:
320,192,53633,1,2,0:0:0:0:
64,192,53804,1,8,0:0:0:0:
320,192,53804,1,2,0:0:0:0:
64,192,53976,1,8,0:0:0:0:
320,192,53976,1,2,0:0:0:0:
320,192,54147,1,8,0:0:0:0:
448,192,54147,1,2,0:0:0:0:
320,192,54319,1,8,0:0:0:0:
448,192,54319,1,2,0:0:0:0:
64,192,54490,1,8,0:0:0:0:
192,192,54490,1,2,0:0:0:0:
64,192,54662,1,8,0:0:0:0:
192,192,54662,1,2,0:0:0:0:
64,192,54833,1,8,0:0:0:0:
448,192,54833,1,2,0:0:0:0:
320,192,54919,1,8,0:0:0:0:
64,192,55004,1,2,0:0:0:0:
192,192,55004,1,0,0:0:0:0:
320,192,55090,1,2,0:0:0:0:
64,192,55176,1,2,0:0:0:0:
192,192,55176,1,8,0:0:0:0:
448,192,55176,1,4,0:0:0:0:
320,192,55347,1,0,0:0:0:0:
64,192,55519,1,2,0:0:0:0:
192,192,55519,1,8,0:0:0:0:
448,192,55519,1,4,0:0:0:0:
64,192,55690,1,2,0:0:0:0:
448,192,55690,1,0,0:0:0:0:
64,192,55862,1,2,0:0:0:0:
320,192,55862,1,0,0:0:0:0:
192,192,56033,1,8,0:0:0:0:
320,192,56033,1,4,0:0:0:0:
448,192,56033,1,2,0:0:0:0:
192,192,56204,1,2,0:0:0:0:
448,192,56204,1,0,0:0:0:0:
320,192,56376,1,2,0:0:0:0:
448,192,56376,1,0,0:0:0:0:
64,192,56547,1,2,0:0:0:0:
192,192,56547,1,8,0:0:0:0:
320,192,56547,1,4,0:0:0:0:
64,192,56719,1,2,0:0:0:0:
320,192,56719,1,0,0:0:0:0:
64,192,56890,1,2,0:0:0:0:
192,192,56890,1,0,0:0:0:0:
192,192,57062,1,8,0:0:0:0:
320,192,57062,1,4,0:0:0:0:
448,192,57062,1,2,0:0:0:0:
192,192,57233,1,2,0:0:0:0:
320,192,57233,1,8,0:0:0:0:
448,192,57233,1,4,0:0:0:0:
64,192,57404,1,2,0:0:0:0:
320,192,57404,1,0,0:0:0:0:
192,192,57490,1,2,0:0:0:0:
64,192,57576,1,8,0:0:0:0:
320,192,57576,1,4,0:0:0:0:
448,192,57576,1,2,0:0:0:0:
192,192,57747,1,8,0:0:0:0:
448,192,57747,1,0,0:0:0:0:
320,192,57833,1,8,0:0:0:0:
64,192,57919,1,8,0:0:0:0:
192,192,57919,1,0,0:0:0:0:
320,192,58004,1,8,0:0:0:0:
448,192,58004,1,0,0:0:0:0:
64,192,58090,1,8,0:0:0:0:
192,192,58090,1,0,0:0:0:0:
320,192,58176,1,8,0:0:0:0:
64,192,58262,1,4,0:0:0:0:
192,192,58262,1,2,0:0:0:0:
448,192,58262,1,0,0:0:0:0:
64,192,58604,1,8,0:0:0:0:
192,192,58604,1,2,0:0:0:0:
448,192,58604,1,0,0:0:0:0:
320,192,58776,1,0,0:0:0:0:
64,192,58947,1,2,0:0:0:0:
448,192,58947,1,0,0:0:0:0:
64,192,59119,1,0,0:0:0:0:
64,192,59290,1,8,0:0:0:0:
320,192,59290,1,2,0:0:0:0:
448,192,59290,1,0,0:0:0:0:
192,192,59462,1,0,0:0:0:0:
64,192,59633,1,2,0:0:0:0:
448,192,59633,1,0,0:0:0:0:
448,192,59804,1,0,0:0:0:0:
64,192,59976,1,8,0:0:0:0:
320,192,59976,1,2,0:0:0:0:
448,192,59976,1,0,0:0:0:0:
448,192,60147,1,0,0:0:0:0:
192,192,60319,1,2,0:0:0:0:
448,192,60319,1,0,0:0:0:0:
64,192,60404,1,0,0:0:0:0:
448,192,60490,1,0,0:0:0:0:
64,192,60662,1,8,0:0:0:0:
320,192,60662,1,2,0:0:0:0:
448,192,60662,1,0,0:0:0:0:
192,192,60833,1,0,0:0:0:0:
64,192,61004,128,2,61347:0:0:0:0:
320,192,61004,1,0,0:0:0:0:
192,192,61347,1,8,0:0:0:0:
320,192,61347,1,2,0:0:0:0:
448,192,61347,1,0,0:0:0:0:
320,192,61519,1,0,0:0:0:0:
192,192,61690,1,2,0:0:0:0:
320,192,61690,1,0,0:0:0:0:
320,192,61862,1,0,0:0:0:0:
64,192,62033,1,8,0:0:0:0:
320,192,62033,1,2,0:0:0:0:
448,192,62033,1,0,0:0:0:0:
192,192,62204,1,0,0:0:0:0:
64,192,62376,128,2,62719:0:0:0:0:
448,192,62376,1,0,0:0:0:0:
192,192,62719,1,8,0:0:0:0:
320,192,62719,1,2,0:0:0:0:
448,192,62719,128,0,63062:0:0:0:0:
64,192,63062,1,2,0:0:0:0:
320,192,63062,128,0,63404:0:0:0:0:
192,192,63147,1,8,0:0:0:0:
448,192,63147,1,0,0:0:0:0:
64,192,63233,1,2,0:0:0:0:
64,192,63404,1,8,0:0:0:0:
192,192,63404,128,2,63747:0:0:0:0:
448,192,63404,1,0,0:0:0:0:
64,192,63747,1,4,0:0:0:0:
320,192,63747,1,2,0:0:0:0:
448,192,63747,1,0,0:0:0:0:
192,192,63919,1,0,0:0:0:0:
64,192,64090,1,8,0:0:0:0:
320,192,64090,1,2,0:0:0:0:
448,192,64090,1,0,0:0:0:0:
448,192,64262,1,0,0:0:0:0:
64,192,64433,1,2,0:0:0:0:
320,192,64433,1,0,0:0:0:0:
192,192,64604,1,0,0:0:0:0:
64,192,64776,1,8,0:0:0:0:
320,192,64776,1,2,0:0:0:0:
448,192,64776,1,0,0:0:0:0:
192,192,64947,1,0,0:0:0:0:
64,192,65119,1,2,0:0:0:0:
192,192,65119,1,0,0:0:0:0:
64,192,65290,1,0,0:0:0:0:
192,192,65462,1,8,0:0:0:0:
320,192,65462,1,2,0:0:0:0:
448,192,65462,1,0,0:0:0:0:
192,192,65633,1,0,0:0:0:0:
64,192,65804,1,2,0:0:0:0:
192,192,65804,1,0,0:0:0:0:
320,192,65890,1,0,0:0:0:0:
448,192,65976,1,0,0:0:0:0:
192,192,66147,1,8,0:0:0:0:
320,192,66147,1,2,0:0:0:0:
64,192,66147,1,0,0:0:0:0:
192,192,66319,1,0,0:0:0:0:
64,192,66490,1,2,0:0:0:0:
320,192,66490,1,0,0:0:0:0:
192,192,66662,1,0,0:0:0:0:
64,192,66833,1,8,0:0:0:0:
192,192,66833,1,2,0:0:0:0:
448,192,66833,1,0,0:0:0:0:
320,192,67004,1,0,0:0:0:0:
192,192,67176,1,2,0:0:0:0:
448,192,67176,1,0,0:0:0:0:
192,192,67347,1,0,0:0:0:0:
64,192,67519,1,8,0:0:0:0:
320,192,67519,1,2,0:0:0:0:
448,192,67519,1,0,0:0:0:0:
192,192,67690,1,0,0:0:0:0:
64,192,67862,1,2,0:0:0:0:
320,192,67862,1,0,0:0:0:0:
192,192,68033,1,8,0:0:0:0:
320,192,68033,1,2,0:0:0:0:
448,192,68033,1,4,0:0:0:0:
192,192,68204,1,8,0:0:0:0:
320,192,68204,1,2,0:0:0:0:
448,192,68204,1,4,0:0:0:0:
64,192,68376,1,2,0:0:0:0:
192,192,68462,1,2,0:0:0:0:
64,192,68547,1,4,0:0:0:0:
320,192,68547,1,8,0:0:0:0:
448,192,68547,1,2,0:0:0:0:
64,192,68719,1,8,0:0:0:0:
192,192,68719,1,0,0:0:0:0:
320,192,68804,1,8,0:0:0:0:
448,192,68804,1,0,0:0:0:0:
64,192,68890,1,8,0:0:0:0:
192,192,68890,1,0,0:0:0:0:
320,192,68976,1,8,0:0:0:0:
448,192,68976,1,0,0:0:0:0:
64,192,69062,1,8,0:0:0:0:
192,192,69062,1,0,0:0:0:0:
320,192,69147,1,8,0:0:0:0:
64,192,69233,1,4,0:0:0:0:
192,192,69233,1,2,0:0:0:0:
448,192,69233,128,0,69576:0:0:0:0:
192,192,69404,1,0,0:0:0:0:
64,192,69576,1,8,0:0:0:0:
320,192,69576,1,2,0:0:0:0:
448,192,69747,128,0,69919:0:0:0:0:
192,192,69919,1,2,0:0:0:0:
320,192,69919,1,0,0:0:0:0:
64,192,70090,128,0,70262:0:0:0:0:
320,192,70262,1,8,0:0:0:0:
448,192,70262,1,2,0:0:0:0:
192,192,70433,128,0,70604:0:0:0:0:
64,192,70604,1,2,0:0:0:0:
448,192,70604,128,0,70947:0:0:0:0:
192,192,70776,1,0,0:0:0:0:
64,192,70947,1,8,0:0:0:0:
320,192,70947,128,2,71290:0:0:0:0:
64,192,71119,1,0,0:0:0:0:
192,192,71290,1,2,0:0:0:0:
448,192,71290,128,0,71633:0:0:0:0:
64,192,71376,1,0,0:0:0:0:
320,192,71462,1,0,0:0:0:0:
64,192,71633,1,8,0:0:0:0:
320,192,71633,1,2,0:0:0:0:
192,192,71804,1,0,0:0:0:0:
64,192,71976,1,2,0:0:0:0:
448,192,71976,128,0,72319:0:0:0:0:
320,192,72147,1,0,0:0:0:0:
64,192,72319,1,8,0:0:0:0:
192,192,72319,1,2,0:0:0:0:
320,192,72490,128,0,72662:0:0:0:0:
64,192,72662,1,2,0:0:0:0:
448,192,72662,1,0,0:0:0:0:
192,192,72833,128,0,73004:0:0:0:0:
64,192,73004,1,8,0:0:0:0:
448,192,73004,1,2,0:0:0:0:
320,192,73176,128,0,73347:0:0:0:0:
64,192,73347,1,2,0:0:0:0:
448,192,73347,128,0,73690:0:0:0:0:
64,192,73519,1,0,0:0:0:0:
192,192,73690,1,8,0:0:0:0:
320,192,73690,128,2,74033:0:0:0:0:
448,192,73862,1,0,0:0:0:0:
64,192,74033,1,2,0:0:0:0:
192,192,74033,128,0,74376:0:0:0:0:
320,192,74119,1,8,0:0:0:0:
448,192,74204,1,2,0:0:0:0:
64,192,74376,128,8,74719:0:0:0:0:
320,192,74376,1,2,0:0:0:0:
448,192,74376,1,4,0:0:0:0:
192,192,74719,1,4,0:0:0:0:
320,192,74719,1,2,0:0:0:0:
448,192,74719,1,0,0:0:0:0:
192,192,75062,1,8,0:0:0:0:
320,192,75062,1,2,0:0:0:0:
192,192,75233,1,8,0:0:0:0:
320,192,75233,1,2,0:0:0:0:
192,192,75404,1,8,0:0:0:0:
320,192,75404,1,2,0:0:0:0:
192,192,75576,1,8,0:0:0:0:
320,192,75576,1,2,0:0:0:0:
192,192,75747,1,8,0:0:0:0:
320,192,75747,1,2,0:0:0:0:
192,192,75919,1,8,0:0:0:0:
320,192,75919,1,2,0:0:0:0:
192,192,76090,1,8,0:0:0:0:
320,192,76090,1,2,0:0:0:0:
64,192,76262,1,8,0:0:0:0:
448,192,76262,1,2,0:0:0:0:
192,192,76433,1,8,0:0:0:0:
320,192,76433,1,2,0:0:0:0:
64,192,76604,1,8,0:0:0:0:
448,192,76604,1,2,0:0:0:0:
192,192,76776,1,8,0:0:0:0:
320,192,76776,1,2,0:0:0:0:
64,192,76862,1,2,0:0:0:0:
320,192,76947,1,2,0:0:0:0:
192,192,77033,1,2,0:0:0:0:
64,192,77119,1,8,0:0:0:0:
320,192,77119,1,2,0:0:0:0:
448,192,77119,1,4,0:0:0:0:
192,192,77290,1,0,0:0:0:0:
64,192,77462,1,8,0:0:0:0:
320,192,77462,1,4,0:0:0:0:
448,192,77462,1,2,0:0:0:0:
192,192,77633,1,2,0:0:0:0:
448,192,77633,1,0,0:0:0:0:
64,192,77804,1,2,0:0:0:0:
320,192,77804,1,0,0:0:0:0:
192,192,77976,1,8,0:0:0:0:
320,192,77976,1,4,0:0:0:0:
448,192,77976,1,2,0:0:0:0:
192,192,78147,1,2,0:0:0:0:
448,192,78147,1,0,0:0:0:0:
64,192,78319,1,2,0:0:0:0:
320,192,78319,1,0,0:0:0:0:
64,192,78490,1,8,0:0:0:0:
192,192,78490,1,4,0:0:0:0:
448,192,78490,1,2,0:0:0:0:
320,192,78662,1,2,0:0:0:0:
448,192,78662,1,0,0:0:0:0:
64,192,78833,1,2,0:0:0:0:
192,192,78833,1,0,0:0:0:0:
64,192,79004,1,2,0:0:0:0:
320,192,79004,1,8,0:0:0:0:
448,192,79004,1,4,0:0:0:0:
320,192,79176,1,8,0:0:0:0:
320,192,79262,1,8,0:0:0:0:
192,192,79347,1,8,0:0:0:0:
192,192,79347,1,0,0:0:0:0:
192,192,79433,1,8,0:0:0:0:
192,192,79433,1,0,0:0:0:0:
64,192,79519,1,4,0:0:0:0:
320,192,79519,1,8,0:0:0:0:
448,192,79519,1,2,0:0:0:0:
64,192,79776,1,4,0:0:0:0:
192,192,79776,1,8,0:0:0:0:
320,192,79776,1,2,0:0:0:0:
64,192,80033,1,4,0:0:0:0:
192,192,80033,1,8,0:0:0:0:
448,192,80033,1,2,0:0:0:0:
64,192,80204,1,4,0:0:0:0:
320,192,80204,1,8,0:0:0:0:
448,192,80204,128,2,81576:0:0:0:0:
192,192,80319,1,0,0:0:0:0:
320,192,80433,1,0,0:0:0:0:
64,192,80547,1,0,0:0:0:0:
320,192,80662,1,0,0:0:0:0:
192,192,80776,1,0,0:0:0:0:
64,192,80890,1,0,0:0:0:0:
320,192,81062,1,2,0:0:0:0:
192,192,81147,1,2,0:0:0:0:
64,192,81233,1,8,0:0:0:0:
320,192,81233,1,4,0:0:0:0:
64,192,81576,1,2,0:0:0:0:
320,192,81747,1,8,0:0:0:0:
320,192,81833,1,8,0:0:0:0:
192,192,81919,1,8,0:0:0:0:
192,192,81919,1,0,0:0:0:0:
192,192,82004,1,8,0:0:0:0:
320,192,82090,1,8,0:0:0:0:
320,192,82176,1,8,0:0:0:0:
64,192,82262,1,8,0:0:0:0:
192,192,82262,1,0,0:0:0:0:
448,192,82347,1,2,0:0:0:0:
320,192,82433,1,2,0:0:0:0:
192,192,82519,1,2,0:0:0:0:
64,192,82604,1,8,0:0:0:0:
320,192,82604,1,0,0:0:0:0:
448,192,82604,128,0,82947:0:0:0:0:
64,192,82947,1,2,0:0:0:0:
320,192,82947,1,4,0:0:0:0:
64,192,83119,1,2,0:0:0:0:
192,192,83290,1,8,0:0:0:0:
448,192,83290,1,0,0:0:0:0:
192,192,83462,1,0,0:0:0:0:
320,192,83547,1,0,0:0:0:0:
64,192,83633,1,2,0:0:0:0:
192,192,83633,1,0,0:0:0:0:
320,192,83804,1,2,0:0:0:0:
448,192,83804,1,0,0:0:0:0:
64,192,83976,1,8,0:0:0:0:
192,192,83976,1,0,0:0:0:0:
64,192,84147,128,2,84490:0:0:0:0:
448,192,84147,1,0,0:0:0:0:
192,192,84490,1,2,0:0:0:0:
320,192,84490,128,0,84747:0:0:0:0:
64,192,84662,128,8,84919:0:0:0:0:
448,192,84662,1,0,0:0:0:0:
192,192,84833,1,0,0:0:0:0:
320,192,84833,128,0,85262:0:0:0:0:
64,192,85004,128,2,85262:0:0:0:0:
448,192,85004,1,0,0:0:0:0:
448,192,85176,1,2,0:0:0:0:
64,192,85347,1,8,0:0:0:0:
320,192,85347,1,0,0:0:0:0:
192,192,85519,1,2,0:0:0:0:
448,192,85519,128,0,85862:0:0:0:0:
64,192,85862,128,0,85947:0:0:0:0:
192,192,85862,1,0,0:0:0:0:
192,192,86033,128,8,86119:0:0:0:0:
320,192,86033,1,0,0:0:0:0:
320,192,86204,128,0,86290:0:0:0:0:
448,192,86204,1,0,0:0:0:0:
64,192,86376,1,2,0:0:0:0:
448,192,86376,1,0,0:0:0:0:
320,192,86483,1,0,0:0:0:0:
192,192,86590,1,0,0:0:0:0:
64,192,86719,1,8,0:0:0:0:
320,192,86719,1,0,0:0:0:0:
64,192,86890,1,2,0:0:0:0:
192,192,86890,1,4,0:0:0:0:
448,192,86890,128,0,87233:0:0:0:0:
64,192,87233,1,2,0:0:0:0:
320,192,87233,1,0,0:0:0:0:
64,192,87404,1,8,0:0:0:0:
192,192,87404,1,0,0:0:0:0:
192,192,87576,1,2,0:0:0:0:
320,192,87576,1,4,0:0:0:0:
448,192,87576,1,0,0:0:0:0:
64,192,87747,1,0,0:0:0:0:
320,192,87747,1,0,0:0:0:0:
448,192,87833,1,0,0:0:0:0:
64,192,87919,1,2,0:0:0:0:
320,192,87919,1,0,0:0:0:0:
64,192,88090,1,8,0:0:0:0:
192,192,88090,1,0,0:0:0:0:
448,192,88090,1,0,0:0:0:0:
192,192,88262,1,8,0:0:0:0:
192,192,88347,1,8,0:0:0:0:
64,192,88433,1,4,0:0:0:0:
320,192,88433,1,2,0:0:0:0:
448,192,88433,1,0,0:0:0:0:
192,192,88604,1,2,0:0:0:0:
64,192,88776,1,8,0:0:0:0:
192,192,88776,1,0,0:0:0:0:
320,192,88947,1,0,0:0:0:0:
64,192,89119,1,2,0:0:0:0:
320,192,89119,1,0,0:0:0:0:
192,192,89204,1,0,0:0:0:0:
320,192,89290,1,2,0:0:0:0:
192,192,89462,1,8,0:0:0:0:
448,192,89462,1,0,0:0:0:0:
192,192,89633,1,2,0:0:0:0:
320,192,89633,128,0,89976:0:0:0:0:
64,192,89976,1,2,0:0:0:0:
448,192,89976,128,0,90233:0:0:0:0:
192,192,90147,128,8,90404:0:0:0:0:
320,192,90147,1,0,0:0:0:0:
64,192,90319,1,0,0:0:0:0:
448,192,90319,128,0,90747:0:0:0:0:
192,192,90490,128,2,90747:0:0:0:0:
320,192,90490,1,0,0:0:0:0:
320,192,90662,1,2,0:0:0:0:
192,192,90833,1,8,0:0:0:0:
448,192,90833,1,0,0:0:0:0:
64,192,91004,128,2,91347:0:0:0:0:
448,192,91004,1,0,0:0:0:0:
320,192,91176,1,2,0:0:0:0:
192,192,91347,128,2,91433:0:0:0:0:
320,192,91347,1,0,0:0:0:0:
320,192,91519,128,8,91604:0:0:0:0:
448,192,91519,1,0,0:0:0:0:
64,192,91690,1,2,0:0:0:0:
448,192,91690,128,0,91776:0:0:0:0:
64,192,91862,1,8,0:0:0:0:
192,192,91862,1,0,0:0:0:0:
320,192,91969,1,0,0:0:0:0:
448,192,92076,1,0,0:0:0:0:
192,192,92204,1,8,0:0:0:0:
320,192,92204,1,0,0:0:0:0:
64,192,92376,1,4,0:0:0:0:
320,192,92376,1,2,0:0:0:0:
448,192,92376,128,0,92719:0:0:0:0:
192,192,92719,1,2,0:0:0:0:
320,192,92719,1,0,0:0:0:0:
64,192,92890,1,8,0:0:0:0:
448,192,92890,1,0,0:0:0:0:
192,192,93062,1,4,0:0:0:0:
320,192,93062,1,2,0:0:0:0:
448,192,93062,1,0,0:0:0:0:
64,192,93233,1,0,0:0:0:0:
320,192,93233,1,0,0:0:0:0:
448,192,93347,1,0,0:0:0:0:
64,192,93404,1,2,0:0:0:0:
320,192,93404,1,0,0:0:0:0:
64,192,93576,128,2,93919:0:0:0:0:
192,192,93576,1,0,0:0:0:0:
192,192,93919,1,4,0:0:0:0:
320,192,93919,1,2,0:0:0:0:
448,192,93919,128,0,95033:0:0:0:0:
192,192,94090,1,0,0:0:0:0:
64,192,94262,1,2,0:0:0:0:
64,192,94433,1,0,0:0:0:0:
320,192,94604,1,2,0:0:0:0:
320,192,94776,1,0,0:0:0:0:
192,192,94947,1,2,0:0:0:0:
64,192,95119,1,8,0:0:0:0:
320,192,95119,1,0,0:0:0:0:
448,192,95119,1,0,0:0:0:0:
192,192,95290,1,2,0:0:0:0:
448,192,95290,1,0,0:0:0:0:
192,192,95462,1,0,0:0:0:0:
320,192,95633,1,2,0:0:0:0:
320,192,95804,1,0,0:0:0:0:
64,192,95976,1,2,0:0:0:0:
448,192,95976,1,0,0:0:0:0:
320,192,96147,1,2,0:0:0:0:
448,192,96147,1,0,0:0:0:0:
64,192,96319,1,2,0:0:0:0:
192,192,96490,1,2,0:0:0:0:
320,192,96576,1,2,0:0:0:0:
64,192,96662,1,4,0:0:0:0:
192,192,96662,1,2,0:0:0:0:
448,192,96662,1,0,0:0:0:0:
192,192,97004,1,2,0:0:0:0:
192,192,97176,1,0,0:0:0:0:
192,192,97347,1,2,0:0:0:0:
320,192,97519,1,0,0:0:0:0:
448,192,97519,128,0,97690:0:0:0:0:
64,192,97690,128,2,97862:0:0:0:0:
192,192,97690,1,0,0:0:0:0:
192,192,97862,1,8,0:0:0:0:
320,192,98033,1,2,0:0:0:0:
448,192,98033,128,0,98204:0:0:0:0:
320,192,98204,1,8,0:0:0:0:
64,192,98376,128,2,98547:0:0:0:0:
192,192,98376,1,0,0:0:0:0:
320,192,98547,1,2,0:0:0:0:
320,192,98633,1,2,0:0:0:0:
64,192,98719,1,8,0:0:0:0:
448,192,98719,128,0,98890:0:0:0:0:
192,192,98890,1,2,0:0:0:0:
192,192,98976,1,2,0:0:0:0:
64,192,99062,128,2,99233:0:0:0:0:
448,192,99062,1,0,0:0:0:0:
320,192,99233,1,2,0:0:0:0:
320,192,99319,1,2,0:0:0:0:
64,192,99404,1,2,0:0:0:0:
192,192,99404,1,4,0:0:0:0:
448,192,99404,1,0,0:0:0:0:
320,192,99576,1,0,0:0:0:0:
192,192,99747,1,2,0:0:0:0:
448,192,99919,128,0,100090:0:0:0:0:
320,192,100090,128,2,100262:0:0:0:0:
192,192,100262,128,0,100433:0:0:0:0:
64,192,100433,128,2,100604:0:0:0:0:
320,192,100604,1,8,0:0:0:0:
448,192,100604,1,0,0:0:0:0:
192,192,100776,1,2,0:0:0:0:
192,192,100947,1,0,0:0:0:0:
192,192,101119,1,2,0:0:0:0:
192,192,101290,1,0,0:0:0:0:
320,192,101462,1,2,0:0:0:0:
448,192,101462,1,0,0:0:0:0:
64,192,101633,1,8,0:0:0:0:
448,192,101633,1,0,0:0:0:0:
64,192,101804,1,2,0:0:0:0:
192,192,101804,1,0,0:0:0:0:
320,192,101976,1,2,0:0:0:0:
192,192,102062,1,2,0:0:0:0:
64,192,102147,1,2,0:0:0:0:
320,192,102147,1,4,0:0:0:0:
448,192,102147,1,0,0:0:0:0:
320,192,102490,1,2,0:0:0:0:
448,192,102490,1,8,0:0:0:0:
192,192,102662,1,2,0:0:0:0:
448,192,102662,1,8,0:0:0:0:
320,192,102833,1,2,0:0:0:0:
448,192,102833,1,8,0:0:0:0:
192,192,103004,1,2,0:0:0:0:
192,192,103090,1,2,0:0:0:0:
320,192,103176,1,2,0:0:0:0:
448,192,103176,1,8,0:0:0:0:
64,192,103347,1,2,0:0:0:0:
192,192,103347,1,4,0:0:0:0:
448,192,103347,1,0,0:0:0:0:
320,192,103690,1,2,0:0:0:0:
320,192,103776,1,2,0:0:0:0:
64,192,103862,1,8,0:0:0:0:
192,192,103862,1,0,0:0:0:0:
64,192,104033,1,2,0:0:0:0:
320,192,104033,1,4,0:0:0:0:
448,192,104033,128,0,104376:0:0:0:0:
64,192,104376,128,2,104547:0:0:0:0:
192,192,104376,1,0,0:0:0:0:
320,192,104376,1,0,0:0:0:0:
192,192,104547,1,8,0:0:0:0:
320,192,104547,1,0,0:0:0:0:
448,192,104547,128,0,104890:0:0:0:0:
64,192,104890,1,2,0:0:0:0:
192,192,104890,128,4,105233:0:0:0:0:
64,192,105233,1,8,0:0:0:0:
448,192,105233,1,0,0:0:0:0:
320,192,105404,128,0,105576:0:0:0:0:
64,192,105576,1,2,0:0:0:0:
192,192,105576,128,0,105747:0:0:0:0:
320,192,105747,128,2,105919:0:0:0:0:
64,192,105919,1,8,0:0:0:0:
448,192,105919,128,0,106090:0:0:0:0:
320,192,106090,128,0,106262:0:0:0:0:
192,192,106262,1,2,0:0:0:0:
448,192,106262,1,0,0:0:0:0:
192,192,106433,1,2,0:0:0:0:
320,192,106433,1,0,0:0:0:0:
64,192,106604,1,8,0:0:0:0:
320,192,106604,1,0,0:0:0:0:
192,192,106776,1,2,0:0:0:0:
448,192,106776,128,0,106947:0:0:0:0:
320,192,106862,1,8,0:0:0:0:
192,192,106947,128,2,107119:0:0:0:0:
64,192,107119,128,2,107290:0:0:0:0:
320,192,107290,128,8,107462:0:0:0:0:
448,192,107290,1,0,0:0:0:0:
192,192,107462,128,0,107633:0:0:0:0:
64,192,107633,1,2,0:0:0:0:
320,192,107633,1,0,0:0:0:0:
320,192,107804,1,0,0:0:0:0:
64,192,107976,1,8,0:0:0:0:
448,192,107976,1,0,0:0:0:0:
320,192,108147,1,2,0:0:0:0:
192,192,108233,1,8,0:0:0:0:
192,192,108319,1,2,0:0:0:0:
448,192,108319,1,0,0:0:0:0:
192,192,108490,128,2,108662:0:0:0:0:
448,192,108490,1,0,0:0:0:0:
320,192,108662,1,8,0:0:0:0:
448,192,108662,1,0,0:0:0:0:
320,192,108833,1,0,0:0:0:0:
64,192,109004,1,2,0:0:0:0:
192,192,109004,1,0,0:0:0:0:
64,192,109176,128,2,109347:0:0:0:0:
192,192,109176,1,0,0:0:0:0:
320,192,109347,1,8,0:0:0:0:
448,192,109347,1,0,0:0:0:0:
320,192,109519,1,2,0:0:0:0:
448,192,109519,128,0,109862:0:0:0:0:
320,192,109862,1,2,0:0:0:0:
320,192,110033,1,8,0:0:0:0:
448,192,110033,128,0,110204:0:0:0:0:
64,192,110204,1,0,0:0:0:0:
64,192,110376,1,2,0:0:0:0:
320,192,110376,1,4,0:0:0:0:
448,192,110376,1,0,0:0:0:0:
192,192,110719,1,8,0:0:0:0:
320,192,110719,1,0,0:0:0:0:
320,192,110890,1,0,0:0:0:0:
64,192,111062,1,2,0:0:0:0:
192,192,111062,1,0,0:0:0:0:
320,192,111233,1,2,0:0:0:0:
192,192,111404,1,8,0:0:0:0:
320,192,111404,1,0,0:0:0:0:
64,192,111576,128,4,111919:0:0:0:0:
192,192,111576,1,2,0:0:0:0:
448,192,111576,1,0,0:0:0:0:
192,192,111919,128,2,112090:0:0:0:0:
320,192,111919,1,0,0:0:0:0:
64,192,112090,1,8,0:0:0:0:
448,192,112090,1,0,0:0:0:0:
192,192,112262,128,4,112347:0:0:0:0:
448,192,112262,128,2,112347:0:0:0:0:
64,192,112604,128,4,112776:0:0:0:0:
192,192,112604,128,2,112776:0:0:0:0:
320,192,112604,1,0,0:0:0:0:
320,192,112947,1,8,0:0:0:0:
448,192,112947,1,0,0:0:0:0:
192,192,113033,1,8,0:0:0:0:
64,192,113119,1,2,0:0:0:0:
320,192,113119,1,4,0:0:0:0:
448,192,113119,1,0,0:0:0:0:
192,192,113290,1,2,0:0:0:0:
320,192,113290,1,0,0:0:0:0:
192,192,113462,1,8,0:0:0:0:
448,192,113462,1,0,0:0:0:0:
64,192,113633,128,2,113804:0:0:0:0:
448,192,113633,1,0,0:0:0:0:
64,192,113976,128,2,114147:0:0:0:0:
448,192,113976,1,0,0:0:0:0:
192,192,114147,1,8,0:0:0:0:
320,192,114147,1,0,0:0:0:0:
64,192,114319,1,2,0:0:0:0:
320,192,114319,1,4,0:0:0:0:
448,192,114319,128,0,114662:0:0:0:0:
64,192,114662,1,2,0:0:0:0:
64,192,114833,1,8,0:0:0:0:
320,192,114833,1,0,0:0:0:0:
192,192,115004,1,8,0:0:0:0:
192,192,115090,1,8,0:0:0:0:
448,192,115176,1,8,0:0:0:0:
320,192,115176,1,0,0:0:0:0:
192,192,115347,1,2,0:0:0:0:
448,192,115347,1,0,0:0:0:0:
64,192,115519,1,2,0:0:0:0:
448,192,115519,1,0,0:0:0:0:
192,192,115690,1,0,0:0:0:0:
64,192,115862,1,4,0:0:0:0:
320,192,115862,1,2,0:0:0:0:
448,192,115862,1,0,0:0:0:0:
64,192,116033,1,0,0:0:0:0:
64,192,116204,1,0,0:0:0:0:
448,192,116204,1,0,0:0:0:0:
64,192,116376,1,2,0:0:0:0:
192,192,116547,1,8,0:0:0:0:
448,192,116547,1,0,0:0:0:0:
64,192,116719,1,2,0:0:0:0:
448,192,116719,1,0,0:0:0:0:
448,192,116890,1,2,0:0:0:0:
192,192,117062,1,2,0:0:0:0:
320,192,117062,1,0,0:0:0:0:
192,192,117404,1,2,0:0:0:0:
320,192,117404,1,0,0:0:0:0:
64,192,117576,1,2,0:0:0:0:
64,192,117747,1,2,0:0:0:0:
192,192,117919,1,8,0:0:0:0:
448,192,117919,1,0,0:0:0:0:
192,192,118176,1,8,0:0:0:0:
448,192,118176,1,0,0:0:0:0:
64,192,118262,1,2,0:0:0:0:
64,192,118433,1,2,0:0:0:0:
64,192,118604,128,2,118947:0:0:0:0:
448,192,118604,1,0,0:0:0:0:
320,192,118947,1,2,0:0:0:0:
448,192,118947,1,0,0:0:0:0:
192,192,119119,1,2,0:0:0:0:
64,192,119290,1,8,0:0:0:0:
448,192,119290,1,0,0:0:0:0:
64,192,119462,1,2,0:0:0:0:
320,192,119633,1,8,0:0:0:0:
448,192,119633,1,0,0:0:0:0:
64,192,119804,1,2,0:0:0:0:
192,192,119804,1,4,0:0:0:0:
448,192,119804,1,0,0:0:0:0:
64,192,120147,1,4,0:0:0:0:
192,192,120147,1,8,0:0:0:0:
448,192,120147,1,0,0:0:0:0:
64,192,120319,1,4,0:0:0:0:
192,192,120319,1,8,0:0:0:0:
448,192,120319,1,0,0:0:0:0:
320,192,120490,1,2,0:0:0:0:
448,192,120490,1,0,0:0:0:0:
64,192,120576,1,2,0:0:0:0:
192,192,120576,1,0,0:0:0:0:
320,192,120662,1,8,0:0:0:0:
320,192,120747,1,2,0:0:0:0:
192,192,120833,1,2,0:0:0:0:
64,192,120919,1,2,0:0:0:0:
320,192,121004,1,8,0:0:0:0:
448,192,121004,1,4,0:0:0:0:
64,192,121347,1,2,0:0:0:0:
192,192,121347,1,0,0:0:0:0:
448,192,121347,1,0,0:0:0:0:
192,192,121519,1,2,0:0:0:0:
448,192,121519,1,0,0:0:0:0:
192,192,121690,1,8,0:0:0:0:
320,192,121690,1,2,0:0:0:0:
448,192,121690,1,0,0:0:0:0:
192,192,121862,1,2,0:0:0:0:
448,192,121862,1,0,0:0:0:0:
320,192,121947,1,2,0:0:0:0:
64,192,122033,1,2,0:0:0:0:
448,192,122033,1,0,0:0:0:0:
64,192,122204,1,2,0:0:0:0:
448,192,122204,1,0,0:0:0:0:
64,192,122376,1,8,0:0:0:0:
320,192,122376,1,2,0:0:0:0:
448,192,122376,1,0,0:0:0:0:
64,192,122547,1,2,0:0:0:0:
448,192,122547,1,0,0:0:0:0:
192,192,122633,1,2,0:0:0:0:
64,192,122719,1,2,0:0:0:0:
320,192,122719,1,0,0:0:0:0:
64,192,122890,1,2,0:0:0:0:
320,192,122890,1,0,0:0:0:0:
64,192,123062,1,8,0:0:0:0:
192,192,123062,1,2,0:0:0:0:
448,192,123062,1,0,0:0:0:0:
64,192,123233,1,4,0:0:0:0:
320,192,123233,1,2,0:0:0:0:
448,192,123233,1,0,0:0:0:0:
64,192,123576,1,8,0:0:0:0:
192,192,123576,1,2,0:0:0:0:
448,192,123576,1,0,0:0:0:0:
64,192,123747,1,8,0:0:0:0:
192,192,123747,1,2,0:0:0:0:
448,192,123747,1,0,0:0:0:0:
320,192,123919,1,2,0:0:0:0:
320,192,124004,1,2,0:0:0:0:
64,192,124090,128,2,124176:0:0:0:0:
192,192,124090,128,8,124176:0:0:0:0:
448,192,124090,1,4,0:0:0:0:
64,192,124433,128,8,124519:0:0:0:0:
192,192,124433,128,2,124519:0:0:0:0:
448,192,124433,1,0,0:0:0:0:
448,192,124604,128,0,124947:0:0:0:0:
64,192,124776,128,8,124862:0:0:0:0:
192,192,124776,128,2,124862:0:0:0:0:
320,192,124947,1,0,0:0:0:0:
64,192,125119,128,8,125204:0:0:0:0:
192,192,125119,128,2,125204:0:0:0:0:
448,192,125119,1,0,0:0:0:0:
320,192,125290,1,0,0:0:0:0:
64,192,125462,1,8,0:0:0:0:
320,192,125462,128,2,125547:0:0:0:0:
448,192,125462,128,0,125547:0:0:0:0:
192,192,125804,1,8,0:0:0:0:
320,192,125804,128,2,125890:0:0:0:0:
448,192,125804,128,0,125890:0:0:0:0:
192,192,125976,128,0,126319:0:0:0:0:
320,192,126147,128,2,126233:0:0:0:0:
448,192,126147,128,8,126233:0:0:0:0:
64,192,126319,1,0,0:0:0:0:
192,192,126490,1,8,0:0:0:0:
320,192,126490,128,2,126576:0:0:0:0:
448,192,126490,128,0,126576:0:0:0:0:
64,192,126662,1,0,0:0:0:0:
64,192,126833,128,4,126919:0:0:0:0:
192,192,126833,1,8,0:0:0:0:
448,192,126833,128,2,126919:0:0:0:0:
320,192,126833,1,0,0:0:0:0:
64,192,127176,128,8,127262:0:0:0:0:
320,192,127176,128,2,127262:0:0:0:0:
448,192,127176,1,0,0:0:0:0:
448,192,127347,128,0,127690:0:0:0:0:
64,192,127519,128,8,127604:0:0:0:0:
320,192,127519,128,2,127604:0:0:0:0:
192,192,127690,1,0,0:0:0:0:
64,192,127862,128,8,127947:0:0:0:0:
320,192,127862,128,2,127947:0:0:0:0:
448,192,127862,1,0,0:0:0:0:
192,192,128033,1,0,0:0:0:0:
64,192,128204,128,8,128290:0:0:0:0:
192,192,128204,1,2,0:0:0:0:
448,192,128204,128,0,128290:0:0:0:0:
64,192,128547,128,8,128633:0:0:0:0:
320,192,128547,1,2,0:0:0:0:
448,192,128547,128,0,128633:0:0:0:0:
64,192,128890,128,8,128976:0:0:0:0:
192,192,128890,1,2,0:0:0:0:
448,192,128890,128,0,128976:0:0:0:0:
320,192,129062,1,0,0:0:0:0:
192,192,129233,128,4,129319:0:0:0:0:
320,192,129233,1,8,0:0:0:0:
448,192,129233,128,2,129319:0:0:0:0:
64,192,129233,1,0,0:0:0:0:
64,192,129404,1,0,0:0:0:0:
64,192,129576,1,2,0:0:0:0:
320,192,129576,1,4,0:0:0:0:
448,192,129576,1,0,0:0:0:0:
448,192,129747,1,0,0:0:0:0:
192,192,129919,1,8,0:0:0:0:
320,192,129919,1,2,0:0:0:0:
192,192,130090,1,8,0:0:0:0:
320,192,130090,1,2,0:0:0:0:
192,192,130262,1,8,0:0:0:0:
320,192,130262,1,2,0:0:0:0:
192,192,130433,1,8,0:0:0:0:
320,192,130433,1,2,0:0:0:0:
192,192,130604,1,8,0:0:0:0:
320,192,130604,1,2,0:0:0:0:
192,192,130776,1,8,0:0:0:0:
320,192,130776,1,2,0:0:0:0:
192,192,130947,1,8,0:0:0:0:
320,192,130947,1,2,0:0:0:0:
192,192,131119,1,8,0:0:0:0:
320,192,131119,1,2,0:0:0:0:
192,192,131290,1,8,0:0:0:0:
320,192,131290,1,2,0:0:0:0:
192,192,131462,1,8,0:0:0:0:
320,192,131462,1,2,0:0:0:0:
64,192,131633,1,8,0:0:0:0:
448,192,131633,1,2,0:0:0:0:
448,192,131719,1,2,0:0:0:0:
64,192,131804,1,2,0:0:0:0:
192,192,131804,1,0,0:0:0:0:
320,192,131890,1,2,0:0:0:0:
64,192,131976,1,4,0:0:0:0:
192,192,131976,1,2,0:0:0:0:
448,192,131976,1,8,0:0:0:0:
320,192,132147,1,0,0:0:0:0:
64,192,132319,1,2,0:0:0:0:
320,192,132319,1,8,0:0:0:0:
448,192,132319,1,4,0:0:0:0:
64,192,132490,1,2,0:0:0:0:
448,192,132490,1,0,0:0:0:0:
192,192,132662,1,2,0:0:0:0:
320,192,132662,1,0,0:0:0:0:
64,192,132833,1,8,0:0:0:0:
192,192,132833,1,4,0:0:0:0:
448,192,132833,1,2,0:0:0:0:
64,192,133004,1,2,0:0:0:0:
448,192,133004,1,0,0:0:0:0:
192,192,133176,1,2,0:0:0:0:
320,192,133176,1,0,0:0:0:0:
64,192,133347,1,2,0:0:0:0:
320,192,133347,1,8,0:0:0:0:
448,192,133347,1,4,0:0:0:0:
192,192,133519,1,2,0:0:0:0:
320,192,133519,1,0,0:0:0:0:
192,192,133690,1,2,0:0:0:0:
320,192,133690,1,0,0:0:0:0:
64,192,133862,1,4,0:0:0:0:
192,192,133862,1,8,0:0:0:0:
448,192,133862,1,2,0:0:0:0:
64,192,134033,1,2,0:0:0:0:
320,192,134033,1,8,0:0:0:0:
448,192,134033,1,4,0:0:0:0:
192,192,134204,1,2,0:0:0:0:
320,192,134290,1,2,0:0:0:0:
448,192,134376,1,0,0:0:0:0:
64,192,134376,1,14,0:0:0:0:
192,192,134376,1,0,0:0:0:0:
320,192,134547,1,8,0:0:0:0:
448,192,134547,1,0,0:0:0:0:
192,192,134719,1,8,0:0:0:0:
64,192,134719,1,0,0:0:0:0:
192,192,134804,1,8,0:0:0:0:
448,192,134890,1,8,0:0:0:0:
320,192,134890,1,0,0:0:0:0:
320,192,134976,1,8,0:0:0:0:
192,192,135062,1,4,0:0:0:0:
64,192,135062,1,2,0:0:0:0:
192,192,135233,1,0,0:0:0:0:
64,192,135404,1,8,0:0:0:0:
320,192,135404,1,2,0:0:0:0:
448,192,135404,1,0,0:0:0:0:
192,192,135576,1,0,0:0:0:0:
64,192,135747,1,2,0:0:0:0:
320,192,135747,1,0,0:0:0:0:
64,192,135919,1,0,0:0:0:0:
192,192,136090,1,8,0:0:0:0:
320,192,136090,1,2,0:0:0:0:
448,192,136090,1,0,0:0:0:0:
64,192,136262,1,0,0:0:0:0:
320,192,136433,1,2,0:0:0:0:
448,192,136433,1,0,0:0:0:0:
320,192,136604,1,0,0:0:0:0:
64,192,136776,1,8,0:0:0:0:
320,192,136776,1,2,0:0:0:0:
448,192,136776,1,0,0:0:0:0:
320,192,136947,1,0,0:0:0:0:
64,192,137119,1,2,0:0:0:0:
320,192,137119,1,0,0:0:0:0:
192,192,137204,1,0,0:0:0:0:
320,192,137290,1,0,0:0:0:0:
192,192,137462,1,8,0:0:0:0:
320,192,137462,1,2,0:0:0:0:
448,192,137462,1,0,0:0:0:0:
64,192,137633,1,0,0:0:0:0:
192,192,137804,1,2,0:0:0:0:
448,192,137804,128,0,138147:0:0:0:0:
192,192,138147,1,8,0:0:0:0:
320,192,138147,1,2,0:0:0:0:
192,192,138319,1,0,0:0:0:0:
320,192,138490,1,2,0:0:0:0:
448,192,138490,1,0,0:0:0:0:
192,192,138662,1,0,0:0:0:0:
64,192,138833,1,8,0:0:0:0:
192,192,138833,1,2,0:0:0:0:
320,192,138833,1,0,0:0:0:0:
448,192,139004,1,0,0:0:0:0:
192,192,139176,1,2,0:0:0:0:
448,192,139176,128,0,139519:0:0:0:0:
64,192,139519,1,8,0:0:0:0:
192,192,139519,1,2,0:0:0:0:
320,192,139519,128,0,139862:0:0:0:0:
64,192,139862,1,2,0:0:0:0:
192,192,139862,128,0,140204:0:0:0:0:
320,192,139947,1,8,0:0:0:0:
448,192,139947,1,0,0:0:0:0:
64,192,140033,1,2,0:0:0:0:
64,192,140204,128,8,140547:0:0:0:0:
320,192,140204,1,2,0:0:0:0:
448,192,140204,1,0,0:0:0:0:
192,192,140547,1,4,0:0:0:0:
320,192,140547,1,2,0:0:0:0:
448,192,140547,1,0,0:0:0:0:
64,192,140719,1,0,0:0:0:0:
192,192,140890,1,8,0:0:0:0:
320,192,140890,1,2,0:0:0:0:
448,192,140890,1,0,0:0:0:0:
320,192,141062,1,0,0:0:0:0:
192,192,141233,1,2,0:0:0:0:
448,192,141233,1,0,0:0:0:0:
64,192,141404,1,0,0:0:0:0:
64,192,141576,1,8,0:0:0:0:
320,192,141576,1,2,0:0:0:0:
448,192,141576,1,0,0:0:0:0:
192,192,141747,1,0,0:0:0:0:
64,192,141919,1,2,0:0:0:0:
448,192,141919,1,0,0:0:0:0:
320,192,142090,1,0,0:0:0:0:
64,192,142262,1,8,0:0:0:0:
320,192,142262,1,2,0:0:0:0:
448,192,142262,1,0,0:0:0:0:
192,192,142433,1,0,0:0:0:0:
64,192,142604,1,2,0:0:0:0:
448,192,142604,1,0,0:0:0:0:
192,192,142690,1,0,0:0:0:0:
320,192,142776,1,0,0:0:0:0:
192,192,142947,1,8,0:0:0:0:
320,192,142947,1,2,0:0:0:0:
448,192,142947,1,0,0:0:0:0:
64,192,143119,1,0,0:0:0:0:
192,192,143290,1,2,0:0:0:0:
448,192,143290,1,0,0:0:0:0:
192,192,143462,1,0,0:0:0:0:
64,192,143633,1,8,0:0:0:0:
320,192,143633,1,2,0:0:0:0:
448,192,143633,1,0,0:0:0:0:
192,192,143804,1,0,0:0:0:0:
64,192,143976,1,2,0:0:0:0:
320,192,143976,1,0,0:0:0:0:
320,192,144147,1,0,0:0:0:0:
64,192,144319,1,8,0:0:0:0:
192,192,144319,1,2,0:0:0:0:
448,192,144319,1,0,0:0:0:0:
320,192,144490,1,0,0:0:0:0:
64,192,144662,1,2,0:0:0:0:
448,192,144662,1,0,0:0:0:0:
64,192,144833,1,8,0:0:0:0:
192,192,144833,1,4,0:0:0:0:
320,192,144833,1,0,0:0:0:0:
64,192,145004,1,8,0:0:0:0:
192,192,145004,1,4,0:0:0:0:
320,192,145004,1,0,0:0:0:0:
448,192,145176,1,2,0:0:0:0:
64,192,145262,1,2,0:0:0:0:
192,192,145347,1,8,0:0:0:0:
320,192,145347,1,4,0:0:0:0:
448,192,145347,1,0,0:0:0:0:
320,192,145519,1,8,0:0:0:0:
448,192,145519,1,0,0:0:0:0:
64,192,145604,1,8,0:0:0:0:
192,192,145604,1,0,0:0:0:0:
320,192,145690,1,8,0:0:0:0:
448,192,145690,1,0,0:0:0:0:
64,192,145776,1,8,0:0:0:0:
192,192,145776,1,0,0:0:0:0:
320,192,145862,1,8,0:0:0:0:
448,192,145862,1,0,0:0:0:0:
192,192,145947,1,8,0:0:0:0:
64,192,146033,128,4,146376:0:0:0:0:
448,192,146033,1,2,0:0:0:0:
320,192,146033,1,0,0:0:0:0:
320,192,146204,1,0,0:0:0:0:
192,192,146376,1,8,0:0:0:0:
448,192,146376,1,2,0:0:0:0:
320,192,146547,128,0,146890:0:0:0:0:
64,192,146719,1,2,0:0:0:0:
192,192,146719,1,0,0:0:0:0:
448,192,146890,128,0,147233:0:0:0:0:
192,192,147062,1,8,0:0:0:0:
320,192,147062,1,2,0:0:0:0:
64,192,147233,128,0,147404:0:0:0:0:
320,192,147404,128,2,147747:0:0:0:0:
448,192,147404,1,0,0:0:0:0:
64,192,147576,1,0,0:0:0:0:
192,192,147747,128,8,148090:0:0:0:0:
448,192,147747,1,2,0:0:0:0:
448,192,147919,1,0,0:0:0:0:
64,192,148090,1,2,0:0:0:0:
320,192,148090,128,0,148433:0:0:0:0:
192,192,148176,1,0,0:0:0:0:
64,192,148262,1,0,0:0:0:0:
192,192,148433,128,8,148776:0:0:0:0:
448,192,148433,1,2,0:0:0:0:
320,192,148604,1,0,0:0:0:0:
64,192,148776,128,2,149119:0:0:0:0:
448,192,148776,1,0,0:0:0:0:
192,192,148947,1,0,0:0:0:0:
320,192,149119,1,8,0:0:0:0:
448,192,149119,1,2,0:0:0:0:
192,192,149290,128,0,149633:0:0:0:0:
320,192,149462,1,2,0:0:0:0:
448,192,149462,1,0,0:0:0:0:
64,192,149633,128,0,149976:0:0:0:0:
320,192,149804,1,8,0:0:0:0:
448,192,149804,1,2,0:0:0:0:
192,192,149976,128,0,150147:0:0:0:0:
320,192,150147,128,2,150490:0:0:0:0:
448,192,150147,1,0,0:0:0:0:
448,192,150319,1,0,0:0:0:0:
64,192,150490,1,8,0:0:0:0:
192,192,150490,128,2,150833:0:0:0:0:
320,192,150662,1,0,0:0:0:0:
64,192,150833,128,2,151176:0:0:0:0:
448,192,150833,1,0,0:0:0:0:
192,192,150919,1,8,0:0:0:0:
320,192,151004,1,2,0:0:0:0:
192,192,151176,1,8,0:0:0:0:
320,192,151176,1,4,0:0:0:0:
448,192,151176,128,2,151519:0:0:0:0:
64,192,151519,1,4,0:0:0:0:
192,192,151519,1,2,0:0:0:0:
320,192,151519,128,0,153404:0:0:0:0:
64,192,151862,1,8,0:0:0:0:
192,192,151862,1,2,0:0:0:0:
64,192,152033,1,8,0:0:0:0:
192,192,152033,1,2,0:0:0:0:
64,192,152204,1,8,0:0:0:0:
192,192,152204,1,2,0:0:0:0:
64,192,152376,1,8,0:0:0:0:
192,192,152376,1,2,0:0:0:0:
64,192,152547,1,8,0:0:0:0:
192,192,152547,1,2,0:0:0:0:
64,192,152719,1,8,0:0:0:0:
192,192,152719,1,2,0:0:0:0:
64,192,152890,1,8,0:0:0:0:
192,192,152890,1,2,0:0:0:0:
64,192,153062,1,8,0:0:0:0:
192,192,153062,1,2,0:0:0:0:
64,192,153233,1,8,0:0:0:0:
192,192,153233,1,2,0:0:0:0:
64,192,153404,1,8,0:0:0:0:
192,192,153404,1,2,0:0:0:0:
64,192,153576,1,8,0:0:0:0:
192,192,153576,1,2,0:0:0:0:
192,192,153662,1,2,0:0:0:0:
448,192,153747,1,2,0:0:0:0:
320,192,153747,1,0,0:0:0:0:
64,192,153833,1,0,0:0:0:0:
192,192,153919,1,4,0:0:0:0:
320,192,153919,1,2,0:0:0:0:
448,192,153919,1,8,0:0:0:0:
192,192,154090,1,0,0:0:0:0:
64,192,154262,1,8,0:0:0:0:
320,192,154262,1,4,0:0:0:0:
448,192,154262,1,2,0:0:0:0:
64,192,154433,1,2,0:0:0:0:
320,192,154433,1,0,0:0:0:0:
192,192,154604,1,2,0:0:0:0:
448,192,154604,1,0,0:0:0:0:
64,192,154776,1,8,0:0:0:0:
192,192,154776,1,4,0:0:0:0:
320,192,154776,1,2,0:0:0:0:
64,192,154947,1,2,0:0:0:0:
320,192,154947,1,0,0:0:0:0:
192,192,155119,1,2,0:0:0:0:
448,192,155119,1,0,0:0:0:0:
64,192,155290,1,8,0:0:0:0:
320,192,155290,1,4,0:0:0:0:
448,192,155290,1,2,0:0:0:0:
192,192,155462,1,2,0:0:0:0:
320,192,155462,1,0,0:0:0:0:
64,192,155633,1,2,0:0:0:0:
448,192,155633,1,0,0:0:0:0:
192,192,155804,1,2,0:0:0:0:
320,192,155804,1,8,0:0:0:0:
448,192,155804,1,4,0:0:0:0:
192,192,155976,1,2,0:0:0:0:
320,192,155976,1,8,0:0:0:0:
448,192,155976,1,4,0:0:0:0:
64,192,156147,1,2,0:0:0:0:
192,192,156147,1,0,0:0:0:0:
192,192,156319,1,8,0:0:0:0:
320,192,156319,1,4,0:0:0:0:
448,192,156319,1,0,0:0:0:0:
64,192,156433,1,8,0:0:0:0:
320,192,156433,1,0,0:0:0:0:
192,192,156547,1,8,0:0:0:0:
448,192,156547,1,0,0:0:0:0:
192,192,156662,1,2,0:0:0:0:
320,192,156662,1,0,0:0:0:0:
64,192,156776,1,2,0:0:0:0:
448,192,156776,1,0,0:0:0:0:
64,192,156890,1,2,0:0:0:0:
192,192,156890,1,0,0:0:0:0:
192,192,157004,1,4,0:0:0:0:
320,192,157004,128,2,158376:0:0:0:0:
448,192,157004,1,0,0:0:0:0:
192,192,157347,1,0,0:0:0:0:
64,192,157519,1,0,0:0:0:0:
448,192,157690,1,0,0:0:0:0:
64,192,157862,1,0,0:0:0:0:
192,192,158033,1,0,0:0:0:0:
64,192,158204,1,0,0:0:0:0:
448,192,158376,1,0,0:0:0:0:
320,192,158547,1,0,0:0:0:0:
64,192,158719,1,0,0:0:0:0:
192,192,158890,1,0,0:0:0:0:
448,192,159062,1,0,0:0:0:0:
320,192,159233,1,0,0:0:0:0:
64,192,159404,1,0,0:0:0:0:
192,192,159576,1,0,0:0:0:0:
64,192,159747,1,0,0:0:0:0:
448,192,159747,1,0,0:0:0:0:
320,192,159919,1,0,0:0:0:0:
64,192,160090,1,0,0:0:0:0:
320,192,160262,1,0,0:0:0:0:
448,192,160433,1,0,0:0:0:0:
320,192,160604,1,0,0:0:0:0:
64,192,160776,1,0,0:0:0:0:
320,192,160947,1,0,0:0:0:0:
448,192,161119,1,0,0:0:0:0:
320,192,161290,1,0,0:0:0:0:
64,192,161462,1,0,0:0:0:0:
320,192,161633,1,0,0:0:0:0:
448,192,161804,1,0,0:0:0:0:
320,192,161976,1,0,0:0:0:0:
64,192,162147,1,0,0:0:0:0:
192,192,162319,1,0,0:0:0:0:
320,192,162490,1,0,0:0:0:0:
448,192,162490,1,0,0:0:0:0:
192,192,162662,1,0,0:0:0:0:
64,192,162833,1,0,0:0:0:0:
192,192,163004,1,0,0:0:0:0:
448,192,163176,1,0,0:0:0:0:
192,192,163347,1,0,0:0:0:0:
64,192,163519,1,0,0:0:0:0:
192,192,163690,1,0,0:0:0:0:
448,192,163862,1,0,0:0:0:0:
192,192,164033,1,0,0:0:0:0:
64,192,164204,1,0,0:0:0:0:
192,192,164376,1,0,0:0:0:0:
448,192,164547,1,0,0:0:0:0:
192,192,164719,1,0,0:0:0:0:
64,192,164890,1,0,0:0:0:0:
320,192,165062,1,0,0:0:0:0:
64,192,165233,1,0,0:0:0:0:
448,192,165233,1,0,0:0:0:0:
192,192,165404,1,0,0:0:0:0:
64,192,165576,1,0,0:0:0:0:
320,192,165747,1,0,0:0:0:0:
448,192,165919,1,0,0:0:0:0:
192,192,166090,1,0,0:0:0:0:
64,192,166262,1,0,0:0:0:0:
320,192,166433,1,0,0:0:0:0:
448,192,166604,1,0,0:0:0:0:
192,192,166776,1,0,0:0:0:0:
64,192,166947,1,0,0:0:0:0:
320,192,167119,1,0,0:0:0:0:
448,192,167290,1,0,0:0:0:0:
192,192,167462,1,0,0:0:0:0:
64,192,167633,1,0,0:0:0:0:
320,192,167804,1,0,0:0:0:0:
320,192,167976,1,0,0:0:0:0:
448,192,167976,1,0,0:0:0:0:
192,192,168147,1,0,0:0:0:0:
64,192,168319,1,0,0:0:0:0:
192,192,168490,1,0,0:0:0:0:
448,192,168662,1,0,0:0:0:0:
192,192,168833,1,0,0:0:0:0:
64,192,169004,1,0,0:0:0:0:
192,192,169176,1,0,0:0:0:0:
448,192,169347,1,0,0:0:0:0:
192,192,169519,1,0,0:0:0:0:
64,192,169690,1,0,0:0:0:0:
192,192,169862,1,0,0:0:0:0:
448,192,170033,1,0,0:0:0:0:
192,192,170204,1,0,0:0:0:0:
64,192,170376,1,0,0:0:0:0:
192,192,170547,1,0,0:0:0:0:
64,192,170719,1,0,0:0:0:0:
448,192,170719,1,0,0:0:0:0:
320,192,170890,1,0,0:0:0:0:
64,192,171062,1,0,0:0:0:0:
320,192,171233,1,0,0:0:0:0:
448,192,171404,1,0,0:0:0:0:
320,192,171576,1,0,0:0:0:0:
64,192,171747,1,0,0:0:0:0:
320,192,171919,1,0,0:0:0:0:
448,192,172090,128,0,172262:0:0:0:0:
320,192,172262,1,0,0:0:0:0:
64,192,172433,1,0,0:0:0:0:
448,192,172604,128,0,172776:0:0:0:0:
192,192,172776,1,0,0:0:0:0:
64,192,172947,1,0,0:0:0:0:
320,192,173119,128,0,173290:0:0:0:0:
192,192,173290,1,0,0:0:0:0:
320,192,173462,1,0,0:0:0:0:
448,192,173462,1,0,0:0:0:0:
192,192,173633,1,0,0:0:0:0:
64,192,173804,1,0,0:0:0:0:
192,192,173976,1,0,0:0:0:0:
448,192,174147,1,0,0:0:0:0:
192,192,174319,1,0,0:0:0:0:
64,192,174490,1,0,0:0:0:0:
192,192,174662,1,0,0:0:0:0:
320,192,174833,1,0,0:0:0:0:
448,192,174833,1,0,0:0:0:0:
64,192,175004,1,0,0:0:0:0:
320,192,175176,1,0,0:0:0:0:
192,192,175347,1,0,0:0:0:0:
448,192,175519,1,0,0:0:0:0:
320,192,175690,1,0,0:0:0:0:
192,192,175862,1,0,0:0:0:0:
64,192,176033,1,0,0:0:0:0:
320,192,176204,1,0,0:0:0:0:
448,192,176204,1,0,0:0:0:0:
192,192,176376,1,0,0:0:0:0:
320,192,176547,1,0,0:0:0:0:
64,192,176719,1,0,0:0:0:0:
448,192,176890,1,0,0:0:0:0:
192,192,177062,1,0,0:0:0:0:
320,192,177233,1,0,0:0:0:0:
64,192,177404,1,0,0:0:0:0:
192,192,177490,1,0,0:0:0:0:
448,192,177576,1,0,0:0:0:0:
320,192,177747,1,0,0:0:0:0:
192,192,177919,1,0,0:0:0:0:
64,192,178090,1,0,0:0:0:70:Da Raika Tom tom.wav
448,192,178090,1,0,0:0:0:0:
320,192,178262,1,0,0:0:0:0:
192,192,178433,128,0,178862:0:0:0:70:Da Raika Tom 2.wav
320,192,178519,128,0,178862:0:0:0:0:
64,192,178604,128,0,178862:0:0:0:70:Da Raika Tom 3.wav
64,192,178947,1,4,0:0:0:0:
320,192,178947,1,2,0:0:0:0:
448,192,178947,128,0,179290:0:0:0:0:
64,192,179290,1,2,0:0:0:0:
320,192,179290,1,0,0:0:0:0:
64,192,179462,1,2,0:0:0:0:
64,192,179633,1,2,0:0:0:0:
320,192,179633,1,0,0:0:0:0:
64,192,179804,1,2,0:0:0:0:
320,192,179890,1,0,0:0:0:0:
64,192,179976,1,2,0:0:0:0:
64,192,180147,1,2,0:0:0:0:
320,192,180147,1,0,0:0:0:0:
64,192,180319,1,2,0:0:0:0:
448,192,180319,1,0,0:0:0:0:
64,192,180490,1,2,0:0:0:0:
320,192,180490,1,0,0:0:0:0:
64,192,180662,1,2,0:0:0:0:
192,192,180662,1,0,0:0:0:0:
64,192,180833,1,2,0:0:0:0:
64,192,181004,1,2,0:0:0:0:
448,192,181004,1,0,0:0:0:0:
64,192,181176,1,2,0:0:0:0:
448,192,181262,1,0,0:0:0:0:
64,192,181347,1,2,0:0:0:0:
64,192,181519,1,2,0:0:0:0:
192,192,181690,128,2,182033:0:0:0:0:
448,192,181690,1,0,0:0:0:0:
64,192,182033,1,2,0:0:0:0:
320,192,182033,1,0,0:0:0:0:
320,192,182204,1,2,0:0:0:0:
192,192,182376,1,2,0:0:0:0:
320,192,182376,1,0,0:0:0:0:
320,192,182547,1,2,0:0:0:0:
192,192,182633,1,0,0:0:0:0:
320,192,182719,1,2,0:0:0:0:
320,192,182890,1,2,0:0:0:0:
448,192,182890,1,0,0:0:0:0:
192,192,183062,1,2,0:0:0:0:
320,192,183062,1,0,0:0:0:0:
64,192,183233,1,2,0:0:0:0:
320,192,183233,1,0,0:0:0:0:
320,192,183404,1,2,0:0:0:0:
448,192,183404,1,0,0:0:0:0:
64,192,183747,1,2,0:0:0:0:
448,192,183747,1,0,0:0:0:0:
320,192,183919,1,2,0:0:0:0:
192,192,184004,1,0,0:0:0:0:
320,192,184090,1,2,0:0:0:0:
448,192,184090,128,0,184262:0:0:0:0:
64,192,184262,1,2,0:0:0:0:
64,192,184433,1,2,0:0:0:0:
320,192,184433,1,4,0:0:0:0:
448,192,184433,1,0,0:0:0:0:
64,192,184776,1,8,0:0:0:0:
192,192,184776,1,2,0:0:0:0:
448,192,184776,1,0,0:0:0:0:
64,192,184947,1,8,0:0:0:0:
448,192,184947,1,2,0:0:0:0:
64,192,185119,1,8,0:0:0:0:
320,192,185119,1,2,0:0:0:0:
448,192,185119,1,0,0:0:0:0:
64,192,185290,1,8,0:0:0:0:
448,192,185290,1,2,0:0:0:0:
64,192,185462,1,8,0:0:0:0:
192,192,185462,1,2,0:0:0:0:
448,192,185462,1,0,0:0:0:0:
64,192,185633,1,8,0:0:0:0:
448,192,185633,1,2,0:0:0:0:
64,192,185804,1,8,0:0:0:0:
320,192,185804,1,2,0:0:0:0:
448,192,185804,1,0,0:0:0:0:
64,192,185976,1,8,0:0:0:0:
320,192,185976,1,2,0:0:0:0:
448,192,185976,1,0,0:0:0:0:
64,192,186147,1,8,0:0:0:0:
192,192,186147,1,2,0:0:0:0:
448,192,186147,1,0,0:0:0:0:
64,192,186319,1,8,0:0:0:0:
192,192,186319,1,2,0:0:0:0:
448,192,186319,1,0,0:0:0:0:
192,192,186490,1,8,0:0:0:0:
320,192,186490,1,2,0:0:0:0:
448,192,186490,1,0,0:0:0:0:
192,192,186662,1,8,0:0:0:0:
320,192,186662,1,2,0:0:0:0:
448,192,186662,1,0,0:0:0:0:
64,192,186833,1,8,0:0:0:0:
192,192,186833,1,2,0:0:0:0:
320,192,186833,1,0,0:0:0:0:
64,192,187004,1,8,0:0:0:0:
192,192,187004,1,2,0:0:0:0:
320,192,187004,1,0,0:0:0:0:
64,192,187176,1,8,0:0:0:0:
192,192,187176,1,2,0:0:0:0:
320,192,187176,1,4,0:0:0:0:
448,192,187176,1,2,0:0:0:0:
448,192,187347,1,2,0:0:0:0:
448,192,187519,1,2,0:0:0:0:
64,192,187690,1,8,0:0:0:0:
192,192,187690,1,4,0:0:0:0:
320,192,187690,1,2,0:0:0:0:
448,192,187690,1,0,0:0:0:0:
64,192,187862,1,2,0:0:0:0:
64,192,188033,1,2,0:0:0:0:
64,192,188204,1,4,0:0:0:0:
192,192,188204,1,2,0:0:0:0:
320,192,188204,1,8,0:0:0:0:
448,192,188204,1,0,0:0:0:0:
192,192,188376,1,2,0:0:0:0:
320,192,188547,1,2,0:0:0:0:
64,192,188719,1,8,0:0:0:0:
192,192,188719,1,4,0:0:0:0:
320,192,188719,1,2,0:0:0:0:
448,192,188719,1,0,0:0:0:0:
64,192,188890,1,2,0:0:0:0:
448,192,188890,1,0,0:0:0:0:
192,192,189062,1,2,0:0:0:0:
320,192,189062,1,0,0:0:0:0:
64,192,189233,1,4,0:0:0:0:
192,192,189233,1,2,0:0:0:0:
320,192,189233,1,8,0:0:0:0:
448,192,189233,1,0,0:0:0:0:
64,192,189404,1,8,0:0:0:0:
192,192,189404,1,0,0:0:0:0:
448,192,189490,1,8,0:0:0:0:
320,192,189490,1,0,0:0:0:0:
64,192,189576,1,8,0:0:0:0:
448,192,189576,1,0,0:0:0:0:
192,192,189662,1,8,0:0:0:0:
64,192,189662,1,0,0:0:0:0:
320,192,189747,1,8,0:0:0:0:
448,192,189747,1,0,0:0:0:0:
192,192,189833,1,8,0:0:0:0:
64,192,189919,1,2,0:0:0:0:
320,192,189919,128,4,190004:0:0:0:0:
448,192,189919,128,0,190004:0:0:0:0:
320,192,190090,1,2,0:0:0:0:
64,192,190262,1,8,0:0:0:0:
448,192,190262,1,0,0:0:0:0:
192,192,190433,1,2,0:0:0:0:
320,192,190519,1,0,0:0:0:0:
64,192,190604,128,2,190690:0:0:0:0:
192,192,190604,128,0,190690:0:0:0:0:
192,192,190776,1,2,0:0:0:0:
64,192,190947,1,8,0:0:0:0:
448,192,190947,1,0,0:0:0:0:
320,192,191119,1,2,0:0:0:0:
64,192,191290,1,2,0:0:0:0:
192,192,191290,128,0,191376:0:0:0:0:
448,192,191290,128,0,191376:0:0:0:0:
192,192,191462,1,2,0:0:0:0:
320,192,191633,1,8,0:0:0:0:
448,192,191633,1,0,0:0:0:0:
192,192,191804,1,2,0:0:0:0:
192,192,191976,1,0,0:0:0:0:
64,192,191976,128,2,192062:0:0:0:0:
448,192,191976,128,0,192062:0:0:0:0:
64,192,192147,1,2,0:0:0:0:
320,192,192319,1,8,0:0:0:0:
448,192,192319,1,0,0:0:0:0:
192,192,192490,1,2,0:0:0:0:
448,192,192662,1,0,0:0:0:0:
64,192,192662,128,2,192747:0:0:0:0:
320,192,192662,128,0,192747:0:0:0:0:
448,192,192833,1,2,0:0:0:0:
64,192,193004,1,8,0:0:0:0:
320,192,193004,1,0,0:0:0:0:
192,192,193176,1,2,0:0:0:0:
448,192,193262,1,2,0:0:0:0:
64,192,193347,1,2,0:0:0:0:
192,192,193347,1,0,0:0:0:0:
64,192,193519,1,2,0:0:0:0:
192,192,193690,1,8,0:0:0:0:
320,192,193690,128,0,193776:0:0:0:0:
448,192,193690,128,0,193776:0:0:0:0:
320,192,193862,1,2,0:0:0:0:
448,192,194033,1,0,0:0:0:0:
64,192,194033,128,2,194119:0:0:0:0:
192,192,194033,128,0,194119:0:0:0:0:
192,192,194204,1,2,0:0:0:0:
448,192,194376,1,0,0:0:0:0:
64,192,194376,128,8,194462:0:0:0:0:
320,192,194376,128,0,194462:0:0:0:0:
192,192,194547,1,2,0:0:0:0:
64,192,194719,1,2,0:0:0:0:
192,192,194719,128,0,194804:0:0:0:0:
448,192,194719,128,0,194804:0:0:0:0:
448,192,194890,1,2,0:0:0:0:
192,192,195062,1,0,0:0:0:0:
320,192,195062,128,0,195147:0:0:0:0:
64,192,195062,128,8,195147:0:0:0:0:
64,192,195404,1,4,0:0:0:0:
448,192,195404,1,0,0:0:0:0:
192,192,195404,128,2,195490:0:0:0:0:
320,192,195404,128,0,195490:0:0:0:0:
64,192,195576,1,2,0:0:0:0:
64,192,195747,1,8,0:0:0:0:
320,192,195747,1,0,0:0:0:0:
448,192,195919,1,2,0:0:0:0:
320,192,196090,1,0,0:0:0:0:
64,192,196090,128,2,196176:0:0:0:0:
192,192,196090,128,0,196176:0:0:0:0:
192,192,196262,1,2,0:0:0:0:
64,192,196433,1,8,0:0:0:0:
448,192,196433,1,0,0:0:0:0:
320,192,196604,1,2,0:0:0:0:
64,192,196776,1,2,0:0:0:0:
192,192,196776,128,0,196862:0:0:0:0:
448,192,196776,128,0,196862:0:0:0:0:
448,192,196947,1,2,0:0:0:0:
192,192,197119,1,8,0:0:0:0:
320,192,197119,1,0,0:0:0:0:
448,192,197290,1,2,0:0:0:0:
320,192,197376,1,2,0:0:0:0:
192,192,197462,1,0,0:0:0:0:
64,192,197462,128,2,197547:0:0:0:0:
448,192,197462,128,0,197547:0:0:0:0:
64,192,197633,1,2,0:0:0:0:
192,192,197804,1,8,0:0:0:0:
320,192,197804,1,4,0:0:0:0:
448,192,197804,1,0,0:0:0:0:
64,192,198147,128,4,198404:0:0:0:0:
192,192,198147,128,2,198404:0:0:0:0:
448,192,198147,1,0,0:0:0:0:
320,192,198404,1,2,0:0:0:0:
64,192,198490,1,8,0:0:0:0:
192,192,198490,1,0,0:0:0:0:
64,192,198662,128,2,199004:0:0:0:0:
320,192,198662,128,4,199004:0:0:0:0:
448,192,198662,1,0,0:0:0:0:
192,192,199004,1,2,0:0:0:0:
448,192,199004,1,0,0:0:0:0:
64,192,199176,1,8,0:0:0:0:
320,192,199176,1,0,0:0:0:0:
64,192,199347,128,2,199604:0:0:0:0:
192,192,199347,1,4,0:0:0:0:
448,192,199347,128,0,199604:0:0:0:0:
64,192,199690,128,2,199776:0:0:0:0:
320,192,199690,128,4,199776:0:0:0:0:
448,192,199690,1,0,0:0:0:0:
64,192,199862,1,4,0:0:0:0:
320,192,199862,1,8,0:0:0:0:
448,192,199862,1,2,0:0:0:0:
192,192,200033,128,2,200204:0:0:0:0:
64,192,200204,1,4,0:0:0:0:
320,192,200204,1,8,0:0:0:0:
448,192,200204,1,2,0:0:0:0:
192,192,200376,1,8,0:0:0:0:
320,192,200462,1,8,0:0:0:0:
64,192,200547,1,8,0:0:0:0:
448,192,200547,1,0,0:0:0:0:
320,192,200633,1,2,0:0:0:0:
448,192,200633,1,0,0:0:0:0:
64,192,200719,1,2,0:0:0:0:
192,192,200719,1,0,0:0:0:0:
64,192,200804,1,2,0:0:0:0:
448,192,200804,1,0,0:0:0:0:
192,192,200890,128,2,201233:0:0:0:0:
320,192,200890,1,4,0:0:0:0:
448,192,200890,1,0,0:0:0:0:
320,192,201062,1,2,0:0:0:0:
320,192,201233,1,8,0:0:0:0:
448,192,201233,1,0,0:0:0:0:
64,192,201404,128,2,201747:0:0:0:0:
320,192,201576,1,2,0:0:0:0:
320,192,201747,1,2,0:0:0:0:
192,192,201919,128,8,202262:0:0:0:0:
448,192,201919,1,0,0:0:0:0:
320,192,202090,1,2,0:0:0:0:
64,192,202262,1,2,0:0:0:0:
448,192,202262,128,0,202604:0:0:0:0:
64,192,202433,1,2,0:0:0:0:
64,192,202604,1,8,0:0:0:0:
192,192,202604,1,0,0:0:0:0:
320,192,202776,128,2,203119:0:0:0:0:
64,192,202862,1,2,0:0:0:0:
192,192,202947,1,2,0:0:0:0:
192,192,203119,1,2,0:0:0:0:
64,192,203290,1,8,0:0:0:0:
448,192,203290,128,0,203462:0:0:0:0:
192,192,203462,1,2,0:0:0:0:
320,192,203547,1,2,0:0:0:0:
64,192,203633,1,2,0:0:0:0:
192,192,203633,128,4,204662:0:0:0:0:
448,192,203633,1,0,0:0:0:0:
448,192,203804,1,2,0:0:0:0:
64,192,203976,1,8,0:0:0:0:
448,192,203976,1,0,0:0:0:0:
320,192,204147,1,2,0:0:0:0:
448,192,204233,1,0,0:0:0:0:
64,192,204319,1,2,0:0:0:0:
64,192,204490,1,2,0:0:0:0:
64,192,204662,1,8,0:0:0:0:
448,192,204662,1,0,0:0:0:0:
320,192,204833,1,2,0:0:0:0:
64,192,204919,1,0,0:0:0:0:
192,192,205004,1,2,0:0:0:0:
320,192,205004,128,0,205347:0:0:0:0:
192,192,205176,1,2,0:0:0:0:
192,192,205347,1,8,0:0:0:0:
448,192,205347,1,0,0:0:0:0:
64,192,205519,1,2,0:0:0:0:
320,192,205604,1,2,0:0:0:0:
192,192,205690,1,2,0:0:0:0:
448,192,205690,128,0,206033:0:0:0:0:
192,192,205862,1,2,0:0:0:0:
64,192,206033,1,8,0:0:0:0:
320,192,206033,1,0,0:0:0:0:
320,192,206204,1,2,0:0:0:0:
448,192,206204,1,0,0:0:0:0:
192,192,206290,1,2,0:0:0:0:
64,192,206376,1,4,0:0:0:0:
320,192,206376,1,2,0:0:0:0:
448,192,206376,128,8,206633:0:0:0:0:
192,192,206547,1,2,0:0:0:0:
320,192,206547,128,0,206633:0:0:0:0:
64,192,206719,128,8,206976:0:0:0:0:
192,192,206719,1,0,0:0:0:0:
448,192,206719,1,0,0:0:0:0:
192,192,206890,128,2,206976:0:0:0:0:
320,192,206890,1,0,0:0:0:0:
64,192,207062,1,8,0:0:0:0:
320,192,207062,1,0,0:0:0:0:
448,192,207062,128,0,207319:0:0:0:0:
192,192,207233,128,2,207319:0:0:0:0:
320,192,207233,1,0,0:0:0:0:
64,192,207404,128,8,207662:0:0:0:0:
192,192,207404,1,0,0:0:0:0:
448,192,207404,1,0,0:0:0:0:
192,192,207576,1,2,0:0:0:0:
320,192,207576,128,0,207662:0:0:0:0:
64,192,207747,1,8,0:0:0:0:
320,192,207747,1,0,0:0:0:0:
448,192,207747,128,0,208004:0:0:0:0:
64,192,207919,128,2,208004:0:0:0:0:
192,192,207919,1,0,0:0:0:0:
64,192,208090,128,8,208347:0:0:0:0:
320,192,208090,1,0,0:0:0:0:
448,192,208090,1,0,0:0:0:0:
192,192,208262,128,2,208347:0:0:0:0:
320,192,208262,1,0,0:0:0:0:
64,192,208433,1,8,0:0:0:0:
320,192,208433,128,0,208690:0:0:0:0:
448,192,208433,1,0,0:0:0:0:
64,192,208604,1,2,0:0:0:0:
192,192,208604,128,0,208690:0:0:0:0:
64,192,208776,1,4,0:0:0:0:
192,192,208776,1,8,0:0:0:0:
320,192,208776,1,2,0:0:0:0:
448,192,208776,128,0,209033:0:0:0:0:
64,192,208947,128,2,209033:0:0:0:0:
320,192,208947,1,0,0:0:0:0:
64,192,209119,1,4,0:0:0:0:
192,192,209119,1,8,0:0:0:0:
320,192,209119,1,0,0:0:0:0:
448,192,209119,1,0,0:0:0:0:
192,192,209290,1,2,0:0:0:0:
320,192,209290,1,0,0:0:0:0:
64,192,209376,1,2,0:0:0:0:
448,192,209376,1,0,0:0:0:0:
320,192,209462,1,2,0:0:0:0:
448,192,209462,1,0,0:0:0:0:
64,192,209547,1,2,0:0:0:0:
192,192,209547,1,0,0:0:0:0:
64,192,209633,1,8,0:0:0:0:
320,192,209633,1,4,0:0:0:0:
448,192,209633,1,0,0:0:0:0:
320,192,209804,1,2,0:0:0:0:
448,192,209804,1,0,0:0:0:0:
64,192,209890,1,2,0:0:0:0:
192,192,209890,1,0,0:0:0:0:
64,192,209976,1,2,0:0:0:0:
448,192,209976,1,0,0:0:0:0:
192,192,210062,1,2,0:0:0:0:
320,192,210062,1,0,0:0:0:0:
64,192,210147,1,8,0:0:0:0:
320,192,210147,1,4,0:0:0:0:
448,192,210147,1,0,0:0:0:0:
64,192,210319,1,2,0:0:0:0:
320,192,210319,1,0,0:0:0:0:
320,192,210404,1,2,0:0:0:0:
448,192,210404,1,0,0:0:0:0:
64,192,210490,1,2,0:0:0:0:
192,192,210490,1,0,0:0:0:0:
64,192,210576,1,2,0:0:0:0:
448,192,210576,1,0,0:0:0:0:
192,192,210662,1,4,0:0:0:0:
320,192,210662,1,8,0:0:0:0:
448,192,210662,1,0,0:0:0:0:
64,192,210833,1,2,0:0:0:0:
448,192,210833,1,0,0:0:0:0:
64,192,210919,1,2,0:0:0:0:
448,192,210919,1,0,0:0:0:0:
192,192,211004,1,2,0:0:0:0:
320,192,211004,1,0,0:0:0:0:
192,192,211090,1,2,0:0:0:0:
320,192,211090,1,0,0:0:0:0:
64,192,211176,1,8,0:0:0:0:
448,192,211176,128,4,211347:0:0:0:0:
192,192,211347,1,2,0:0:0:0:
320,192,211347,1,0,0:0:0:0:
64,192,211519,1,2,0:0:0:0:
448,192,211519,128,0,211862:0:0:0:0:
64,192,211862,1,2,0:0:0:0:
192,192,211862,128,8,213233:0:0:0:0:
320,192,211862,1,4,0:0:0:0:
320,192,213062,1,2,0:0:0:0:
320,192,213147,1,2,0:0:0:0:
64,192,213233,1,8,0:0:0:0:
448,192,213233,128,0,213919:0:0:0:0:
192,192,213747,1,2,0:0:0:0:
320,192,213790,1,0,0:0:0:0:
64,192,214090,1,2,0:0:0:0:
448,192,214262,1,2,0:0:0:0:
64,192,214604,1,4,0:0:0:0:
192,192,214604,1,0,0:0:0:0:
448,192,214947,1,0,0:0:0:0:
64,192,215119,1,0,0:0:0:0:
320,192,215204,1,0,0:0:0:0:
192,192,215290,1,0,0:0:0:0:
448,192,215633,1,0,0:0:0:0:
64,192,215976,1,0,0:0:0:0:
448,192,216319,1,0,0:0:0:0:
320,192,216490,1,0,0:0:0:0:
448,192,216576,1,0,0:0:0:0:
64,192,216662,1,0,0:0:0:0:
192,192,216833,1,0,0:0:0:0:
448,192,217004,1,0,0:0:0:0:
320,192,217176,1,0,0:0:0:0:
192,192,217347,1,0,0:0:0:0:
320,192,217690,1,0,0:0:0:0:
448,192,217862,1,0,0:0:0:0:
192,192,217947,1,0,0:0:0:0:
64,192,218033,1,0,0:0:0:0:
64,192,218204,1,0,0:0:0:0:
320,192,218376,1,0,0:0:0:0:
64,192,218547,1,0,0:0:0:0:
192,192,218719,1,0,0:0:0:0:
448,192,219062,1,0,0:0:0:0:
64,192,219233,1,0,0:0:0:0:
448,192,219319,1,0,0:0:0:0:
64,192,219404,128,0,220090:0:0:0:0:
320,192,219747,1,0,0:0:0:0:
192,192,220090,128,0,221976:0:0:0:0:
448,192,220433,1,0,0:0:0:0:
64,192,220604,1,0,0:0:0:0:
320,192,220690,1,0,0:0:0:0:
64,192,220776,1,0,0:0:0:0:
448,192,221119,1,0,0:0:0:0:
320,192,221462,1,0,0:0:0:0:
64,192,221804,1,0,0:0:0:0:
448,192,221976,128,0,222147:0:0:0:0:
192,192,222147,128,0,222662:0:0:0:0:
64,192,222319,1,0,0:0:0:0:
448,192,222490,1,0,0:0:0:0:
320,192,222833,128,0,224204:0:0:0:0:
192,192,223176,1,0,0:0:0:0:
64,192,223519,128,0,224204:0:0:0:0:
192,192,223862,1,0,0:0:0:0:
192,192,224204,1,8,0:0:0:0:
448,192,224204,1,0,0:0:0:0:
192,192,224376,1,2,0:0:0:0:
320,192,224376,1,0,0:0:0:0:
64,192,224547,1,2,0:0:0:0:
320,192,224547,1,0,0:0:0:0:
64,192,224719,1,2,0:0:0:0:
192,192,224719,1,0,0:0:0:0:
320,192,224890,1,8,0:0:0:0:
448,192,224890,1,0,0:0:0:0:
320,192,225004,1,8,0:0:0:0:
448,192,225004,1,0,0:0:0:0:
320,192,225119,1,8,0:0:0:0:
448,192,225119,1,0,0:0:0:0:
64,192,225233,1,2,0:0:0:0:
192,192,225233,1,0,0:0:0:0:
64,192,225347,1,2,0:0:0:0:
192,192,225347,1,0,0:0:0:0:
64,192,225462,1,2,0:0:0:0:
192,192,225462,1,0,0:0:0:0:
64,192,225576,1,2,0:0:0:0:
320,192,225576,1,4,0:0:0:0:
448,192,225576,1,0,0:0:0:0:
192,192,226090,1,2,0:0:0:0:
64,192,226262,1,8,0:0:0:0:
320,192,226262,1,0,0:0:0:0:
448,192,226262,1,0,0:0:0:0:
320,192,226433,1,8,0:0:0:0:
448,192,226433,1,0,0:0:0:0:
192,192,226604,1,2,0:0:0:0:
64,192,226776,1,2,0:0:0:0:
320,192,226776,1,0,0:0:0:0:
192,192,226947,1,2,0:0:0:0:
64,192,227119,1,8,0:0:0:0:
448,192,227119,1,0,0:0:0:0:
320,192,227290,1,2,0:0:0:0:
192,192,227462,1,2,0:0:0:0:
64,192,227633,1,8,0:0:0:0:
448,192,227633,1,0,0:0:0:0:
64,192,227804,1,8,0:0:0:0:
448,192,227804,1,0,0:0:0:0:
320,192,227976,1,2,0:0:0:0:
192,192,228147,1,2,0:0:0:0:
64,192,228319,1,2,0:0:0:0:
320,192,228319,1,0,0:0:0:0:
64,192,228662,1,0,0:0:0:0:
320,192,228662,1,0,0:0:0:0:
192,192,228833,1,2,0:0:0:0:
320,192,229004,1,8,0:0:0:0:
448,192,229004,1,0,0:0:0:0:
320,192,229176,1,8,0:0:0:0:
448,192,229176,1,0,0:0:0:0:
64,192,229347,1,2,0:0:0:0:
192,192,229519,1,2,0:0:0:0:
320,192,229690,1,2,0:0:0:0:
64,192,229862,1,8,0:0:0:0:
448,192,229862,1,0,0:0:0:0:
192,192,230033,1,2,0:0:0:0:
320,192,230204,1,2,0:0:0:0:
64,192,230376,1,8,0:0:0:0:
448,192,230376,1,0,0:0:0:0:
448,192,230547,1,8,0:0:0:0:
64,192,230719,1,2,0:0:0:0:
448,192,230890,1,2,0:0:0:0:
64,192,231062,1,2,0:0:0:0:
192,192,231062,128,4,233119:0:0:0:0:
320,192,231062,1,0,0:0:0:0:
320,192,231404,1,8,0:0:0:0:
448,192,231404,128,2,231490:0:0:0:0:
320,192,231576,1,8,0:0:0:0:
448,192,231576,128,2,231662:0:0:0:0:
320,192,231747,1,8,0:0:0:0:
448,192,231747,128,2,231833:0:0:0:0:
320,192,231919,1,8,0:0:0:0:
448,192,231919,128,2,232004:0:0:0:0:
320,192,232090,1,8,0:0:0:0:
448,192,232090,128,2,232176:0:0:0:0:
320,192,232262,1,8,0:0:0:0:
448,192,232262,128,2,232347:0:0:0:0:
320,192,232433,128,8,232519:0:0:0:0:
448,192,232433,1,2,0:0:0:0:
320,192,232604,1,8,0:0:0:0:
448,192,232604,128,2,232690:0:0:0:0:
320,192,232776,128,8,232862:0:0:0:0:
448,192,232776,1,2,0:0:0:0:
320,192,232947,1,8,0:0:0:0:
448,192,232947,128,2,233033:0:0:0:0:
64,192,233119,1,8,0:0:0:0:
320,192,233119,1,2,0:0:0:0:
448,192,233119,128,0,233204:0:0:0:0:
192,192,233204,1,2,0:0:0:0:
320,192,233290,1,2,0:0:0:0:
448,192,233290,1,0,0:0:0:0:
192,192,233376,1,2,0:0:0:0:
64,192,233462,1,8,0:0:0:0:
320,192,233462,1,2,0:0:0:0:
448,192,233462,1,4,0:0:0:0:
192,192,233633,1,2,0:0:0:0:
64,192,233804,1,8,0:0:0:0:
320,192,233804,1,4,0:0:0:0:
448,192,233804,1,2,0:0:0:0:
192,192,233919,1,0,0:0:0:0:
64,192,233976,1,2,0:0:0:0:
448,192,233976,1,0,0:0:0:0:
320,192,234033,1,0,0:0:0:0:
192,192,234147,1,2,0:0:0:0:
448,192,234147,1,0,0:0:0:0:
320,192,234262,1,0,0:0:0:0:
64,192,234319,1,8,0:0:0:0:
192,192,234319,1,4,0:0:0:0:
448,192,234319,1,2,0:0:0:0:
320,192,234376,1,0,0:0:0:0:
64,192,234490,1,2,0:0:0:0:
448,192,234490,1,0,0:0:0:0:
320,192,234604,1,0,0:0:0:0:
192,192,234662,1,2,0:0:0:0:
64,192,234662,1,0,0:0:0:0:
64,192,234833,1,2,0:0:0:0:
320,192,234833,1,8,0:0:0:0:
448,192,234833,1,4,0:0:0:0:
192,192,235004,1,2,0:0:0:0:
320,192,235004,1,0,0:0:0:0:
64,192,235176,1,2,0:0:0:0:
192,192,235176,1,8,0:0:0:0:
320,192,235176,1,4,0:0:0:0:
192,192,235519,1,2,0:0:0:0:
320,192,235519,1,8,0:0:0:0:
448,192,235519,1,4,0:0:0:0:
64,192,235862,1,2,0:0:0:0:
320,192,235862,1,8,0:0:0:0:
448,192,235862,1,4,0:0:0:0:
320,192,236033,1,2,0:0:0:0:
448,192,236033,1,0,0:0:0:0:
64,192,236119,1,2,0:0:0:0:
192,192,236119,1,0,0:0:0:0:
64,192,236204,1,2,0:0:0:0:
320,192,236204,1,8,0:0:0:0:
448,192,236204,1,4,0:0:0:0:
192,192,236290,1,8,0:0:0:0:
320,192,236376,1,2,0:0:0:0:
192,192,236462,1,2,0:0:0:0:
448,192,236547,1,2,0:0:0:70:Da Raika Tom tom.wav
448,192,236633,1,2,0:0:0:70:Da Raika Tom tom.wav
64,192,236719,1,2,0:0:0:70:Da Raika Tom 2.wav
64,192,236804,1,2,0:0:0:70:Da Raika Tom 3.wav
192,192,236890,1,4,0:0:0:0:
320,192,236890,1,8,0:0:0:0:
448,192,236890,1,2,0:0:0:0:
64,192,237233,1,2,0:0:0:0:
192,192,237233,1,0,0:0:0:0:
320,192,237233,1,0,0:0:0:0:
192,192,237404,1,8,0:0:0:0:
320,192,237404,1,2,0:0:0:0:
448,192,237404,1,4,0:0:0:0:
64,192,237576,1,4,0:0:0:0:
320,192,237576,1,8,0:0:0:0:
448,192,237576,1,2,0:0:0:0:
192,192,237747,1,2,0:0:0:0:
320,192,237747,1,0,0:0:0:0:
64,192,237833,1,8,0:0:0:0:
192,192,237919,1,8,0:0:0:0:
320,192,237919,1,4,0:0:0:0:
448,192,237919,1,0,0:0:0:0:
64,192,238090,1,2,0:0:0:0:
448,192,238090,1,0,0:0:0:0:
64,192,238176,1,8,0:0:0:0:
192,192,238176,1,0,0:0:0:0:
320,192,238262,1,8,0:0:0:0:
448,192,238262,1,0,0:0:0:0:
64,192,238433,1,8,0:0:0:0:
320,192,238433,1,0,0:0:0:0:
448,192,238433,1,0,0:0:0:0:
64,192,238604,1,2,0:0:0:0:
192,192,238604,1,0,0:0:0:0:
448,192,238604,1,0,0:0:0:0:
320,192,238690,1,2,0:0:0:0:
192,192,238776,1,2,0:0:0:0:
320,192,238862,1,8,0:0:0:0:
448,192,238862,1,0,0:0:0:0:
64,192,238947,1,8,0:0:0:0:
320,192,238947,1,0,0:0:0:0:
192,192,239033,1,2,0:0:0:0:
64,192,239119,1,2,0:0:0:0:
448,192,239119,1,0,0:0:0:0:
320,192,239204,1,2,0:0:0:0:
64,192,239290,1,4,0:0:0:0:
192,192,239290,1,2,0:0:0:0:
448,192,239290,1,0,0:0:0:0:
192,192,239462,1,0,0:0:0:0:
64,192,239633,1,4,0:0:0:0:
320,192,239633,1,2,0:0:0:0:
448,192,239633,1,8,0:0:0:0:
320,192,239804,128,0,240147:0:0:0:0:
448,192,239804,1,0,0:0:0:0:
64,192,239976,1,2,0:0:0:0:
64,192,240147,1,8,0:0:0:0:
192,192,240147,1,4,0:0:0:0:
448,192,240147,1,0,0:0:0:0:
64,192,240319,1,4,0:0:0:0:
192,192,240319,1,8,0:0:0:0:
448,192,240319,1,0,0:0:0:0:
320,192,240490,1,0,0:0:0:0:
192,192,240576,1,0,0:0:0:0:
64,192,240662,1,4,0:0:0:0:
320,192,240662,1,8,0:0:0:0:
448,192,240662,1,2,0:0:0:0:
64,192,240833,128,0,241004:0:0:0:0:
320,192,240833,1,0,0:0:0:0:
192,192,241004,1,8,0:0:0:0:
320,192,241004,1,2,0:0:0:0:
448,192,241004,1,4,0:0:0:0:
192,192,241176,1,0,0:0:0:0:
448,192,241176,128,0,241347:0:0:0:0:
64,192,241347,1,4,0:0:0:0:
192,192,241347,128,8,241519:0:0:0:0:
320,192,241347,1,2,0:0:0:0:
64,192,241519,128,0,241690:0:0:0:0:
448,192,241519,1,0,0:0:0:0:
320,192,241690,1,2,0:0:0:0:
448,192,241690,128,0,241862:0:0:0:0:
192,192,241862,1,0,0:0:0:0:
320,192,241862,128,0,242033:0:0:0:0:
64,192,242033,128,4,242376:0:0:0:0:
192,192,242033,1,2,0:0:0:0:
448,192,242033,1,0,0:0:0:0:
320,192,242204,1,2,2:0:0:0:
192,192,242376,1,8,0:0:0:0:
320,192,242376,1,2,0:0:0:0:
448,192,242376,1,0,0:0:0:0:
64,192,242547,1,2,2:0:0:0:
192,192,242547,1,0,0:0:0:0:
320,192,242719,1,2,0:0:0:0:
448,192,242719,128,0,243062:0:0:0:0:
192,192,242890,1,2,2:0:0:0:
64,192,243062,1,8,0:0:0:0:
192,192,243062,1,2,0:0:0:0:
320,192,243062,1,0,0:0:0:0:
64,192,243233,1,2,2:0:0:0:
320,192,243233,1,0,0:0:0:0:
192,192,243404,1,2,0:0:0:0:
448,192,243404,128,0,243747:0:0:0:0:
320,192,243576,1,2,2:0:0:0:
64,192,243747,1,8,0:0:0:0:
192,192,243747,1,2,0:0:0:0:
320,192,243747,1,0,0:0:0:0:
192,192,243919,1,2,2:0:0:0:
448,192,243919,1,0,0:0:0:0:
64,192,244090,128,2,244433:0:0:0:0:
320,192,244090,1,0,0:0:0:0:
192,192,244262,1,2,2:0:0:0:
192,192,244433,1,8,0:0:0:0:
320,192,244433,1,2,0:0:0:0:
448,192,244433,1,0,0:0:0:0:
64,192,244604,1,2,2:0:0:0:
320,192,244604,1,0,0:0:0:0:
192,192,244776,128,2,245119:0:0:0:0:
448,192,244776,1,0,0:0:0:0:
320,192,244947,1,2,2:0:0:0:
64,192,245119,1,8,0:0:0:0:
320,192,245119,1,2,0:0:0:0:
448,192,245119,1,0,0:0:0:0:
64,192,245290,1,2,2:0:0:0:
192,192,245290,128,0,245462:0:0:0:0:
448,192,245462,1,2,0:0:0:0:
192,192,245633,1,2,2:0:0:0:
320,192,245633,128,0,245804:0:0:0:0:
64,192,245804,1,8,0:0:0:0:
192,192,245804,1,2,0:0:0:0:
448,192,245804,1,0,0:0:0:0:
320,192,245976,1,2,2:0:0:0:
448,192,245976,128,0,246319:0:0:0:0:
64,192,246147,128,2,246319:0:0:0:0:
192,192,246147,1,0,0:0:0:0:
320,192,246319,1,2,2:0:0:0:
64,192,246490,1,8,0:0:0:0:
192,192,246490,1,2,0:0:0:0:
448,192,246490,1,0,0:0:0:0:
448,192,246662,1,2,2:0:0:0:
64,192,246833,1,2,0:0:0:0:
320,192,246833,1,0,0:0:0:0:
192,192,247004,1,2,2:0:0:0:
64,192,247176,1,8,0:0:0:0:
320,192,247176,1,2,0:0:0:0:
448,192,247176,1,0,0:0:0:0:
192,192,247347,1,2,2:0:0:0:
64,192,247519,1,4,0:0:0:0:
320,192,247519,1,2,0:0:0:0:
448,192,247519,128,0,248890:0:0:0:0:
192,192,247690,1,2,2:0:0:0:
64,192,247862,1,8,0:0:0:0:
192,192,247862,1,2,0:0:0:0:
320,192,247862,1,0,0:0:0:0:
320,192,248033,1,2,2:0:0:0:
64,192,248204,1,2,0:0:0:0:
192,192,248204,1,0,0:0:0:0:
320,192,248376,1,2,2:0:0:0:
64,192,248547,1,8,0:0:0:0:
192,192,248547,1,2,0:0:0:0:
320,192,248547,1,0,0:0:0:0:
64,192,248719,1,2,2:0:0:0:
192,192,248890,1,2,0:0:0:0:
320,192,248890,128,0,249233:0:0:0:0:
64,192,249062,1,2,2:0:0:0:
64,192,249233,1,8,0:0:0:0:
192,192,249233,128,2,249576:0:0:0:0:
448,192,249233,1,0,0:0:0:0:
448,192,249404,1,2,2:0:0:0:
64,192,249576,1,2,0:0:0:0:
320,192,249576,128,0,249919:0:0:0:0:
192,192,249747,1,2,2:0:0:0:
64,192,249919,1,8,0:0:0:0:
192,192,249919,128,2,250262:0:0:0:0:
448,192,249919,1,0,0:0:0:0:
320,192,250090,1,2,2:0:0:0:
64,192,250262,128,2,251633:0:0:0:0:
448,192,250262,1,0,0:0:0:0:
320,192,250433,1,2,2:0:0:0:
192,192,250604,1,8,0:0:0:0:
320,192,250604,1,2,0:0:0:0:
448,192,250604,1,0,0:0:0:0:
448,192,250776,1,2,2:0:0:0:
192,192,250947,1,2,0:0:0:0:
320,192,250947,1,0,0:0:0:0:
448,192,251119,1,2,2:0:0:0:
192,192,251290,1,8,0:0:0:0:
320,192,251290,1,2,0:0:0:0:
448,192,251290,1,0,0:0:0:0:
192,192,251462,1,2,2:0:0:0:
320,192,251633,1,2,0:0:0:0:
448,192,251633,128,0,251976:0:0:0:0:
64,192,251804,1,2,2:0:0:0:
64,192,251976,1,8,0:0:0:0:
192,192,251976,128,2,252319:0:0:0:0:
320,192,251976,1,0,0:0:0:0:
448,192,252147,1,2,2:0:0:0:
64,192,252319,1,2,0:0:0:0:
320,192,252319,128,0,252662:0:0:0:0:
192,192,252490,1,2,2:0:0:0:
64,192,252662,128,8,253004:0:0:0:0:
192,192,252662,1,2,0:0:0:0:
448,192,252662,1,4,0:0:0:0:
320,192,252833,1,0,0:0:0:0:
192,192,253004,128,4,253262:0:0:0:0:
320,192,253004,1,2,0:0:0:0:
448,192,253004,1,0,0:0:0:0:
192,192,253347,1,8,0:0:0:0:
320,192,253347,128,2,253433:0:0:0:0:
448,192,253347,1,0,0:0:0:0:
64,192,253519,1,8,0:0:0:0:
192,192,253519,128,2,253604:0:0:0:0:
320,192,253519,1,0,0:0:0:0:
192,192,253690,1,8,0:0:0:0:
320,192,253690,128,2,253776:0:0:0:0:
448,192,253690,1,0,0:0:0:0:
64,192,253862,1,8,0:0:0:0:
192,192,253862,128,2,253947:0:0:0:0:
320,192,253862,1,0,0:0:0:0:
192,192,254033,1,8,0:0:0:0:
320,192,254033,128,2,254119:0:0:0:0:
448,192,254033,1,0,0:0:0:0:
64,192,254204,1,8,0:0:0:0:
192,192,254204,128,2,254290:0:0:0:0:
320,192,254204,1,0,0:0:0:0:
64,192,254376,1,8,0:0:0:0:
320,192,254376,128,2,254462:0:0:0:0:
448,192,254376,1,0,0:0:0:0:
64,192,254547,1,8,0:0:0:0:
192,192,254547,128,2,254633:0:0:0:0:
448,192,254547,1,0,0:0:0:0:
64,192,254719,1,8,0:0:0:0:
320,192,254719,128,2,254804:0:0:0:0:
448,192,254719,1,0,0:0:0:0:
64,192,254890,1,8,0:0:0:0:
192,192,254890,128,2,254976:0:0:0:0:
448,192,254890,1,0,0:0:0:0:
64,192,255062,1,8,0:0:0:0:
320,192,255062,128,2,255147:0:0:0:0:
448,192,255062,1,0,0:0:0:0:
64,192,255233,1,8,0:0:0:0:
192,192,255233,128,2,255319:0:0:0:0:
448,192,255233,1,0,0:0:0:0:
192,192,255404,1,8,0:0:0:0:
320,192,255404,1,2,0:0:0:0:
448,192,255404,128,0,255490:0:0:0:0:
64,192,255576,128,2,255662:0:0:0:0:
192,192,255576,1,0,0:0:0:0:
320,192,255576,1,0,0:0:0:0:
64,192,255747,1,8,0:0:0:0:
192,192,255747,1,4,0:0:0:0:
320,192,255747,1,2,0:0:0:0:
448,192,255747,1,0,0:0:0:0:
192,192,255919,1,2,0:0:0:0:
448,192,255919,1,0,0:0:0:0:
64,192,256090,1,2,0:0:0:0:
320,192,256090,1,0,0:0:0:0:
64,192,256262,1,8,0:0:0:0:
192,192,256262,1,4,0:0:0:0:
320,192,256262,1,2,0:0:0:0:
448,192,256262,1,0,0:0:0:0:
320,192,256433,1,2,0:0:0:0:
448,192,256433,1,0,0:0:0:0:
64,192,256604,1,2,0:0:0:0:
192,192,256604,1,0,0:0:0:0:
64,192,256776,1,8,0:0:0:0:
192,192,256776,1,4,0:0:0:0:
320,192,256776,1,2,0:0:0:0:
448,192,256776,1,0,0:0:0:0:
64,192,256947,1,2,0:0:0:0:
448,192,256947,1,0,0:0:0:0:
192,192,257119,1,2,0:0:0:0:
320,192,257119,1,0,0:0:0:0:
64,192,257290,1,2,0:0:0:0:
192,192,257290,1,8,0:0:0:0:
320,192,257290,1,4,0:0:0:0:
448,192,257290,1,0,0:0:0:0:
64,192,257462,1,2,0:0:0:0:
192,192,257462,1,8,0:0:0:0:
320,192,257462,1,4,0:0:0:0:
448,192,257462,1,0,0:0:0:0:
64,192,257633,1,2,0:0:0:0:
320,192,257633,1,0,0:0:0:0:
64,192,257804,1,8,0:0:0:0:
192,192,257804,1,4,0:0:0:0:
320,192,257804,1,2,0:0:0:0:
448,192,257804,1,0,0:0:0:0:
64,192,257976,1,8,0:0:0:0:
448,192,257976,1,0,0:0:0:0:
64,192,258062,1,8,0:0:0:0:
320,192,258062,1,0,0:0:0:0:
192,192,258147,1,8,0:0:0:0:
448,192,258147,1,0,0:0:0:0:
64,192,258233,1,2,0:0:0:0:
320,192,258233,1,0,0:0:0:0:
320,192,258319,1,2,0:0:0:0:
448,192,258319,1,0,0:0:0:0:
64,192,258404,1,2,0:0:0:0:
192,192,258404,1,0,0:0:0:0:
64,192,258490,1,2,0:0:0:0:
320,192,258490,1,8,0:0:0:0:
448,192,258490,128,4,258833:0:0:0:0:
192,192,258662,1,2,0:0:0:0:
192,192,258833,1,2,0:0:0:0:
64,192,259004,1,8,0:0:0:0:
320,192,259004,1,4,0:0:0:0:
448,192,259004,128,2,259347:0:0:0:0:
192,192,259176,1,2,0:0:0:0:
192,192,259347,1,2,0:0:0:0:
64,192,259519,1,2,0:0:0:0:
320,192,259519,1,8,0:0:0:0:
448,192,259519,128,4,259862:0:0:0:0:
192,192,259690,1,2,0:0:0:0:
320,192,259862,1,2,0:0:0:0:
64,192,260033,1,8,0:0:0:0:
192,192,260033,128,4,260376:0:0:0:0:
448,192,260033,1,2,0:0:0:0:
320,192,260204,1,2,0:0:0:0:
320,192,260376,1,2,0:0:0:0:
64,192,260547,1,2,0:0:0:0:
192,192,260547,128,8,260719:0:0:0:0:
448,192,260547,1,4,0:0:0:0:
320,192,260719,1,2,0:0:0:0:
64,192,260890,1,8,0:0:0:0:
192,192,260890,1,4,0:0:0:0:
448,192,260890,128,2,261233:0:0:0:0:
320,192,261062,1,2,0:0:0:0:
64,192,261233,1,2,0:0:0:0:
192,192,261233,1,8,0:0:0:0:
320,192,261233,1,4,0:0:0:0:
192,192,261576,1,8,0:0:0:0:
448,192,261576,1,2,0:0:0:0:
192,192,261747,1,8,0:0:0:0:
448,192,261747,1,2,0:0:0:0:
192,192,261919,1,8,0:0:0:0:
448,192,261919,1,2,0:0:0:0:
192,192,262090,1,8,0:0:0:0:
448,192,262090,1,2,0:0:0:0:
192,192,262262,1,8,0:0:0:0:
448,192,262262,1,2,0:0:0:0:
192,192,262433,1,8,0:0:0:0:
448,192,262433,1,2,0:0:0:0:
64,192,262604,1,8,0:0:0:0:
320,192,262604,128,4,263633:0:0:0:0:
448,192,262604,1,2,0:0:0:0:
64,192,263633,1,2,0:0:0:0:
448,192,263633,1,0,0:0:0:0:
192,192,263976,1,4,0:0:0:0:
320,192,263976,1,2,0:0:0:0:
448,192,264147,1,2,0:0:0:0:
192,192,264233,1,2,0:0:0:0:
64,192,264319,1,8,0:0:0:0:
320,192,264319,1,0,0:0:0:0:
448,192,264319,1,0,0:0:0:0:
64,192,264490,1,8,0:0:0:0:
192,192,264490,1,0,0:0:0:0:
192,192,264833,1,8,0:0:0:0:
320,192,264833,1,0,0:0:0:0:
64,192,265176,1,8,0:0:0:0:
320,192,265176,1,4,0:0:0:0:
448,192,265176,1,0,0:0:0:0:
448,192,265604,1,0,0:0:0:0:
320,192,265647,1,0,0:0:0:0:
64,192,265690,1,0,0:0:0:0:
192,192,265733,1,0,0:0:0:0:
448,192,265776,1,0,0:0:0:0:
320,192,265819,1,0,0:0:0:0:
64,192,265862,1,0,0:0:0:0:
192,192,265904,1,0,0:0:0:0:
448,192,265947,1,0,0:0:0:0:
320,192,265990,1,0,0:0:0:0:
64,192,266033,1,2,0:0:0:0:
192,192,266033,1,0,0:0:0:0:
