osu file format v14

[General]
AudioFilename: audio.mp3
AudioLeadIn: 0
PreviewTime: 57625
Countdown: 0
SampleSet: Soft
StackLeniency: 0.7
Mode: 3
LetterboxInBreaks: 0
SpecialStyle: 0
WidescreenStoryboard: 0

[Editor]
Bookmarks: 6453,17425,28396,39368
DistanceSpacing: 2
BeatDivisor: 4
GridSize: 4
TimelineZoom: 2

[Metadata]
Title:Hakkensha wa Watashi (Anime Size)
TitleUnicode:発見者はワタシ (Anime Size)
Artist:Tapimiru
ArtistUnicode:たぴみる
Creator:Virtue-
Version:Grimoire of Zero
Source:ゼロから始める魔法の書
Tags:Zero kara Hajimeru Mahou no Sho Syo zeronosyo Opening tv size Amiichii -[ AmiShici ]- Ajeemaniz ExUsagi Arzenvald
BeatmapID:1280376
BeatmapSetID:606038

[Difficulty]
HPDrainRate:8.5
CircleSize:4
OverallDifficulty:8
ApproachRate:9.3
SliderMultiplier:1.8
SliderTickRate:1

[Events]
//Background and Video events
0,0,"goz bg.png",0,0
Video,0,"Zero kara Hajimeru Mahou no Sho - OP_Opening [HD].mp4"
//Break Periods
//Storyboard Layer 0 (Background)
//Storyboard Layer 1 (Fail)
//Storyboard Layer 2 (Pass)
//Storyboard Layer 3 (Foreground)
//Storyboard Sound Samples

[TimingPoints]
968,342.857142857143,4,2,1,40,1,0
58568,-100,4,2,1,40,0,1
80510,-100,4,2,1,40,0,0

[HitObjects]
64,192,625,128,0,967:0:0:0:0:
320,192,967,1,0,0:0:0:0:
448,192,967,1,8,0:0:0:0:
192,192,967,1,0,0:0:0:30:crash loud.wav
192,192,1139,1,0,0:0:0:0:
320,192,1139,1,0,0:0:0:0:
448,192,1139,1,8,0:0:0:0:
64,192,1653,1,0,0:0:0:0:
192,192,1653,1,0,0:0:0:0:
320,192,1653,1,8,0:0:0:0:
64,192,1825,1,0,0:0:0:0:
192,192,1825,1,0,0:0:0:0:
320,192,1825,1,8,0:0:0:0:
64,192,2339,1,0,0:0:0:0:
320,192,2339,1,8,0:0:0:0:
448,192,2339,1,0,0:0:0:0:
320,192,2510,1,8,0:0:0:0:
448,192,2510,1,0,0:0:0:0:
64,192,2510,1,0,0:0:0:0:
64,192,2853,1,0,0:0:0:0:
192,192,2853,1,0,0:0:0:30:crash loud.wav
448,192,2853,1,0,0:0:0:0:
320,192,2853,1,8,0:0:0:0:
64,192,3196,1,0,0:0:0:0:
448,192,3196,1,0,0:0:0:0:
320,192,3196,1,8,0:0:0:0:
64,192,3368,1,0,0:0:0:0:
320,192,3368,1,8,0:0:0:0:
448,192,3368,1,0,0:0:0:0:
64,192,3539,1,0,0:0:0:0:
320,192,3539,1,8,0:0:0:0:
448,192,3539,1,0,0:0:0:0:
64,192,3710,1,0,0:0:0:0:
192,192,3710,1,8,0:0:0:0:
448,192,3710,1,0,0:0:0:0:
64,192,3882,1,0,0:0:0:0:
192,192,3882,1,8,0:0:0:0:
448,192,3882,1,0,0:0:0:0:
64,192,4396,1,0,0:0:0:0:
192,192,4396,1,8,0:0:0:0:
320,192,4396,1,0,0:0:0:0:
64,192,4568,1,0,0:0:0:0:
192,192,4568,1,8,0:0:0:0:
320,192,4568,1,0,0:0:0:0:
192,192,5082,1,8,0:0:0:0:
320,192,5082,1,0,0:0:0:0:
448,192,5082,1,0,0:0:0:0:
192,192,5253,1,8,0:0:0:0:
320,192,5253,1,0,0:0:0:0:
448,192,5253,1,0,0:0:0:0:
64,192,5596,1,0,0:0:0:0:
320,192,5596,1,8,0:0:0:0:
448,192,5596,1,0,0:0:0:0:
192,192,5596,1,0,0:0:0:30:crash loud.wav
64,192,5939,1,0,0:0:0:0:
192,192,5939,1,0,0:0:0:30:LR_Drum Hit Clap Sn.wav
320,192,6025,1,0,0:0:0:30:LR_Drum Hit Clap Sn.wav
448,192,6025,1,0,0:0:0:0:
192,192,6110,1,0,0:0:0:30:LR_Drum Hit Clap Sn.wav
64,192,6110,1,0,0:0:0:0:
320,192,6196,1,0,0:0:0:30:LR_Drum Hit Clap Sn.wav
448,192,6196,1,0,0:0:0:0:
192,192,6282,1,0,0:0:0:30:LR_Drum Hit Clap Sn.wav
64,192,6282,1,0,0:0:0:0:
320,192,6368,1,0,0:0:0:30:LR_Drum Hit Clap Sn.wav
192,192,6453,1,2,0:0:0:0:
448,192,6453,128,0,6625:0:0:0:0:
64,192,6453,1,4,0:0:0:0:
320,192,6625,128,0,6796:0:0:0:0:
64,192,6625,1,2,0:0:0:0:
64,192,6796,128,0,6968:0:0:0:0:
192,192,6796,1,8,0:0:0:0:
448,192,6796,1,0,0:0:0:0:
448,192,6968,1,0,0:0:0:0:
320,192,7053,1,0,0:0:0:0:
64,192,7139,1,2,0:0:0:0:
192,192,7139,128,0,7310:0:0:0:0:
448,192,7310,128,0,7482:0:0:0:0:
320,192,7310,1,2,0:0:0:0:
64,192,7482,1,0,0:0:0:0:
320,192,7482,1,0,0:0:0:0:
192,192,7482,1,8,0:0:0:0:
64,192,7653,128,0,7996:0:0:0:0:
448,192,7653,1,2,0:0:0:0:
320,192,7825,1,0,0:0:0:0:
448,192,7996,128,0,8339:0:0:0:0:
192,192,7996,1,2,0:0:0:0:
192,192,8168,128,0,8510:0:0:0:0:
64,192,8168,1,0,0:0:0:0:
320,192,8168,1,8,0:0:0:0:
320,192,8339,128,0,8682:0:0:0:0:
64,192,8510,128,0,8853:0:0:0:0:
448,192,8510,1,2,0:0:0:0:
192,192,8682,1,2,0:0:0:0:
448,192,8682,1,0,0:0:0:0:
192,192,8853,1,8,0:0:0:0:
320,192,8853,1,0,0:0:0:0:
448,192,8853,1,0,0:0:0:0:
320,192,9025,128,0,9368:0:0:0:0:
192,192,9196,1,2,0:0:0:0:
448,192,9196,1,0,0:0:0:0:
64,192,9368,128,0,9539:0:0:0:0:
448,192,9539,128,0,9710:0:0:0:0:
192,192,9539,1,0,0:0:0:0:
320,192,9539,1,8,0:0:0:0:
192,192,9710,128,0,9882:0:0:0:0:
64,192,9882,1,2,0:0:0:0:
448,192,9882,1,0,0:0:0:0:
320,192,9968,1,0,0:0:0:0:
192,192,10053,1,2,0:0:0:0:
64,192,10053,128,0,10225:0:0:0:0:
320,192,10225,1,8,0:0:0:0:
448,192,10225,1,0,0:0:0:0:
192,192,10225,1,0,0:0:0:0:
64,192,10396,1,2,0:0:0:0:
448,192,10396,128,0,10910:0:0:0:0:
320,192,10396,1,4,0:0:0:0:
192,192,10739,1,2,0:0:0:0:
320,192,10739,128,0,11082:0:0:0:0:
192,192,10910,128,0,11253:0:0:0:0:
64,192,10910,1,8,0:0:0:0:
64,192,11082,128,0,11425:0:0:0:0:
448,192,11082,1,0,0:0:0:30:crash loud.wav
448,192,11253,1,0,0:0:0:0:
320,192,11339,1,0,0:0:0:0:
448,192,11425,128,0,11596:0:0:0:0:
192,192,11425,1,2,0:0:0:0:
64,192,11596,1,0,0:0:0:0:
192,192,11596,1,0,0:0:0:0:
320,192,11596,1,8,0:0:0:0:
64,192,11768,1,0,0:0:0:30:LR_Drum Hit Clap Sn.wav
448,192,11768,1,0,0:0:0:0:
192,192,11853,1,0,0:0:0:30:LR_Drum Hit Clap Sn.wav
64,192,11939,1,0,0:0:0:30:cymbal soft.wav
320,192,11939,1,2,0:0:0:0:
448,192,11939,128,0,12110:0:0:0:0:
192,192,12110,128,0,12282:0:0:0:0:
64,192,12282,128,0,12453:0:0:0:0:
320,192,12282,1,8,0:0:0:0:
448,192,12282,1,0,0:0:0:0:
320,192,12453,128,0,12625:0:0:0:0:
64,192,12625,1,0,0:0:0:0:
448,192,12625,1,2,0:0:0:0:
192,192,12710,1,0,0:0:0:0:
320,192,12796,1,2,0:0:0:0:
448,192,12796,128,0,12968:0:0:0:0:
64,192,12968,1,0,0:0:0:0:
192,192,12968,1,8,0:0:0:0:
320,192,12968,1,0,0:0:0:0:
448,192,13139,128,0,13482:0:0:0:0:
64,192,13139,1,2,0:0:0:0:
192,192,13310,1,0,0:0:0:0:
64,192,13482,128,0,13825:0:0:0:0:
320,192,13482,1,2,0:0:0:0:
320,192,13653,128,0,13996:0:0:0:0:
192,192,13653,1,0,0:0:0:0:
448,192,13653,1,8,0:0:0:0:
192,192,13825,128,0,14168:0:0:0:0:
448,192,13996,128,0,14339:0:0:0:0:
64,192,13996,1,2,0:0:0:0:
320,192,14168,1,0,0:0:0:0:
64,192,14168,1,2,0:0:0:0:
320,192,14339,1,8,0:0:0:0:
64,192,14339,1,0,0:0:0:0:
192,192,14339,1,0,0:0:0:0:
192,192,14510,128,0,14853:0:0:0:0:
448,192,14682,1,0,0:0:0:0:
64,192,14682,1,2,0:0:0:0:
448,192,14853,128,0,15025:0:0:0:0:
320,192,14853,1,2,0:0:0:0:
64,192,15025,128,0,15196:0:0:0:0:
320,192,15025,1,0,0:0:0:0:
192,192,15025,1,8,0:0:0:0:
320,192,15196,128,0,15368:0:0:0:0:
192,192,15196,1,2,0:0:0:0:
448,192,15368,1,0,0:0:0:0:
64,192,15368,1,8,0:0:0:0:
192,192,15453,1,0,0:0:0:0:
320,192,15539,1,2,0:0:0:0:
448,192,15539,128,0,15710:0:0:0:0:
64,192,15710,1,0,0:0:0:0:
320,192,15710,1,0,0:0:0:0:
192,192,15710,1,8,0:0:0:0:
448,192,15882,1,2,0:0:0:0:
64,192,15882,128,0,16396:0:0:0:0:
192,192,15882,1,4,0:0:0:0:
192,192,16225,128,0,16568:0:0:0:0:
320,192,16225,1,2,0:0:0:0:
320,192,16396,128,0,16739:0:0:0:0:
448,192,16396,1,8,0:0:0:0:
448,192,16568,128,0,16910:0:0:0:0:
64,192,16568,1,0,0:0:0:30:crash loud.wav
64,192,16739,1,0,0:0:0:0:
192,192,16825,1,0,0:0:0:0:
64,192,16910,128,0,17082:0:0:0:0:
320,192,16910,1,2,0:0:0:0:
448,192,17082,1,2,0:0:0:0:
192,192,17082,128,0,17425:0:0:0:0:
320,192,17425,1,2,0:0:0:0:
64,192,17425,1,0,0:0:0:30:crash loud.wav
448,192,17425,128,0,18796:0:0:0:0:
192,192,17768,1,0,0:0:0:30:kick soft.wav
64,192,17768,1,0,0:0:0:0:
64,192,17939,1,0,0:0:0:0:
320,192,18110,1,0,0:0:0:30:kick soft.wav
64,192,18110,1,0,0:0:0:0:
64,192,18282,1,0,0:0:0:0:
192,192,18453,1,0,0:0:0:30:kick soft.wav
64,192,18453,1,0,0:0:0:0:
64,192,18625,1,0,0:0:0:0:
320,192,18796,1,0,0:0:0:0:
64,192,18796,1,0,0:0:0:30:kick soft.wav
320,192,18968,1,0,0:0:0:0:
320,192,19139,1,0,0:0:0:0:
192,192,19139,1,0,0:0:0:30:kick soft.wav
320,192,19310,1,0,0:0:0:0:
320,192,19482,1,0,0:0:0:0:
64,192,19482,1,0,0:0:0:30:kick soft.wav
320,192,19653,1,0,0:0:0:0:
320,192,19825,1,0,0:0:0:0:
192,192,19825,1,0,0:0:0:30:kick soft.wav
320,192,19996,1,0,0:0:0:0:
320,192,20168,1,0,0:0:0:30:kick soft.wav
64,192,20168,1,0,0:0:0:0:
64,192,20339,1,0,0:0:0:0:
64,192,20510,1,0,0:0:0:0:
448,192,20510,1,0,0:0:0:30:kick soft.wav
64,192,20682,1,0,0:0:0:0:
64,192,20853,1,0,0:0:0:0:
192,192,20853,1,0,0:0:0:30:kick soft.wav
64,192,21025,1,0,0:0:0:0:
64,192,21196,1,0,0:0:0:0:
320,192,21196,1,0,0:0:0:30:kick soft.wav
64,192,21368,1,0,0:0:0:0:
448,192,21539,1,0,0:0:0:0:
64,192,21539,1,0,0:0:0:30:kick soft.wav
448,192,21710,1,0,0:0:0:0:
448,192,21882,1,0,0:0:0:0:
192,192,21882,1,0,0:0:0:30:kick soft.wav
448,192,22053,1,0,0:0:0:0:
448,192,22225,1,0,0:0:0:0:
64,192,22225,1,0,0:0:0:30:kick soft.wav
448,192,22396,1,0,0:0:0:0:
448,192,22568,1,0,0:0:0:0:
320,192,22568,1,0,0:0:0:30:kick soft.wav
448,192,22739,1,0,0:0:0:0:
448,192,22910,1,0,0:0:0:30:kick soft.wav
192,192,22910,1,0,0:0:0:0:
192,192,23082,1,0,0:0:0:0:
192,192,23253,1,0,0:0:0:0:
320,192,23253,1,0,0:0:0:30:kick soft.wav
192,192,23425,1,0,0:0:0:0:
192,192,23596,1,0,0:0:0:0:
448,192,23596,1,0,0:0:0:30:kick soft.wav
192,192,23768,1,0,0:0:0:0:
192,192,23939,1,0,0:0:0:0:
320,192,23939,1,0,0:0:0:30:kick soft.wav
192,192,24110,1,0,0:0:0:0:
192,192,24282,1,0,0:0:0:30:kick soft.wav
448,192,24282,1,0,0:0:0:0:
448,192,24453,1,0,0:0:0:0:
448,192,24625,1,0,0:0:0:0:
192,192,24625,1,0,0:0:0:30:kick soft.wav
448,192,24796,1,0,0:0:0:0:
64,192,24968,1,0,0:0:0:0:
448,192,24968,1,0,0:0:0:30:kick soft.wav
64,192,25139,1,0,0:0:0:0:
64,192,25310,1,0,0:0:0:0:
320,192,25310,1,0,0:0:0:30:kick soft.wav
64,192,25482,1,0,0:0:0:0:
64,192,25653,1,0,0:0:0:30:kick soft.wav
320,192,25653,1,0,0:0:0:0:
320,192,25825,1,0,0:0:0:0:
320,192,25996,1,0,0:0:0:0:
192,192,25996,1,0,0:0:0:30:kick soft.wav
320,192,26168,1,0,0:0:0:0:
64,192,26339,1,0,0:0:0:30:kick soft.wav
320,192,26339,1,0,0:0:0:30:cymbal soft.wav
320,192,26510,128,0,26682:0:0:0:0:
192,192,26682,1,8,0:0:0:0:
64,192,26682,1,0,0:0:0:0:
448,192,26682,1,0,0:0:0:0:
64,192,26853,5,2,0:0:0:0:
192,192,26853,1,4,0:0:0:0:
448,192,26853,128,0,27368:0:0:0:0:
64,192,27196,1,0,0:0:0:30:LR_Drum Hit Clap Sn.wav
192,192,27282,1,0,0:0:0:30:LR_Drum Hit Clap Sn.wav
64,192,27368,1,0,0:0:0:0:
320,192,27368,1,8,0:0:0:0:
64,192,27539,1,2,0:0:0:0:
192,192,27539,1,0,0:0:0:0:
448,192,27539,1,0,0:0:0:30:crash loud.wav
320,192,27753,1,0,0:0:0:0:
192,192,27796,1,0,0:0:0:0:
64,192,27839,1,0,0:0:0:0:
448,192,27882,1,0,0:0:0:0:
320,192,27925,1,0,0:0:0:0:
192,192,27968,1,0,0:0:0:0:
64,192,28010,1,0,0:0:0:0:
448,192,28053,1,0,0:0:0:0:
320,192,28053,1,0,0:0:0:30:LR_Drum Hit Clap Sn.wav
64,192,28139,1,0,0:0:0:0:
192,192,28139,1,0,0:0:0:30:LR_Drum Hit Clap Sn.wav
320,192,28225,1,0,0:0:0:30:LR_Drum Hit Clap Sn.wav
448,192,28225,1,0,0:0:0:0:
192,192,28310,1,0,0:0:0:30:LR_Drum Hit Clap Sn.wav
64,192,28396,1,2,0:0:0:0:
448,192,28396,128,0,29768:0:0:0:0:
320,192,28396,1,4,0:0:0:0:
192,192,28739,1,0,0:0:0:0:
320,192,28739,1,8,0:0:0:0:
64,192,28910,1,0,0:0:0:0:
192,192,29082,1,2,0:0:0:0:
320,192,29082,1,0,0:0:0:0:
64,192,29253,1,2,0:0:0:0:
320,192,29253,1,0,0:0:0:0:
64,192,29425,1,0,0:0:0:0:
192,192,29425,1,8,0:0:0:0:
192,192,29768,128,0,31139:0:0:0:0:
64,192,29768,1,2,0:0:0:0:
64,192,29939,1,0,0:0:0:0:
448,192,29939,1,2,0:0:0:0:
320,192,30110,1,8,0:0:0:0:
448,192,30110,1,0,0:0:0:0:
64,192,30282,1,0,0:0:0:0:
320,192,30368,1,0,0:0:0:30:LR_Drum Hit Clap Sn.wav
448,192,30453,1,0,0:0:0:0:
64,192,30453,1,2,0:0:0:0:
320,192,30625,1,2,0:0:0:0:
448,192,30625,1,0,0:0:0:0:
64,192,30796,1,8,0:0:0:0:
320,192,30796,1,0,0:0:0:0:
320,192,31139,1,2,0:0:0:0:
448,192,31139,128,0,32510:0:0:0:0:
64,192,31482,1,0,0:0:0:0:
192,192,31482,1,0,0:0:0:0:
320,192,31653,1,0,0:0:0:0:
64,192,31739,1,0,0:0:0:30:LR_Drum Hit Clap Sn.wav
192,192,31825,1,2,0:0:0:0:
320,192,31825,1,0,0:0:0:0:
64,192,31996,1,2,0:0:0:0:
192,192,31996,1,0,0:0:0:0:
64,192,32168,1,0,0:0:0:0:
320,192,32168,1,8,0:0:0:0:
320,192,32339,1,0,0:0:0:0:
64,192,32510,128,0,32853:0:0:0:0:
192,192,32510,1,2,0:0:0:0:
320,192,32682,1,2,0:0:0:0:
448,192,32682,1,0,0:0:0:0:
320,192,32853,1,0,0:0:0:0:
448,192,32853,1,8,0:0:0:0:
192,192,32853,1,0,0:0:0:0:
192,192,33025,128,0,33368:0:0:0:0:
64,192,33025,1,2,0:0:0:0:
320,192,33196,1,0,0:0:0:0:
64,192,33368,1,2,0:0:0:0:
448,192,33368,1,0,0:0:0:0:
448,192,33539,128,0,33882:0:0:0:0:
64,192,33539,1,0,0:0:0:0:
192,192,33539,1,8,0:0:0:0:
320,192,33710,1,0,0:0:0:0:
64,192,33882,128,0,34910:0:0:0:0:
192,192,33882,1,2,0:0:0:0:
320,192,33882,1,4,0:0:0:0:
192,192,34225,1,0,0:0:0:0:
448,192,34225,1,8,0:0:0:0:
320,192,34396,1,0,0:0:0:0:
192,192,34568,1,2,0:0:0:0:
448,192,34568,1,0,0:0:0:0:
320,192,34739,1,2,0:0:0:0:
448,192,34739,1,0,0:0:0:0:
192,192,34910,1,0,0:0:0:0:
320,192,34910,1,0,0:0:0:0:
448,192,34910,1,8,0:0:0:0:
192,192,35082,128,0,35425:0:0:0:0:
64,192,35082,1,2,0:0:0:0:
320,192,35082,1,4,0:0:0:0:
64,192,35425,1,0,0:0:0:0:
448,192,35425,1,2,0:0:0:0:
64,192,35596,1,8,0:0:0:0:
192,192,35596,1,0,0:0:0:0:
320,192,35596,1,0,0:0:0:0:
448,192,35768,128,0,36110:0:0:0:0:
192,192,35768,1,2,0:0:0:0:
320,192,35768,1,0,0:0:0:30:crash loud.wav
64,192,36110,1,0,0:0:0:0:
320,192,36110,1,2,0:0:0:0:
64,192,36282,1,0,0:0:0:0:
192,192,36282,1,8,0:0:0:0:
448,192,36282,1,0,0:0:0:0:
320,192,36453,1,0,0:0:0:0:
448,192,36625,1,0,0:0:0:0:
192,192,36625,1,2,0:0:0:0:
64,192,36625,128,0,36968:0:0:0:0:
320,192,36796,1,2,0:0:0:0:
448,192,36796,1,0,0:0:0:0:
320,192,36968,1,0,0:0:0:0:
448,192,36968,1,0,0:0:0:0:
192,192,36968,1,8,0:0:0:0:
64,192,37139,5,0,0:0:0:0:
448,192,37139,128,0,37482:0:0:0:0:
192,192,37139,1,0,0:0:0:30:cymbal soft.wav
192,192,37482,1,2,0:0:0:0:
320,192,37482,1,0,0:0:0:30:cymbal soft.wav
64,192,37653,1,0,0:0:0:0:
192,192,37653,1,0,0:0:0:0:
448,192,37653,1,8,0:0:0:0:
320,192,37825,1,2,0:0:0:0:
448,192,37825,1,4,0:0:0:0:
64,192,37825,128,0,38168:0:0:0:0:
192,192,38168,1,0,0:0:0:0:
320,192,38168,1,2,0:0:0:0:
64,192,38339,1,8,0:0:0:0:
192,192,38339,1,0,0:0:0:0:
448,192,38339,1,0,0:0:0:0:
448,192,38510,128,0,38682:0:0:0:0:
320,192,38510,1,0,0:0:0:30:LR_Drum Hit Clap Sn.wav
192,192,38596,1,0,0:0:0:30:LR_Drum Hit Clap Sn.wav
320,192,38682,1,0,0:0:0:30:LR_Drum Hit Clap Sn.wav
64,192,38682,128,0,38853:0:0:0:0:
192,192,38853,1,2,0:0:0:0:
448,192,38853,128,0,39025:0:0:0:0:
320,192,39025,128,0,39368:0:0:0:0:
64,192,39025,1,2,0:0:0:0:
64,192,39368,1,2,0:0:0:0:
192,192,39368,1,0,0:0:0:0:
448,192,39368,1,4,0:0:0:0:
192,192,39539,1,0,0:0:0:30:LR3_HiHat Normal.wav
448,192,39710,1,0,0:0:0:30:LR3_HiHat Normal.wav
64,192,39882,1,0,0:0:0:0:
320,192,39882,1,2,0:0:0:0:
64,192,40053,1,0,0:0:0:0:
192,192,40053,1,0,0:0:0:0:
448,192,40053,1,8,0:0:0:0:
320,192,40225,1,0,0:0:0:30:LR3_HiHat Normal.wav
64,192,40396,1,0,0:0:0:30:LR3_HiHat Normal.wav
192,192,40568,1,0,0:0:0:0:
448,192,40568,1,2,0:0:0:0:
64,192,40739,1,0,0:0:0:30:LR3_HiHat Normal.wav
320,192,40910,1,2,0:0:0:0:
448,192,40910,1,0,0:0:0:0:
192,192,41082,1,2,0:0:0:0:
64,192,41082,1,0,0:0:0:0:
320,192,41253,1,0,0:0:0:30:LR3_HiHat Normal.wav
448,192,41425,1,0,0:0:0:0:
64,192,41425,1,0,0:0:0:0:
192,192,41425,1,8,0:0:0:0:
320,192,41596,1,0,0:0:0:30:LR3_HiHat Normal.wav
192,192,41682,1,0,0:0:0:30:LR3_HiHat Normal.wav
64,192,41768,128,0,42110:0:0:0:0:
320,192,41939,1,0,0:0:0:30:LR3_HiHat Normal.wav
448,192,42110,1,2,0:0:0:0:
192,192,42110,1,0,0:0:0:0:
320,192,42282,1,0,0:0:0:30:LR3_HiHat Normal.wav
64,192,42453,1,0,0:0:0:30:LR3_HiHat Normal.wav
192,192,42625,1,2,0:0:0:0:
448,192,42625,1,0,0:0:0:0:
64,192,42796,1,0,0:0:0:0:
320,192,42796,1,8,0:0:0:0:
448,192,42796,1,0,0:0:0:0:
192,192,42968,1,0,0:0:0:30:LR3_HiHat Normal.wav
448,192,43139,1,0,0:0:0:30:LR3_HiHat Normal.wav
64,192,43310,1,0,0:0:0:0:
192,192,43310,1,0,0:0:0:0:
320,192,43482,1,0,0:0:0:30:LR3_HiHat Normal.wav
64,192,43653,1,0,0:0:0:0:
448,192,43653,1,2,0:0:0:0:
64,192,43825,1,2,0:0:0:0:
192,192,43825,1,0,0:0:0:30:cymbal soft.wav
448,192,43996,1,0,0:0:0:30:LR_Drum Hit Clap Sn.wav
320,192,44082,1,0,0:0:0:30:LR_Drum Hit Clap Sn.wav
192,192,44168,1,0,0:0:0:0:
64,192,44168,1,8,0:0:0:0:
448,192,44168,1,0,0:0:0:0:
64,192,44339,1,0,0:0:0:0:
320,192,44339,1,2,0:0:0:0:
192,192,44510,1,4,0:0:0:0:
320,192,44510,1,8,0:0:0:0:
448,192,44510,128,0,44853:0:0:0:0:
64,192,44510,1,0,0:0:0:0:
64,192,44853,128,0,45539:0:0:0:0:
192,192,44853,1,2,0:0:0:0:
320,192,44853,1,0,0:0:0:30:crash loud.wav
192,192,45025,1,2,0:0:0:0:
448,192,45025,1,0,0:0:0:0:
320,192,45196,1,8,0:0:0:0:
448,192,45196,1,0,0:0:0:0:
192,192,45368,1,0,0:0:0:0:
448,192,45453,1,0,0:0:0:0:
320,192,45539,128,0,46225:0:0:0:0:
192,192,45539,1,2,0:0:0:0:
64,192,45710,1,2,0:0:0:0:
448,192,45710,1,0,0:0:0:0:
192,192,45882,1,0,0:0:0:0:
448,192,45882,1,8,0:0:0:0:
64,192,46053,1,0,0:0:0:0:
192,192,46139,1,0,0:0:0:0:
64,192,46225,128,0,46739:0:0:0:0:
448,192,46225,1,2,0:0:0:0:
192,192,46396,1,0,0:0:0:0:
320,192,46396,1,2,0:0:0:0:
192,192,46568,1,8,0:0:0:0:
448,192,46568,1,0,0:0:0:0:
448,192,46739,128,0,47253:0:0:0:0:
320,192,46739,1,4,0:0:0:0:
192,192,46739,1,2,0:0:0:0:
64,192,47082,1,8,0:0:0:0:
192,192,47082,1,0,0:0:0:0:
320,192,47082,1,0,0:0:0:0:
64,192,47253,1,8,0:0:0:0:
192,192,47253,1,0,0:0:0:0:
320,192,47253,1,0,0:0:0:0:
320,192,47425,1,2,0:0:0:0:
448,192,47425,1,0,0:0:0:0:
192,192,47510,1,2,0:0:0:0:
64,192,47596,1,8,0:0:0:0:
320,192,47596,1,4,0:0:0:0:
448,192,47596,1,0,0:0:0:0:
192,192,47768,1,0,0:0:0:0:
64,192,47939,1,0,0:0:0:0:
448,192,47939,1,0,0:0:0:0:
192,192,47939,1,8,0:0:0:0:
320,192,48110,1,0,0:0:0:0:
64,192,48282,1,0,0:0:0:0:
320,192,48282,1,8,0:0:0:0:
448,192,48282,1,0,0:0:0:0:
192,192,48453,1,2,0:0:0:0:
448,192,48453,1,0,0:0:0:0:
64,192,48625,1,0,0:0:0:0:
192,192,48625,1,0,0:0:0:0:
320,192,48625,1,8,0:0:0:0:
64,192,48796,1,2,0:0:0:0:
448,192,48796,1,0,0:0:0:0:
192,192,48968,1,8,0:0:0:0:
320,192,48968,1,0,0:0:0:0:
448,192,48968,1,0,0:0:0:0:
64,192,49139,1,0,0:0:0:0:
64,192,49310,1,0,0:0:0:0:
320,192,49310,1,8,0:0:0:0:
448,192,49310,1,0,0:0:0:0:
192,192,49482,1,0,0:0:0:0:
64,192,49653,1,0,0:0:0:0:
192,192,49653,1,8,0:0:0:0:
448,192,49653,1,0,0:0:0:0:
64,192,49825,1,0,0:0:0:0:
320,192,49825,1,2,0:0:0:0:
192,192,49996,1,8,0:0:0:0:
320,192,49996,1,0,0:0:0:0:
448,192,49996,1,0,0:0:0:0:
64,192,50168,1,0,0:0:0:0:
448,192,50168,1,2,0:0:0:0:
64,192,50339,1,0,0:0:0:0:
192,192,50339,1,4,0:0:0:0:
320,192,50339,1,8,0:0:0:0:
448,192,50510,1,0,0:0:0:0:
192,192,50682,1,8,0:0:0:0:
320,192,50682,1,0,0:0:0:0:
448,192,50682,1,0,0:0:0:0:
64,192,50853,1,0,0:0:0:0:
64,192,51025,1,0,0:0:0:0:
192,192,51025,1,8,0:0:0:0:
320,192,51025,1,0,0:0:0:0:
320,192,51196,1,2,0:0:0:0:
448,192,51196,1,0,0:0:0:0:
64,192,51368,1,8,0:0:0:0:
192,192,51368,1,0,0:0:0:0:
448,192,51368,1,0,0:0:0:0:
192,192,51539,1,2,0:0:0:0:
320,192,51539,1,0,0:0:0:0:
64,192,51710,1,0,0:0:0:0:
320,192,51710,1,8,0:0:0:0:
448,192,51710,1,0,0:0:0:0:
192,192,51882,1,0,0:0:0:0:
64,192,52053,1,0,0:0:0:0:
192,192,52053,1,8,0:0:0:0:
448,192,52053,1,0,0:0:0:0:
320,192,52225,1,0,0:0:0:0:
64,192,52396,1,0,0:0:0:0:
320,192,52396,1,8,0:0:0:0:
448,192,52396,1,0,0:0:0:0:
192,192,52568,1,2,0:0:0:0:
448,192,52568,1,0,0:0:0:0:
64,192,52739,1,0,0:0:0:0:
192,192,52739,1,4,0:0:0:0:
320,192,52739,1,8,0:0:0:0:
64,192,52910,1,2,0:0:0:0:
448,192,52910,1,0,0:0:0:0:
192,192,53082,1,8,0:0:0:0:
320,192,53082,1,0,0:0:0:30:crash loud.wav
448,192,53082,1,0,0:0:0:0:
64,192,53425,1,8,0:0:0:0:
192,192,53425,1,0,0:0:0:0:
448,192,53425,1,0,0:0:0:0:
64,192,53596,1,8,0:0:0:0:
192,192,53596,1,0,0:0:0:0:
448,192,53596,1,0,0:0:0:0:
64,192,53768,1,8,0:0:0:0:
192,192,53768,1,0,0:0:0:0:
448,192,53768,1,0,0:0:0:0:
64,192,53939,1,8,0:0:0:0:
192,192,53939,1,0,0:0:0:0:
448,192,53939,1,0,0:0:0:0:
64,192,54110,1,8,0:0:0:0:
192,192,54110,1,0,0:0:0:0:
448,192,54110,1,0,0:0:0:0:
192,192,54282,1,0,0:0:0:0:
448,192,54282,1,0,0:0:0:0:
64,192,54282,1,8,0:0:0:0:
448,192,54453,1,0,0:0:0:0:
320,192,54453,1,0,0:0:0:0:
64,192,54453,1,8,0:0:0:0:
448,192,54625,1,0,0:0:0:0:
320,192,54625,1,0,0:0:0:0:
64,192,54625,1,8,0:0:0:0:
448,192,54796,1,0,0:0:0:0:
320,192,54796,1,0,0:0:0:0:
64,192,54796,1,8,0:0:0:0:
448,192,54968,1,0,0:0:0:0:
320,192,54968,1,0,0:0:0:0:
64,192,54968,1,8,0:0:0:0:
448,192,55139,1,0,0:0:0:0:
320,192,55139,1,0,0:0:0:0:
64,192,55139,1,8,0:0:0:0:
192,192,55225,1,2,0:0:0:0:
448,192,55310,1,2,0:0:0:0:
64,192,55310,1,0,0:0:0:0:
320,192,55396,1,2,0:0:0:0:
192,192,55482,1,8,0:0:0:0:
448,192,55482,1,0,0:0:0:0:
64,192,55482,1,4,0:0:0:0:
192,192,55653,1,2,0:0:0:0:
320,192,55653,1,0,0:0:0:0:
64,192,55825,1,0,0:0:0:0:
320,192,55825,1,8,0:0:0:0:
448,192,55825,1,0,0:0:0:30:crash loud.wav
192,192,55996,1,2,0:0:0:0:
64,192,55996,1,0,0:0:0:0:
320,192,56168,1,2,0:0:0:0:
448,192,56168,1,0,0:0:0:0:
64,192,56339,1,8,0:0:0:0:
192,192,56339,1,4,0:0:0:0:
320,192,56339,1,0,0:0:0:0:
64,192,56510,1,2,0:0:0:0:
448,192,56510,1,0,0:0:0:0:
192,192,56682,1,2,0:0:0:0:
320,192,56682,1,0,0:0:0:0:
64,192,56853,1,0,0:0:0:0:
320,192,56853,1,8,0:0:0:0:
448,192,56853,1,0,0:0:0:30:crash loud.wav
192,192,57025,1,2,0:0:0:0:
448,192,57025,1,0,0:0:0:0:
64,192,57196,1,2,0:0:0:0:
320,192,57196,1,0,0:0:0:0:
64,192,57368,1,0,0:0:0:30:cymbal soft.wav
192,192,57368,1,8,0:0:0:0:
448,192,57368,1,0,0:0:0:0:
64,192,57539,1,0,0:0:0:30:cymbal soft.wav
192,192,57539,1,8,0:0:0:0:
448,192,57539,1,0,0:0:0:0:
320,192,57710,1,0,0:0:0:30:LR_Drum Hit Clap Sn.wav
448,192,57796,1,0,0:0:0:30:LR_Drum Hit Clap Sn.wav
64,192,57882,1,0,0:0:0:0:
192,192,57925,1,0,0:0:0:0:
320,192,57968,1,0,0:0:0:0:
448,192,58010,1,0,0:0:0:0:
64,192,58053,1,0,0:0:0:0:
192,192,58096,1,0,0:0:0:0:
320,192,58139,1,0,0:0:0:0:
448,192,58182,1,0,0:0:0:0:
64,192,58225,1,0,0:0:0:0:
192,192,58225,1,0,0:0:0:30:LR_Drum Hit Clap Sn.wav
320,192,58310,1,0,0:0:0:30:LR_Drum Hit Clap Sn.wav
448,192,58310,1,0,0:0:0:0:
64,192,58396,1,0,0:0:0:0:
192,192,58396,1,0,0:0:0:30:LR_Drum Hit Clap Sn.wav
320,192,58482,1,0,0:0:0:30:LR_Drum Hit Clap Sn.wav
192,192,58568,1,2,0:0:0:0:
448,192,58568,128,0,61310:0:0:0:0:
64,192,58568,128,0,58739:0:0:0:30:cymbal soft.wav
320,192,58739,1,0,0:0:0:30:cymbal soft.wav
64,192,58910,1,8,0:0:0:0:
192,192,58910,1,0,0:0:0:0:
320,192,59082,128,0,59253:0:0:0:30:cymbal soft.wav
64,192,59253,128,0,59596:0:0:0:0:
192,192,59253,1,2,0:0:0:0:
320,192,59425,1,0,0:0:0:30:cymbal soft.wav
320,192,59596,1,8,0:0:0:0:
192,192,59596,1,0,0:0:0:0:
192,192,59768,128,0,59939:0:0:0:30:cymbal soft.wav
320,192,59939,128,0,60282:0:0:0:0:
64,192,59939,1,2,0:0:0:0:
192,192,60110,1,0,0:0:0:30:cymbal soft.wav
64,192,60282,1,0,0:0:0:0:
192,192,60282,1,8,0:0:0:0:
320,192,60453,128,0,60625:0:0:0:30:cymbal soft.wav
64,192,60625,1,0,0:0:0:30:cymbal soft.wav
192,192,60625,128,2,60968:0:0:0:0:
320,192,60710,1,0,0:0:0:30:cymbal soft.wav
64,192,60796,1,0,0:0:0:30:cymbal soft.wav
64,192,60968,1,0,0:0:0:0:
320,192,60968,1,8,0:0:0:0:
320,192,61139,128,0,61310:0:0:0:30:cymbal soft.wav
192,192,61310,128,0,62682:0:0:0:0:
64,192,61310,128,2,61482:0:0:0:0:
448,192,61482,1,0,0:0:0:30:cymbal soft.wav
64,192,61653,128,0,61825:0:0:0:0:
320,192,61653,1,8,0:0:0:0:
448,192,61825,128,0,61996:0:0:0:30:cymbal soft.wav
64,192,61996,1,2,0:0:0:0:
320,192,61996,1,0,0:0:0:0:
320,192,62168,128,0,62339:0:0:0:30:cymbal soft.wav
64,192,62339,1,8,0:0:0:0:
64,192,62510,128,0,62682:0:0:0:30:cymbal soft.wav
448,192,62682,128,0,63368:0:0:0:0:
320,192,62682,1,2,0:0:0:0:
320,192,62853,1,0,0:0:0:30:cymbal soft.wav
192,192,63025,1,0,0:0:0:0:
64,192,63025,1,8,0:0:0:0:
192,192,63196,128,0,63368:0:0:0:30:cymbal soft.wav
64,192,63368,128,2,63710:0:0:0:0:
320,192,63368,128,0,64053:0:0:0:0:
192,192,63453,1,0,0:0:0:30:LR_Drum Hit Clap Sn.wav
448,192,63539,1,0,0:0:0:30:cymbal soft.wav
448,192,63710,128,0,64053:0:0:0:0:
192,192,63710,1,0,0:0:0:30:LR_Drum Hit Clap Sn.wav
64,192,63882,1,0,0:0:0:30:cymbal soft.wav
64,192,64053,128,2,65425:0:0:0:0:
192,192,64053,128,4,64396:0:0:0:0:
448,192,64225,1,0,0:0:0:30:cymbal soft.wav
320,192,64396,1,8,0:0:0:0:
448,192,64396,1,0,0:0:0:0:
320,192,64568,128,0,64739:0:0:0:30:cymbal soft.wav
192,192,64739,128,0,65082:0:0:0:0:
448,192,64739,1,2,0:0:0:0:
320,192,64910,1,0,0:0:0:30:cymbal soft.wav
320,192,65082,1,0,0:0:0:0:
448,192,65082,1,8,0:0:0:0:
192,192,65253,128,0,65425:0:0:0:30:cymbal soft.wav
448,192,65425,128,0,66796:0:0:0:0:
320,192,65425,128,2,65768:0:0:0:0:
64,192,65596,1,0,0:0:0:30:cymbal soft.wav
64,192,65768,1,0,0:0:0:0:
192,192,65768,1,8,0:0:0:0:
320,192,65939,128,0,66110:0:0:0:30:cymbal soft.wav
64,192,66110,128,2,66453:0:0:0:0:
192,192,66110,1,0,0:0:0:30:cymbal soft.wav
320,192,66196,1,0,0:0:0:30:cymbal soft.wav
192,192,66282,1,0,0:0:0:30:cymbal soft.wav
192,192,66453,1,0,0:0:0:0:
320,192,66453,1,8,0:0:0:0:
64,192,66625,128,0,66796:0:0:0:30:cymbal soft.wav
192,192,66796,128,2,66968:0:0:0:0:
320,192,66796,128,0,68168:0:0:0:0:
448,192,66968,1,0,0:0:0:30:cymbal soft.wav
64,192,67139,1,8,0:0:0:0:
192,192,67139,128,0,67310:0:0:0:0:
448,192,67310,128,0,67482:0:0:0:30:cymbal soft.wav
64,192,67482,1,0,0:0:0:0:
192,192,67482,1,2,0:0:0:0:
64,192,67653,128,0,67996:0:0:0:30:cymbal soft.wav
448,192,67825,1,8,0:0:0:0:
192,192,67825,1,0,0:0:0:0:
192,192,67996,128,0,68168:0:0:0:30:cymbal soft.wav
448,192,68168,1,0,0:0:0:0:
64,192,68168,1,2,0:0:0:0:
64,192,68339,1,8,0:0:0:0:
192,192,68339,1,4,0:0:0:0:
448,192,68339,1,0,0:0:0:0:
64,192,68510,1,8,0:0:0:0:
192,192,68510,1,4,0:0:0:0:
448,192,68510,1,0,0:0:0:0:
320,192,68682,1,0,0:0:0:0:
64,192,68768,1,0,0:0:0:30:LR_Drum Hit Clap Sn.wav
192,192,68768,1,0,0:0:0:0:
320,192,68853,1,0,0:0:0:30:cymbal soft.wav
448,192,68853,1,2,0:0:0:0:
64,192,69025,1,0,0:0:0:0:
192,192,69025,1,0,0:0:0:30:LR_Drum Hit Clap Sn.wav
320,192,69110,1,0,0:0:0:30:LR_Drum Hit Clap Sn.wav
448,192,69110,1,0,0:0:0:0:
64,192,69196,1,0,0:0:0:0:
192,192,69196,1,0,0:0:0:30:LR_Drum Hit Clap Sn.wav
320,192,69282,1,0,0:0:0:30:LR_Drum Hit Clap Sn.wav
448,192,69282,1,0,0:0:0:0:
64,192,69368,1,0,0:0:0:0:
192,192,69368,1,0,0:0:0:30:LR_Drum Hit Clap Sn.wav
320,192,69453,1,0,0:0:0:30:LR_Drum Hit Clap Sn.wav
64,192,69539,1,2,0:0:0:0:
192,192,69539,1,4,0:0:0:0:
448,192,69539,128,0,70910:0:0:0:0:
320,192,69710,1,0,0:0:0:30:cymbal soft.wav
64,192,69882,1,8,0:0:0:0:
320,192,69882,1,0,0:0:0:0:
192,192,70053,128,0,70225:0:0:0:30:cymbal soft.wav
64,192,70225,1,0,0:0:0:0:
320,192,70225,1,2,0:0:0:0:
64,192,70396,128,0,70568:0:0:0:30:cymbal soft.wav
192,192,70568,1,8,0:0:0:0:
320,192,70568,1,0,0:0:0:0:
320,192,70739,128,0,70910:0:0:0:30:cymbal soft.wav
64,192,70910,128,0,71596:0:0:0:0:
192,192,70910,1,2,0:0:0:0:
320,192,71082,1,0,0:0:0:30:cymbal soft.wav
192,192,71253,128,0,71939:0:0:0:0:
448,192,71253,1,8,0:0:0:0:
320,192,71425,1,0,0:0:0:30:cymbal soft.wav
320,192,71596,128,2,72282:0:0:0:0:
448,192,71596,1,0,0:0:0:30:cymbal soft.wav
64,192,71682,1,0,0:0:0:30:cymbal soft.wav
448,192,71768,1,0,0:0:0:30:cymbal soft.wav
448,192,71939,128,0,72282:0:0:0:0:
64,192,71939,1,8,0:0:0:0:
192,192,72110,1,0,0:0:0:30:cymbal soft.wav
64,192,72282,128,0,73653:0:0:0:0:
192,192,72282,1,2,0:0:0:0:
448,192,72453,1,0,0:0:0:30:cymbal soft.wav
192,192,72625,1,0,0:0:0:0:
320,192,72625,1,8,0:0:0:0:
448,192,72796,128,0,72968:0:0:0:30:cymbal soft.wav
192,192,72968,1,0,0:0:0:0:
320,192,72968,1,2,0:0:0:0:
192,192,73139,128,0,73310:0:0:0:30:cymbal soft.wav
448,192,73310,1,8,0:0:0:0:
320,192,73310,1,0,0:0:0:0:
320,192,73482,128,0,73653:0:0:0:30:cymbal soft.wav
448,192,73653,128,0,74339:0:0:0:0:
192,192,73653,1,2,0:0:0:0:
192,192,73825,1,0,0:0:0:30:cymbal soft.wav
320,192,73996,128,0,74682:0:0:0:0:
64,192,73996,1,8,0:0:0:0:
192,192,74168,1,0,0:0:0:30:cymbal soft.wav
192,192,74339,128,0,75025:0:0:0:0:
64,192,74339,1,2,0:0:0:0:
448,192,74425,1,0,0:0:0:30:LR_Drum Hit Clap Sn.wav
64,192,74510,1,0,0:0:0:30:cymbal soft.wav
64,192,74682,128,4,75025:0:0:0:0:
448,192,74682,1,8,0:0:0:0:
320,192,75025,1,2,0:0:0:0:
448,192,75025,1,0,0:0:0:30:crash loud.wav
448,192,75368,1,8,0:0:0:0:
320,192,75368,1,0,0:0:0:0:
64,192,75368,1,0,0:0:0:0:
448,192,75539,1,8,0:0:0:0:
320,192,75539,1,0,0:0:0:0:
64,192,75539,1,0,0:0:0:0:
448,192,75710,1,8,0:0:0:0:
320,192,75710,1,0,0:0:0:0:
64,192,75710,1,0,0:0:0:0:
448,192,75882,1,8,0:0:0:0:
320,192,75882,1,0,0:0:0:0:
64,192,75882,1,0,0:0:0:0:
448,192,76053,1,8,0:0:0:0:
320,192,76053,1,0,0:0:0:0:
64,192,76053,1,0,0:0:0:0:
448,192,76225,1,8,0:0:0:0:
320,192,76225,1,0,0:0:0:0:
64,192,76225,1,0,0:0:0:0:
64,192,76396,1,0,0:0:0:0:
192,192,76396,1,0,0:0:0:0:
448,192,76396,1,8,0:0:0:0:
64,192,76568,1,0,0:0:0:0:
192,192,76568,1,0,0:0:0:0:
448,192,76568,1,8,0:0:0:0:
64,192,76739,1,0,0:0:0:0:
192,192,76739,1,0,0:0:0:0:
448,192,76739,1,8,0:0:0:0:
64,192,76910,1,0,0:0:0:0:
192,192,76910,1,0,0:0:0:0:
448,192,76910,1,8,0:0:0:0:
64,192,77082,1,0,0:0:0:0:
192,192,77082,1,0,0:0:0:0:
448,192,77082,1,8,0:0:0:0:
320,192,77168,1,2,0:0:0:0:
64,192,77253,1,2,0:0:0:0:
448,192,77253,1,0,0:0:0:0:
192,192,77339,1,2,0:0:0:0:
320,192,77425,1,8,0:0:0:0:
448,192,77425,1,4,0:0:0:0:
64,192,77425,1,0,0:0:0:0:
192,192,77596,1,2,0:0:0:0:
320,192,77596,1,0,0:0:0:0:
64,192,77768,1,8,0:0:0:0:
192,192,77768,1,4,0:0:0:0:
448,192,77768,1,0,0:0:0:0:
320,192,77939,1,2,0:0:0:0:
448,192,77939,1,0,0:0:0:0:
64,192,78110,1,0,0:0:0:0:
192,192,78110,1,2,0:0:0:0:
64,192,78282,1,8,0:0:0:0:
320,192,78282,1,0,0:0:0:30:crash loud.wav
448,192,78282,1,0,0:0:0:0:
192,192,78453,1,2,0:0:0:0:
320,192,78453,1,0,0:0:0:0:
64,192,78625,1,2,0:0:0:0:
448,192,78625,1,0,0:0:0:0:
192,192,78796,1,0,0:0:0:0:
320,192,78796,1,4,0:0:0:0:
448,192,78796,1,8,0:0:0:0:
64,192,78968,1,2,0:0:0:0:
320,192,78968,1,0,0:0:0:0:
192,192,79139,1,2,0:0:0:0:
448,192,79139,1,0,0:0:0:0:
64,192,79310,1,8,0:0:0:0:
320,192,79310,1,4,0:0:0:0:
448,192,79310,1,0,0:0:0:0:
64,192,79482,1,8,0:0:0:0:
448,192,79482,1,0,0:0:0:0:
320,192,79482,1,4,0:0:0:0:
192,192,79653,1,2,0:0:0:0:
320,192,79653,1,0,0:0:0:0:
64,192,79825,1,8,0:0:0:0:
192,192,79825,1,0,0:0:0:0:
448,192,79825,1,0,0:0:0:30:cymbal soft.wav
64,192,79996,1,0,0:0:0:0:
192,192,79996,1,0,0:0:0:30:LR_Drum Hit Clap Sn.wav
448,192,80082,1,0,0:0:0:0:
320,192,80082,1,0,0:0:0:30:LR_Drum Hit Clap Sn.wav
64,192,80168,1,0,0:0:0:0:
192,192,80168,1,0,0:0:0:30:LR_Drum Hit Clap Sn.wav
320,192,80253,1,0,0:0:0:30:LR_Drum Hit Clap Sn.wav
448,192,80253,1,0,0:0:0:0:
192,192,80339,1,2,0:0:0:0:
64,192,80339,1,0,0:0:0:0:
320,192,80425,1,2,0:0:0:0:
64,192,80510,1,4,0:0:0:0:
192,192,80510,1,8,0:0:0:0:
448,192,80510,1,0,0:0:0:0:
64,192,80682,1,0,0:0:0:0:
320,192,80682,1,2,0:0:0:0:
192,192,80853,1,2,0:0:0:0:
448,192,80853,1,0,0:0:0:0:
64,192,81025,1,4,0:0:0:0:
320,192,81025,1,8,0:0:0:0:
448,192,81025,1,0,0:0:0:0:
192,192,81196,1,2,0:0:0:0:
320,192,81196,1,0,0:0:0:0:
64,192,81368,1,0,0:0:0:0:
448,192,81368,1,2,0:0:0:0:
192,192,81539,1,4,0:0:0:0:
320,192,81539,1,0,0:0:0:0:
64,192,81539,1,8,0:0:0:0:
192,192,81710,1,0,0:0:0:0:
448,192,81710,1,2,0:0:0:0:
64,192,81882,1,0,0:0:0:0:
320,192,81882,1,2,0:0:0:0:
64,192,82053,1,0,0:0:0:0:
192,192,82053,1,2,0:0:0:0:
448,192,82053,1,4,0:0:0:0:
192,192,82225,1,2,0:0:0:0:
320,192,82225,1,0,0:0:0:0:
64,192,82396,1,2,0:0:0:0:
448,192,82396,1,0,0:0:0:0:
192,192,82568,1,8,0:0:0:0:
320,192,82568,1,4,0:0:0:0:
448,192,82568,1,0,0:0:0:0:
64,192,82739,1,2,0:0:0:0:
320,192,82739,1,0,0:0:0:0:
64,192,82910,1,8,0:0:0:0:
192,192,82910,1,4,0:0:0:0:
448,192,82910,1,0,0:0:0:0:
448,192,83082,1,0,0:0:0:0:
320,192,83082,1,2,0:0:0:0:
64,192,83253,1,4,0:0:0:0:
320,192,83253,1,0,0:0:0:0:
192,192,83253,1,8,0:0:0:0:
448,192,83596,1,0,0:0:0:0:
320,192,83596,1,8,0:0:0:0:
64,192,83596,1,0,0:0:0:0:
448,192,83768,1,0,0:0:0:0:
320,192,83768,1,8,0:0:0:0:
64,192,83768,1,0,0:0:0:0:
448,192,83939,1,0,0:0:0:0:
320,192,83939,1,8,0:0:0:0:
64,192,83939,1,0,0:0:0:0:
448,192,84110,1,0,0:0:0:0:
320,192,84110,1,8,0:0:0:0:
64,192,84110,1,0,0:0:0:0:
448,192,84282,1,0,0:0:0:0:
320,192,84282,1,8,0:0:0:0:
64,192,84282,1,0,0:0:0:0:
448,192,84453,1,0,0:0:0:0:
320,192,84453,1,8,0:0:0:0:
64,192,84453,1,0,0:0:0:0:
448,192,84625,1,0,0:0:0:30:crash loud.wav
192,192,84625,128,2,85653:0:0:0:0:
64,192,84625,128,0,85653:0:0:0:0:
448,192,85653,128,0,85996:0:0:0:0:
320,192,85653,1,2,0:0:0:0:
64,192,85996,128,0,86339:0:0:0:0:
192,192,85996,128,0,86168:0:0:0:0:
320,192,85996,1,0,0:0:0:30:crash loud.wav
448,192,86168,1,0,0:0:0:30:LR_Drum Hit Clap Sn.wav
192,192,86253,1,0,0:0:0:30:LR_Drum Hit Clap Sn.wav
320,192,86339,1,8,0:0:0:0:
448,192,86339,1,0,0:0:0:0:
64,192,86510,128,0,86682:0:0:0:30:cymbal soft.wav
448,192,86510,128,0,86682:0:0:0:0:
192,192,86510,1,2,0:0:0:0:
448,192,86853,128,0,87025:0:0:0:0:
192,192,86853,128,0,87025:0:0:0:30:cymbal soft.wav
320,192,86853,1,2,0:0:0:0:
448,192,87196,128,0,87539:0:0:0:0:
320,192,87196,128,0,87539:0:0:0:30:crash loud.wav
64,192,87196,1,2,0:0:0:0:
64,192,87582,1,0,0:0:0:0:
192,192,87625,1,0,0:0:0:0:
320,192,87668,1,0,0:0:0:0:
448,192,87710,1,0,0:0:0:0:
64,192,87753,1,0,0:0:0:0:
192,192,87796,1,0,0:0:0:0:
320,192,87839,1,0,0:0:0:0:
448,192,87882,1,0,0:0:0:0:
64,192,87882,1,2,0:0:0:0:
320,192,87968,1,0,0:0:0:0:
192,192,87968,1,2,0:0:0:0:
448,192,88053,1,0,0:0:0:0:
64,192,88053,1,2,0:0:0:0:
