osu file format v14

[General]
AudioFilename: audio.mp3
AudioLeadIn: 0
PreviewTime: 55739
Countdown: 0
SampleSet: Soft
StackLeniency: 0.7
Mode: 0
LetterboxInBreaks: 0
WidescreenStoryboard: 0

[Editor]
Bookmarks: 6453,11939,17425,28396,39368,44853,47596,58568,64053,69539,75025,80510
DistanceSpacing: 1
BeatDivisor: 2
GridSize: 4
TimelineZoom: 1.4

[Metadata]
Title:Hakkensha wa Watashi (Anime Size)
TitleUnicode:発見者はワタシ (Anime Size)
Artist:Tapimiru
ArtistUnicode:Tapimiru
Creator:SLM
Version:Easy
Source:ゼロから始める魔法の書
Tags:Grimoire of Zero kara Hajimeru Mahou no Sho Milck
BeatmapID:1291325
BeatmapSetID:609020

[Difficulty]
HPDrainRate:3
CircleSize:2.7
OverallDifficulty:2
ApproachRate:3
SliderMultiplier:0.849999999999999
SliderTickRate:1

[Events]
//Background and Video events
0,0,"no.jpg",0,0
//Break Periods
//Storyboard Layer 0 (Background)
//Storyboard Layer 1 (Fail)
//Storyboard Layer 2 (Pass)
//Storyboard Layer 3 (Foreground)
//Storyboard Sound Samples

[TimingPoints]
968,342.857142857143,4,2,1,70,1,0
968,-100,4,2,1,70,0,0
7996,-100,4,2,5,70,0,0
8168,-100,4,2,1,70,0,0
10739,-100,4,2,5,70,0,0
10910,-100,4,2,1,70,0,0
13482,-100,4,2,5,70,0,0
13653,-100,4,2,1,70,0,0
16225,-100,4,2,5,70,0,0
16396,-100,4,2,1,70,0,0
17425,-100,4,2,1,50,0,0
17768,-100,4,2,5,50,0,0
18453,-100,4,2,1,50,0,0
19139,-100,4,2,5,50,0,0
19825,-100,4,2,1,50,0,0
20510,-100,4,2,5,50,0,0
21196,-100,4,2,1,50,0,0
21882,-100,4,2,5,50,0,0
22568,-100,4,2,1,50,0,0
23253,-100,4,2,5,50,0,0
23939,-100,4,2,1,50,0,0
25996,-100,4,2,5,50,0,0
26339,-100,4,2,1,50,0,0
26853,-100,4,2,1,60,0,0
30110,-100,4,2,6,50,0,0
30453,-100,4,2,5,60,0,0
30796,-100,4,2,1,60,0,0
32853,-100,4,2,6,50,0,0
33025,-100,4,2,1,60,0,0
36968,-100,4,2,6,50,0,0
37139,-100,4,2,1,60,0,0
39368,-100,4,2,1,50,0,0
40910,-100,4,2,5,50,0,0
41082,-100,4,2,1,50,0,0
43653,-100,4,2,5,50,0,0
43825,-100,4,2,1,50,0,0
44853,-100,4,2,1,60,0,0
45539,-100,4,2,5,60,0,0
45882,-100,4,2,1,60,0,0
46568,-100,4,2,6,50,0,0
46739,-100,4,2,1,60,0,0
47253,-100,4,2,1,63,0,0
48968,-100,4,2,1,66,0,0
50339,-100,4,2,1,69,0,0
51710,-100,4,2,1,72,0,0
53082,-100,4,2,1,75,0,0
55825,-100,4,2,1,65,0,0
56168,-100,4,2,5,65,0,0
56339,-100,4,2,1,65,0,0
56510,-100,4,2,5,65,0,0
56853,-100,4,2,1,65,0,0
58568,-90.9090909090909,4,2,1,75,0,1
69882,-90.9090909090909,4,2,6,65,0,1
70225,-90.9090909090909,4,2,5,75,0,1
70568,-90.9090909090909,4,2,1,75,0,1
72625,-90.9090909090909,4,2,6,65,0,1
72968,-90.9090909090909,4,2,5,75,0,1
73310,-90.9090909090909,4,2,1,75,0,1
75710,-90.9090909090909,4,2,6,65,0,1
76053,-90.9090909090909,4,2,1,75,0,1
76739,-90.9090909090909,4,2,6,65,0,1
77425,-90.9090909090909,4,2,1,75,0,1
78110,-90.9090909090909,4,2,5,75,0,1
78282,-90.9090909090909,4,2,1,75,0,1
78453,-90.9090909090909,4,2,5,75,0,1
78796,-90.9090909090909,4,2,1,75,0,1
80853,-90.9090909090909,4,2,5,75,0,1
81025,-90.9090909090909,4,2,1,75,0,1
81196,-90.9090909090909,4,2,5,75,0,1
81539,-90.9090909090909,4,2,1,75,0,1
84625,-100,4,2,1,60,0,0

[Colours]
Combo1 : 120,245,45
Combo2 : 80,240,240
Combo3 : 175,145,250
Combo4 : 250,150,200

[HitObjects]
68,289,967,6,0,P|158:298|240:290,1,170,12|8,0:0|0:0,0:0:0:0:
382,203,2339,2,0,P|397:142|368:86,2,127.5,8|8|8,0:0|0:0|0:0,0:0:0:0:
367,287,3710,6,0,P|302:234|312:154,1,170,8|8,0:0|0:0,0:0:0:0:
192,34,5082,2,0,P|126:22|61:36,2,127.5,8|8|8,0:0|0:0|0:0,0:0:0:0:
263,80,6453,5,6,0:0:0:0:
335,35,6796,2,0,P|376:25|417:34,1,84.9999999999999,8|2,0:0|0:0,0:0:0:0:
475,148,7653,2,0,B|480:177|480:177|470:213|469:247|469:247|475:274,1,127.5,2|8,0:0|0:0,0:0:0:0:
443,352,8510,2,0,P|401:355|359:353,1,84.9999999999999,2|8,0:0|0:0,0:0:0:0:
294,297,9196,5,2,0:0:0:0:
346,230,9539,2,0,B|355:188|355:188|346:147,1,84.9999999999999,8|2,0:0|0:0,0:0:0:0:
270,45,10396,2,0,B|244:54|244:54|172:49|172:49|146:57,1,127.5,6|8,0:0|0:0,0:0:0:0:
178,135,11253,2,0,L|262:140,1,84.9999999999999,2|8,0:0|0:0,0:0:0:0:
347,147,11939,5,6,0:0:0:0:
401,212,12282,2,0,P|411:253|402:294,1,84.9999999999999,8|2,0:0|0:0,0:0:0:0:
280,333,13139,2,0,B|251:338|251:338|215:328|181:327|181:327|154:333,1,127.5,2|8,0:0|0:0,0:0:0:0:
76,301,13996,2,0,P|73:259|75:217,1,84.9999999999999,2|8,0:0|0:0,0:0:0:0:
57,132,14682,6,0,B|48:90|48:90|57:49,2,84.9999999999999,2|8|8,0:0|0:0|0:0,0:0:0:0:
160,206,15882,2,0,B|186:211|186:211|257:198|257:198|284:204,1,127.5,6|8,0:0|0:0,0:0:0:0:
257,284,16739,2,0,L|173:298,1,84.9999999999999,2|8,0:0|2:3,0:0:0:0:
108,352,17425,6,0,B|75:312|96:263|96:263|51:212|80:144|123:130,1,255,6|2,0:0|0:0,0:0:0:0:
159,206,18796,2,0,B|196:215|229:197|229:197|267:225|319:229|363:198|376:143,1,255,2|2,0:0|0:0,0:0:0:0:
391,64,20168,6,0,B|437:71|470:120|456:168|456:168|467:189|467:189|447:234|462:279,1,255,2|2,0:0|0:0,0:0:0:0:
491,359,21539,2,0,B|431:377|393:331|393:331|323:359|249:346,1,255,2|2,0:0|0:0,0:0:0:0:
166,362,22910,6,0,B|123:368|89:348|89:348|65:258|83:167,1,255,2|2,0:0|0:0,0:0:0:0:
112,94,24282,2,0,B|134:81|134:81|158:74|193:75,1,84.9999999999999,2|2,0:0|0:0,0:0:0:0:
253,133,24968,2,0,P|294:139|336:134,1,84.9999999999999,2|2,0:0|0:0,0:0:0:0:
403,184,25653,6,0,P|416:103|353:51,1,170,2|6,0:0|0:0,0:0:0:0:
253,133,26853,2,0,B|231:175|231:175|174:191|109:178,1,170,6|6,0:0|0:0,0:0:0:0:
54,63,28053,1,8,0:0:0:0:
126,19,28396,6,0,P|169:14|211:17,1,84.9999999999999,6|8,0:0|0:0,0:0:0:0:
286,57,29082,1,2,0:0:0:0:
360,17,29425,1,8,0:0:0:0:
421,75,29768,2,0,P|427:171|413:211,2,127.5,2|0|8,0:0|0:0|0:0,0:0:0:0:
360,17,31139,5,2,0:0:0:0:
283,54,31482,2,0,P|240:57|198:53,1,84.9999999999999,8|2,0:0|0:0,0:0:0:0:
121,89,32168,1,8,0:0:0:0:
73,159,32510,2,0,P|76:201|62:303,2,127.5,2|2|8,0:0|0:0|0:0,0:0:0:0:
40,81,33882,6,0,P|81:74|121:89,1,84.9999999999999,6|8,0:0|0:0,0:0:0:0:
185,144,34568,1,2,0:0:0:0:
311,121,35082,2,0,L|430:135,2,84.9999999999999,6|2|6,0:0|0:0|0:0,0:0:0:0:
200,60,36282,1,8,0:0:0:0:
158,134,36625,6,0,P|154:197|162:268,2,127.5,6|2|8,0:0|0:0|0:0,0:0:0:0:
200,60,37996,1,2,0:0:0:0:
270,107,38339,2,0,P|316:115|376:114,1,84.9999999999999,8|8,0:0|2:3,0:0:0:0:
448,257,39368,6,0,B|382:256|382:256|336:270|290:303,1,170,6|8,0:0|0:0,0:0:0:0:
173,354,40568,2,0,P|192:322|209:217,1,127.5,2|2,0:0|0:0,0:0:0:0:
209,149,41425,1,8,0:0:0:0:
39,133,42110,6,0,B|83:123|83:123|112:97|141:76|141:76|190:65,1,170,2|8,0:0|0:0,0:0:0:0:
217,190,43310,2,0,B|262:202|262:202|361:189,1,127.5,2|2,0:0|0:0,0:0:0:0:
421,222,44168,1,8,0:0:0:0:
474,156,44510,1,12,0:0:0:0:
440,77,44853,5,6,0:0:0:0:
355,89,45196,2,0,P|277:113|194:61,1,170,8|8,0:0|0:0,0:0:0:0:
146,136,46225,2,0,L|146:9,2,127.5,2|6|8,0:0|0:0|0:0,0:0:0:0:
125,218,47596,6,0,B|84:231|84:231|41:233,2,84.9999999999999,12|8|8,0:0|0:0|0:0,0:0:0:0:
191,271,48625,1,8,0:0:0:0:
274,248,48968,2,0,P|318:239|365:244,1,84.9999999999999,8|8,0:0|0:0,0:0:0:0:
435,208,49653,2,0,P|444:164|439:117,1,84.9999999999999,8|8,0:0|0:0,0:0:0:0:
392,53,50339,6,0,P|431:39|473:45,2,84.9999999999999,12|8|8,0:0|0:0|0:0,0:0:0:0:
315,92,51368,1,8,0:0:0:0:
245,43,51710,2,0,L|135:69,1,84.9999999999999,8|8,0:0|0:0,0:0:0:0:
131,141,52396,2,0,B|135:183|135:183|131:225,1,84.9999999999999,8|12,0:0|0:0,0:0:0:0:
190,286,53082,5,12,0:0:0:0:
264,247,53425,2,0,P|307:243|348:251,1,84.9999999999999,8|8,0:0|0:0,0:0:0:0:
422,294,54110,1,8,0:0:0:0:
452,214,54453,2,0,P|460:172|459:129,2,84.9999999999999,8|8|8,0:0|0:0|0:0,0:0:0:0:
422,294,55482,1,12,0:0:0:0:
348,251,55825,6,0,P|286:239|223:244,2,127.5,12|12|12,0:0|0:0|0:0,0:0:0:0:
441,164,57368,1,12,0:0:0:0:
343,82,57882,2,0,P|284:92|238:82,1,84.9999999999999,8|8,2:3|0:0,0:0:0:0:
192,37,58568,6,0,P|175:81|184:126,1,93.5000028533935,6|8,0:0|0:0,0:0:0:0:
251,174,59253,2,0,P|298:177|344:185,1,93.5000028533935,2|8,0:0|0:0,0:0:0:0:
420,148,59939,1,2,0:0:0:0:
485,199,60282,2,0,P|492:246|487:292,1,93.5000028533935,8|2,0:0|0:0,0:0:0:0:
444,365,60968,1,8,0:0:0:0:
368,327,61310,6,0,P|322:319|274:328,1,93.5000028533935,2|8,0:0|0:0,0:0:0:0:
198,293,61996,2,0,L|90:331,2,93.5000028533935,2|8|2,0:0|0:0|0:0,0:0:0:0:
265,241,63025,1,8,0:0:0:0:
326,183,63368,2,0,P|334:141|326:88,1,93.5000028533935,2|8,0:0|0:0,0:0:0:0:
371,21,64053,6,0,P|326:8|282:21,1,93.5000028533935,6|8,0:0|0:0,0:0:0:0:
245,97,64739,2,0,B|209:104|209:104|136:92,1,93.5000028533935,2|8,0:0|0:0,0:0:0:0:
82,48,65425,1,2,0:0:0:0:
48,125,65768,2,0,P|37:188|43:245,2,93.5000028533935,8|2|8,0:0|0:0|0:0,0:0:0:0:
82,48,66796,5,2,0:0:0:0:
152,94,67139,2,0,P|198:100|244:96,1,93.5000028533935,8|2,0:0|0:0,0:0:0:0:
318,54,67825,1,8,0:0:0:0:
394,90,68168,2,0,P|407:138|392:199,1,93.5000028533935,2|12,0:0|0:0,0:0:0:0:
333,232,68853,1,2,0:0:0:0:
256,196,69196,1,8,0:0:0:0:
183,237,69539,6,0,P|89:237|28:212,2,140.25000428009,6|0|8,0:0|0:0|0:0,0:0:0:0:
256,196,70910,1,2,0:0:0:0:
333,232,71253,1,8,0:0:0:0:
407,194,71596,2,0,P|417:148|408:99,1,93.5000028533935,2|8,0:0|0:0,0:0:0:0:
350,41,72282,6,0,B|312:22|312:22|261:13|202:34,2,140.25000428009,2|0|8,0:0|0:0|0:0,0:0:0:0:
409,103,73653,2,0,P|414:150|406:204,1,93.5000028533935,2|8,0:0|0:0,0:0:0:0:
352,258,74339,1,2,0:0:0:0:
275,222,74682,1,12,0:0:0:0:
218,284,75025,5,6,0:0:0:0:
134,276,75368,2,0,P|68:204|103:124,1,187.000005706787,10|8,0:0|0:0,0:0:0:0:
155,193,76396,2,0,B|205:223|255:183|255:183|282:190|282:190|346:136|426:172,1,280.500008560181,10|12,0:0|0:0,0:0:0:0:
476,229,77768,6,0,P|476:298|461:367,2,140.25000428009,12|12|12,0:0|0:0|0:0,0:0:0:0:
417,168,79139,2,0,P|392:128|389:82,1,93.5000028533935,2|12,0:0|0:0,0:0:0:0:
347,9,79825,1,12,0:0:0:0:
277,56,80168,1,8,0:0:0:0:
194,40,80510,6,0,P|124:36|61:65,2,140.25000428009,12|12|12,0:0|0:0|0:0,0:0:0:0:
277,56,81882,2,0,B|331:61|331:61|368:51,1,93.5000028533935,2|2,0:0|0:0,0:0:0:0:
446,17,82568,1,12,0:0:0:0:
478,94,82910,1,12,0:0:0:0:
446,171,83253,5,14,0:0:0:0:
388,232,83596,2,0,B|398:281|398:281|411:322,2,93.5000028533935,8|8|8,0:0|0:0|0:0,0:0:0:0:
363,150,84625,1,6,0:0:0:0:
118,134,85996,5,6,0:0:0:0:
229,73,86510,2,0,P|242:114|242:156,1,84.9999999999999,2|8,0:0|0:0,0:0:0:0:
170,203,87196,2,0,P|262:239|327:164,1,212.5,12|2,0:0|0:0,0:0:0:0:
