osu file format v14

[General]
AudioFilename: audio.mp3
AudioLeadIn: 0
PreviewTime: 56800
Countdown: 0
SampleSet: Soft
StackLeniency: 0.7
Mode: 0
LetterboxInBreaks: 0
WidescreenStoryboard: 1

[Editor]
Bookmarks: 399,5885,16857,27828,38800,47028,58000,68971,79942,87485
DistanceSpacing: 0.6
BeatDivisor: 4
GridSize: 32
TimelineZoom: 2.699999

[Metadata]
Title:Hakkensha wa Watashi (Anime Size)
TitleUnicode:発見者はワタシ (Anime Size)
Artist:Tapimiru
ArtistUnicode:たぴみる
Creator:[ L u k a s ]
Version:Karen's Expert
Source:ゼロから始める魔法の書
Tags:Corinn Karen Kagamine_Ren Lukas DavidEd Kencho Akitoshi Anime OP Zero Kara Hajimeru Mahou No Sho Grimoire of Zero
BeatmapID:1311904
BeatmapSetID:602803

[Difficulty]
HPDrainRate:6
CircleSize:4.5
OverallDifficulty:9
ApproachRate:9
SliderMultiplier:1.8
SliderTickRate:1

[Events]
//Background and Video events
Video,-920,"ReZero Sequel tbh....avi"
0,0,"817345.jpg",0,0
//Break Periods
//Storyboard Layer 0 (Background)
//Storyboard Layer 1 (Fail)
//Storyboard Layer 2 (Pass)
//Storyboard Layer 3 (Foreground)
//Storyboard Sound Samples

[TimingPoints]
400,342.857142857143,4,2,1,60,1,0
5885,-100,4,2,1,70,0,0
16857,-133.333333333333,4,2,2,50,0,0
26114,-133.333333333333,4,2,1,50,0,0
27142,-133.333333333333,4,2,2,50,0,0
27485,-133.333333333333,4,2,1,50,0,0
27828,-100,4,2,1,60,0,0
38800,-133.333333333333,4,2,2,50,0,0
39485,-133.333333333333,4,2,1,50,0,0
39571,-133.333333333333,4,2,2,50,0,0
40857,-133.333333333333,4,2,1,50,0,0
40942,-133.333333333333,4,2,2,50,0,0
42228,-133.333333333333,4,2,1,50,0,0
42314,-133.333333333333,4,2,2,50,0,0
43428,-133.333333333333,4,2,1,50,0,0
44285,-105.263157894737,4,2,1,60,0,0
47028,-86.9565217391306,4,2,1,70,0,0
52514,-86.9565217391306,4,2,1,80,0,0
57314,-86.9565217391306,4,2,2,80,0,0
57657,-86.9565217391306,4,2,1,80,0,0
58000,-83.3333333333333,4,2,1,80,0,1
63400,-83.3333333333333,4,2,1,5,0,1
63485,-83.3333333333333,4,2,1,80,0,1
74371,-83.3333333333333,4,2,1,5,0,1
74457,-83.3333333333333,4,2,1,80,0,1
79942,-100,4,2,1,80,0,0
84057,-100,4,2,1,50,0,0
85428,-100,4,2,1,75,0,0

[Colours]
Combo1 : 0,255,0
Combo2 : 0,128,255
Combo3 : 0,128,0

[HitObjects]
304,127,400,5,12,0:0:0:0:
448,53,571,1,8,0:0:0:0:
304,127,1085,1,8,0:0:0:0:
447,203,1257,1,8,0:0:0:0:
304,127,1771,1,8,0:0:0:0:
498,130,1942,1,8,0:0:0:0:
461,46,2285,6,0,B|441:234,1,180,12|8,0:0|0:0,0:0:0:0:
304,127,2800,1,8,0:0:0:0:
498,130,2971,1,8,0:0:0:0:
375,65,3142,5,8,0:0:0:0:
441,224,3314,1,8,0:0:0:0:
375,65,3828,1,8,0:0:0:0:
307,222,4000,1,8,0:0:0:0:
375,65,4514,1,8,0:0:0:0:
369,282,4685,1,8,0:0:0:0:
305,342,5028,6,0,L|118:337,1,180,12|8,0:0|0:0,0:0:0:0:
208,366,5457,1,8,0:0:0:0:
207,348,5542,1,8,0:0:0:0:
205,329,5628,1,8,0:0:0:0:
204,310,5714,1,8,0:0:0:0:
202,291,5800,1,8,0:0:0:0:
201,274,5885,5,6,0:0:0:0:
199,174,6057,1,0,0:0:0:0:
100,180,6228,1,10,0:0:0:0:
105,279,6400,2,0,L|108:333,2,45,0|0|2,0:0|0:0|0:0,0:0:0:0:
196,78,6742,1,0,0:0:0:0:
196,78,6914,1,10,0:0:0:0:
373,184,7085,6,0,B|239:185|239:185|291:166,1,180
455,126,7600,2,0,P|470:166|465:222,1,90,10|0,0:0|0:0,0:0:0:0:
416,379,7942,1,2,0:0:0:0:
416,379,8114,1,0,0:0:0:0:
496,294,8285,2,0,L|400:285,1,90,10|0,0:0|0:0,0:0:0:0:
180,308,8628,6,0,P|257:287|344:360,1,180,2|10,0:0|0:0,0:0:0:0:
335,339,9142,1,0,0:0:0:0:
256,209,9314,2,0,L|253:159,2,45,2|0|0,0:0|0:0|0:0,0:0:0:0:
402,279,9657,1,10,0:0:0:0:
402,279,9742,1,0,0:0:0:0:
402,279,9828,6,0,B|511:259|511:259|461:313,1,180,4|0,0:0|0:0,0:0:0:0:
366,184,10342,1,8,0:0:0:0:
475,66,10514,1,4,0:0:0:0:
366,184,10685,2,0,L|294:165,2,45,0|0|0,0:0|0:0|0:0,0:0:0:0:
404,367,11028,1,10,0:0:0:0:
393,102,11200,1,10,0:0:0:0:
393,102,11285,1,10,0:0:0:0:
393,102,11371,5,6,0:0:0:0:
288,106,11542,1,0,0:0:0:0:
284,8,11714,1,10,0:0:0:0:
384,3,11885,1,0,0:0:0:0:
207,164,12057,2,0,L|162:170,2,45,2|0|0,0:0|0:0|0:0,0:0:0:0:
315,299,12400,1,10,0:0:0:0:
400,273,12571,6,0,L|214:261,1,180,0|0,0:0|0:0,0:0:0:0:
59,373,13085,2,0,P|67:324|46:284,1,90,10|0,0:0|0:0,0:0:0:0:
193,103,13428,1,2,0:0:0:0:
193,103,13600,1,0,0:0:0:0:
256,178,13771,2,0,L|362:172,1,90,10|0,0:0|0:0,0:0:0:0:
241,20,14114,6,0,P|151:18|100:95,1,180,0|10,0:0|0:0,0:0:0:0:
190,250,14628,1,0,0:0:0:0:
149,340,14800,2,0,L|92:338,2,45,10|0|0,0:0|0:0|0:0,0:0:0:0:
162,168,15142,1,10,0:0:0:0:
162,168,15228,1,0,0:0:0:0:
162,168,15314,6,0,B|39:158|39:158|68:165|97:199,1,180,4|0,0:0|0:0,0:0:0:0:
104,338,15828,1,8,0:0:0:0:
107,74,16000,1,4,0:0:0:0:
38,272,16171,5,0,0:0:0:0:
134,253,16342,1,0,0:0:0:0:
189,299,16514,1,4,0:3:0:0:
197,333,16685,1,8,0:3:0:0:
275,372,16857,5,14,0:0:0:0:
414,225,17200,1,10,0:0:0:0:
414,225,17371,1,0,0:0:0:0:
414,225,17542,2,0,L|322:215,1,67.5000025749208,10|0,0:0|0:0,0:0:0:0:
294,155,17885,2,0,L|202:145,1,67.5000025749208,10|0,0:0|0:0,0:0:0:0:
151,221,18228,5,10,0:0:0:0:
186,294,18400,1,0,0:0:0:0:
162,371,18571,1,10,0:0:0:0:
82,383,18742,1,0,0:0:0:0:
20,265,18914,5,2,0:0:0:0:
20,265,19257,1,10,0:0:0:0:
135,135,19600,6,0,L|283:127,1,135.000005149842,10|10,0:0|0:0,0:0:0:0:
331,181,20114,1,0,0:0:0:0:
331,181,20285,2,0,P|323:210|334:262,1,67.5000025749208,2|0,0:0|0:0,0:0:0:0:
243,251,20628,2,0,P|250:280|286:319,1,67.5000025749208,10|0,0:0|0:0,0:0:0:0:
391,354,20971,5,10,0:0:0:0:
471,342,21142,1,0,0:0:0:0:
391,354,21314,1,10,0:0:0:0:
471,342,21485,1,0,0:0:0:0:
415,227,21657,5,2,0:0:0:0:
415,227,22000,1,10,0:0:0:0:
445,38,22342,6,0,P|384:29|319:84,1,135.000005149842,10|10,0:0|0:0,0:0:0:0:
326,150,22857,1,0,0:0:0:0:
326,150,23028,2,0,L|251:140,1,67.5000025749208,10|0,0:0|0:0,0:0:0:0:
221,68,23371,2,0,L|144:77,1,67.5000025749208,10|0,0:0|0:0,0:0:0:0:
26,55,23714,5,2,0:0:0:0:
81,113,23885,1,0,0:0:0:0:
21,168,24057,1,10,0:0:0:0:
76,226,24228,1,0,0:0:0:0:
188,180,24400,5,2,0:0:0:0:
188,180,24742,1,10,0:0:0:0:
159,372,25085,6,0,P|86:357|27:388,1,135.000005149842,10|10,0:0|0:0,0:0:0:0:
133,262,25600,1,0,0:0:0:0:
133,262,25771,2,0,P|206:277|264:245,1,135.000005149842,10|8,0:0|0:0,0:0:0:0:
387,221,26285,6,0,B|349:216|318:190|318:190|340:216|343:247,1,135.000005149842,4|0,0:0|0:0,0:0:0:0:
309,327,26714,1,0,0:0:0:0:
309,327,26800,2,0,L|311:373,1,33.7500012874604,8|0,0:0|0:0,0:0:0:0:
189,342,26971,2,0,L|187:308,1,33.7500012874604,4|0,0:0|0:0,0:0:0:0:
238,172,27142,6,0,L|241:144,6,16.8750006437302,2|2|2|2|2|2|2,0:0|0:0|0:0|0:0|0:0|0:0|0:0,0:0:0:0:
165,226,27485,1,8,0:0:0:0:
126,242,27571,1,8,0:0:0:0:
88,229,27657,1,8,0:0:0:0:
62,198,27742,1,8,0:0:0:0:
62,157,27828,5,6,0:0:0:0:
196,25,28171,1,10,0:0:0:0:
274,69,28342,1,0,0:0:0:0:
354,28,28514,2,0,P|393:12|448:15,1,90,2|0,0:0|0:0,0:0:0:0:
442,187,28857,2,0,P|397:188|355:171,1,90,10|0,0:0|0:0,0:0:0:0:
408,100,29200,5,2,0:0:0:0:
408,100,29371,1,0,0:0:0:0:
410,274,29542,1,10,0:0:0:0:
275,170,29714,1,0,0:0:0:0:
275,170,29800,1,0,0:0:0:0:
275,170,29885,2,0,P|289:210|288:267,1,90,2|0,0:0|0:0,0:0:0:0:
168,360,30228,2,0,P|211:343|265:351,1,90,10|0,0:0|0:0,0:0:0:0:
387,246,30571,6,0,L|196:232,1,180,2|10,0:0|0:0,0:0:0:0:
81,173,31085,1,0,0:0:0:0:
81,173,31171,1,0,0:0:0:0:
81,173,31257,2,0,P|61:127|70:82,1,90,2|0,0:0|0:0,0:0:0:0:
173,27,31600,1,10,0:0:0:0:
243,128,31771,6,0,L|145:118,1,90,0|2,0:0|0:0,0:0:0:0:
322,75,32114,1,0,0:0:0:0:
173,27,32285,1,10,0:0:0:0:
218,221,32457,2,0,L|311:210,1,90,0|2,0:0|0:0,0:0:0:0:
497,156,32800,1,0,0:0:0:0:
411,41,32971,2,0,P|401:97|409:136,1,90,10|0,0:0|0:0,0:0:0:0:
486,287,33314,6,0,B|388:253|402:339|287:286,1,180,6|8,0:0|0:0,0:0:0:0:
238,133,33828,2,0,P|259:173|260:228,1,90,0|2,0:0|0:0,0:0:0:0:
243,364,34171,1,0,0:0:0:0:
351,214,34342,1,10,0:0:0:0:
174,279,34514,6,0,B|118:274|118:274|55:298|55:298|-17:289,1,180,4|0,0:0|0:0,0:0:0:0:
131,368,35028,1,8,0:0:0:0:
79,122,35200,2,0,B|32:83|32:83|45:221,1,180,4|0,0:0|0:0,0:0:0:0:
206,193,35714,1,10,0:0:0:0:
173,109,35885,1,0,0:0:0:0:
173,109,35971,1,0,0:0:0:0:
173,109,36057,6,0,L|176:20,1,90,4|0,0:0|0:0,0:0:0:0:
126,239,36400,1,8,0:0:0:0:
56,38,36571,1,6,0:0:0:0:
56,38,36914,1,2,0:0:0:0:
49,200,37085,1,8,0:0:0:0:
173,109,37257,6,0,L|373:102,1,180,4|0,0:0|0:0,0:0:0:0:
462,206,37771,1,10,0:0:0:0:
422,292,37942,1,8,0:0:0:0:
410,278,38028,1,8,0:0:0:0:
395,267,38114,5,8,0:0:0:0:
307,248,38285,1,8,0:3:0:0:
239,274,38457,1,4,0:3:0:0:
226,307,38628,1,4,0:3:0:0:
312,358,38800,6,0,L|319:213,1,135.000005149842,6|2,0:0|0:0,0:0:0:0:
279,144,39314,1,8,0:0:0:0:
279,144,39485,2,0,P|217:140|172:192,1,135.000005149842,8|2,0:0|0:0,0:0:0:0:
195,276,40000,1,8,0:0:0:0:
195,276,40342,5,8,0:0:0:0:
229,357,40514,2,0,L|136:353,1,67.5000025749208,10|0,0:0|0:0,0:0:0:0:
92,231,40857,2,0,L|83:92,1,135.000005149842,8|2,0:0|0:0,0:0:0:0:
180,25,41371,1,0,0:0:0:0:
180,25,41542,6,0,P|231:31|273:98,1,135.000005149842,10|2,0:0|0:0,0:0:0:0:
246,181,42057,1,8,0:0:0:0:
314,281,42228,2,0,L|462:269,1,135.000005149842,8|2,0:0|0:0,0:0:0:0:
470,172,42742,6,0,L|335:161,1,135.000005149842,8|8,0:0|0:0,0:0:0:0:
189,110,43257,1,10,0:0:0:0:
252,6,43428,1,0,0:0:0:0:
255,19,43514,1,0,0:0:0:0:
263,29,43600,5,0,0:0:0:0:
339,72,43771,1,0,0:0:0:0:
411,57,43942,1,0,0:0:0:0:
438,26,44114,1,0,0:0:0:0:
353,148,44285,6,0,L|258:142,1,85.4999977169037,4|0,0:0|0:0,0:0:0:0:
106,222,44628,1,8,0:0:0:0:
154,302,44800,1,0,0:0:0:0:
154,302,44885,1,0,0:0:0:0:
154,302,44971,1,0,0:0:0:0:
247,225,45142,1,0,0:0:0:0:
193,99,45314,1,8,0:0:0:0:
105,131,45485,1,0,0:0:0:0:
105,131,45571,1,0,0:0:0:0:
105,131,45657,6,0,P|103:78|97:43,1,85.4999977169037,0|0,0:0|0:0,0:0:0:0:
257,25,46000,1,8,0:0:0:0:
343,172,46171,2,0,P|324:246|354:336,1,170.999995433807,4|8,0:0|0:0,0:0:0:0:
239,186,46685,1,8,0:0:0:0:
261,365,46857,1,8,0:0:0:0:
261,365,46942,1,8,0:0:0:0:
261,365,47028,6,0,L|143:351,1,103.500001974106,4|0,0:0|0:0,0:0:0:0:
409,257,47371,2,0,L|291:243,1,103.500001974106,8|0,0:0|0:0,0:0:0:0:
275,382,47714,6,0,L|157:368,1,103.500001974106,8|0,0:0|0:0,0:0:0:0:
423,274,48057,2,0,L|305:260,1,103.500001974106,8|0,0:0|0:0,0:0:0:0:
117,128,48400,6,0,L|131:10,1,103.500001974106,8|0,0:0|0:0,0:0:0:0:
225,276,48742,2,0,L|239:158,1,103.500001974106,8|0,0:0|0:0,0:0:0:0:
100,142,49085,6,0,L|114:24,1,103.500001974106,8|0,0:0|0:0,0:0:0:0:
208,290,49428,2,0,L|222:172,1,103.500001974106,8|0,0:0|0:0,0:0:0:0:
362,30,49771,5,12,0:0:0:0:
202,142,49942,1,0,0:0:0:0:
213,23,50114,1,8,0:0:0:0:
393,149,50285,1,0,0:0:0:0:
378,33,50457,5,8,0:0:0:0:
181,159,50628,1,0,0:0:0:0:
196,24,50800,1,8,0:0:0:0:
412,167,50971,1,0,0:0:0:0:
210,276,51142,5,8,0:0:0:0:
210,276,51314,1,0,0:0:0:0:
379,275,51485,1,8,0:0:0:0:
379,275,51657,1,0,0:0:0:0:
172,351,51828,5,8,0:0:0:0:
172,351,52000,1,0,0:0:0:0:
428,352,52171,1,10,0:0:0:0:
428,352,52342,1,0,0:0:0:0:
305,206,52514,6,0,B|274:175|274:175|290:339,1,207.000003948212,12|8,0:0|0:0,0:0:0:0:
217,108,53028,1,8,0:0:0:0:
294,366,53200,1,8,0:0:0:0:
353,120,53371,1,8,0:0:0:0:
160,218,53542,1,8,0:0:0:0:
436,255,53714,1,8,0:0:0:0:
108,308,53885,5,8,0:0:0:0:
442,155,54057,1,8,0:0:0:0:
129,133,54228,1,8,0:0:0:0:
396,354,54400,1,8,0:0:0:0:
342,70,54571,1,0,0:3:0:0:
302,56,54657,1,0,0:3:0:0:
261,61,54742,1,4,0:3:0:0:
227,84,54828,1,4,0:3:0:0:
213,123,54914,2,0,L|228:229,1,103.500001974106,8|0,0:0|0:0,0:0:0:0:
427,352,55257,5,12,0:0:0:0:
453,206,55428,1,0,0:0:0:0:
310,252,55600,1,0,0:0:0:0:
404,356,55771,5,12,0:0:0:0:
467,220,55942,1,0,0:0:0:0:
317,228,56114,1,0,0:0:0:0:
382,356,56285,5,12,0:0:0:0:
477,240,56457,1,0,0:0:0:0:
330,208,56628,1,0,0:0:0:0:
492,345,56800,5,12,0:0:0:0:
492,345,56971,1,0,0:0:0:0:
509,142,57142,1,8,0:0:0:0:
509,142,57228,1,8,0:0:0:0:
509,142,57314,6,0,L|515:96,6,25.8750004935265,2|2|2|2|2|2|2,0:0|0:0|0:0|0:0|0:0|0:0|0:0,0:0:0:0:
446,62,57657,1,8,0:0:0:0:
416,40,57742,1,8,0:0:0:0:
379,38,57828,1,8,0:0:0:0:
347,55,57914,1,8,0:0:0:0:
336,91,58000,6,0,L|346:210,1,107.999996704102,4|2,0:0|0:0,0:0:0:0:
317,364,58342,1,8,0:0:0:0:
403,294,58514,1,2,0:0:0:0:
403,294,58600,1,0,0:0:0:0:
403,294,58685,2,0,L|281:281,1,107.999996704102,0|2,0:0|0:0,0:0:0:0:
145,367,59028,1,8,0:0:0:0:
55,237,59200,1,2,0:0:0:0:
55,237,59371,6,0,L|166:222,1,107.999996704102,0|2,0:0|0:0,0:0:0:0:
333,134,59714,1,8,0:0:0:0:
235,37,59885,1,2,0:0:0:0:
235,37,59971,1,0,0:0:0:0:
235,37,60057,2,0,P|176:37|135:67,1,107.999996704102,0|2,0:0|0:0,0:0:0:0:
205,300,60400,1,8,0:0:0:0:
212,136,60571,1,2,0:0:0:0:
102,262,60742,6,0,L|113:374,1,107.999996704102,0|2,0:0|0:0,0:0:0:0:
39,153,61085,1,8,0:0:0:0:
205,300,61257,1,2,0:0:0:0:
296,117,61428,1,0,0:0:0:0:
150,219,61600,2,0,P|98:235|40:240,1,107.999996704102,2|8,0:0|0:0,0:0:0:0:
137,369,61942,1,2,0:0:0:0:
137,369,62028,1,0,0:0:0:0:
137,369,62114,6,0,P|189:353|247:348,1,107.999996704102,0|2,0:0|0:0,0:0:0:0:
411,276,62457,2,0,L|405:393,1,107.999996704102,8|2,0:0|0:0,0:0:0:0:
247,235,62800,1,0,0:0:0:0:
247,235,62885,2,0,L|239:170,1,53.9999983520508,8|2,0:0|0:0,0:0:0:0:
348,39,63142,2,0,B|387:13|387:13|377:139,1,161.999995056153,8|0,0:0|0:0,0:0:0:0:
377,127,63485,6,0,P|443:114|486:139,1,107.999996704102,4|2,0:0|0:0,0:0:0:0:
382,317,63828,1,8,0:0:0:0:
296,184,64000,1,2,0:0:0:0:
296,184,64085,1,0,0:0:0:0:
296,184,64171,2,0,L|180:174,1,107.999996704102,0|2,0:0|0:0,0:0:0:0:
100,295,64514,1,8,0:0:0:0:
0,132,64685,1,2,0:0:0:0:
0,132,64857,6,0,L|15:240,1,107.999996704102,0|2,0:0|0:0,0:0:0:0:
152,375,65200,1,8,0:0:0:0:
100,188,65371,1,2,0:0:0:0:
100,188,65457,1,0,0:0:0:0:
100,188,65542,2,0,L|102:72,1,107.999996704102,0|2,0:0|0:0,0:0:0:0:
240,25,65885,1,8,0:0:0:0:
196,142,66057,1,2,0:0:0:0:
270,239,66228,6,0,P|323:220|382:232,1,107.999996704102,0|2,0:0|0:0,0:0:0:0:
464,343,66571,1,8,0:0:0:0:
311,146,66742,1,2,0:0:0:0:
330,309,66914,1,0,0:0:0:0:
461,197,67085,2,0,P|459:142|475:89,1,107.999996704102,2|8,0:0|0:0,0:0:0:0:
325,29,67428,1,2,0:0:0:0:
325,29,67514,1,0,0:0:0:0:
325,29,67600,5,0,0:0:0:0:
372,227,67771,1,10,0:0:0:0:
421,12,67942,1,10,0:0:0:0:
304,166,68114,1,10,0:0:0:0:
304,166,68200,1,8,0:0:0:0:
304,166,68285,5,14,0:0:0:0:
467,96,68457,1,8,0:0:0:0:
429,93,68542,1,8,0:0:0:0:
391,88,68628,1,8,0:3:0:0:
353,84,68714,1,8,0:3:0:0:
315,79,68800,1,4,0:3:0:0:
277,73,68885,1,4,0:3:0:0:
238,66,68971,6,0,P|182:83|151:138,1,107.999996704102,4|2,0:0|0:0,0:0:0:0:
217,352,69314,1,8,0:0:0:0:
214,362,69485,2,0,L|209:245,1,107.999996704102,2|0,0:0|0:0,0:0:0:0:
117,315,69828,2,0,L|1:312,1,107.999996704102,2|8,0:0|0:0,0:0:0:0:
162,164,70171,1,2,0:0:0:0:
162,164,70257,1,0,0:0:0:0:
162,164,70342,6,0,L|279:157,1,107.999996704102,0|2,0:0|0:0,0:0:0:0:
397,130,70685,1,8,0:0:0:0:
218,70,70857,1,2,0:0:0:0:
397,130,71028,2,0,L|394:241,1,107.999996704102,0|2,0:0|0:0,0:0:0:0:
394,237,71285,1,0,0:0:0:0:
394,237,71371,1,8,0:0:0:0:
325,352,71542,1,2,0:0:0:0:
176,282,71714,6,0,P|163:222|174:170,1,107.999996704102,0|2,0:0|0:0,0:0:0:0:
303,104,72057,1,8,0:0:0:0:
138,22,72228,2,0,L|20:26,1,107.999996704102,2|0,0:0|0:0,0:1:0:0:
5,197,72571,2,0,P|52:246|56:304,1,107.999996704102,2|8,0:0|0:0,0:0:0:0:
177,357,72914,1,2,0:0:0:0:
177,357,73000,1,0,0:0:0:0:
177,357,73085,6,0,B|242:351|272:309|272:309|301:354|383:362,1,215.999993408203,0|8,0:0|0:0,0:0:0:0:
330,149,73600,1,2,0:0:0:0:
450,240,73771,1,0,0:0:0:0:
450,240,73857,2,0,P|443:262|445:306,1,53.9999983520508,8|2,0:0|0:0,0:0:0:0:
190,258,74114,2,0,P|204:171|175:98,1,161.999995056153,8|0,0:0|0:0,0:0:0:0:
178,103,74457,6,0,P|274:134|364:45,1,215.999993408203,4|8,0:0|0:0,0:0:0:0:
285,280,74971,1,8,0:0:0:0:
258,29,75142,1,8,0:0:0:0:
290,172,75314,1,8,0:0:0:0:
450,20,75485,1,8,0:0:0:0:
464,264,75657,1,8,0:0:0:0:
212,115,75828,5,8,0:0:0:0:
512,133,76000,1,8,0:0:0:0:
241,371,76171,1,8,0:0:0:0:
512,345,76342,1,8,0:0:0:0:
377,159,76514,1,8,0:3:0:0:
334,244,76685,1,4,0:3:0:0:
334,244,76771,1,4,0:3:0:0:
334,244,76857,1,8,0:0:0:0:
329,87,77028,1,0,0:0:0:0:
422,280,77200,6,0,L|201:268,1,215.999993408203,12|0,0:0|0:0,0:0:0:0:
68,131,77714,2,0,B|116:93|116:93|102:262,1,215.999993408203,12|0,0:0|0:0,0:0:0:0:
5,321,78228,2,0,P|117:295|174:370,1,215.999993408203,12|0,0:0|0:0,0:0:0:0:
259,179,78742,5,8,0:0:0:0:
383,297,78914,2,0,L|245:293,1,107.999996704102,8|0,0:0|0:0,0:0:0:0:
208,81,79257,1,12,0:0:0:0:
216,44,79342,1,8,0:0:0:0:
245,20,79428,1,8,0:0:0:0:
282,15,79514,1,8,0:0:0:0:
319,22,79600,1,8,0:3:0:0:
350,41,79685,1,8,0:3:0:0:
366,75,79771,1,4,0:3:0:0:
366,112,79857,1,4,0:3:0:0:
351,139,79942,5,14,0:0:0:0:
442,13,80114,1,0,0:0:0:0:
286,95,80285,1,0,0:0:0:0:
349,163,80457,5,10,0:0:0:0:
494,79,80628,1,0,0:0:0:0:
286,95,80800,1,0,0:0:0:0:
331,182,80971,5,10,0:0:0:0:
512,162,81142,1,0,0:0:0:0:
286,95,81314,6,0,L|180:83,1,90,10|0,0:0|0:0,0:0:0:0:
290,276,81657,2,0,L|379:265,1,90,2|0,0:0|0:0,0:0:0:0:
212,214,82000,1,10,0:0:0:0:
352,354,82171,1,0,0:0:0:0:
186,381,82342,1,10,0:0:0:0:
348,185,82514,1,0,0:0:0:0:
131,287,82685,6,0,B|117:158|117:158|156:104,1,180,14|8,0:0|0:0,0:0:0:0:
302,58,83200,1,8,0:0:0:0:
270,319,83371,1,8,0:0:0:0:
302,58,83542,1,8,0:0:0:0:
270,319,83714,1,8,0:0:0:0:
231,174,83885,1,8,0:0:0:0:
231,174,83971,1,8,0:0:0:0:
231,174,84057,5,6,0:0:0:0:
426,169,85085,5,4,0:3:0:0:
426,169,85428,6,0,L|418:273,1,90,12|0,0:0|0:0,0:0:0:0:
425,271,85685,1,0,0:0:0:0:
432,284,85771,1,0,0:0:0:0:
278,339,85942,2,0,P|286:286|259:240,1,90,8|0,0:0|0:0,0:0:0:0:
163,198,86285,2,0,P|155:145|182:99,1,90,8|0,0:0|0:0,0:0:0:0:
349,38,86628,6,0,B|298:46|265:41|185:14|185:14|243:31|276:102,1,270,4|0,0:0|0:0,0:0:0:0:
272,213,87314,1,0,0:0:0:0:
269,226,87400,1,0,0:0:0:0:
266,238,87485,1,0,0:0:0:0:
