osu file format v14

[General]
AudioFilename: audio.mp3
AudioLeadIn: 0
PreviewTime: -1
Countdown: 1
SampleSet: Normal
StackLeniency: 0.7
Mode: 0
LetterboxInBreaks: 0
WidescreenStoryboard: 0

[Editor]
DistanceSpacing: 0.9
BeatDivisor: 4
GridSize: 16
TimelineZoom: 2.7

[Metadata]
Title:LOS! LOS! LOS!
TitleUnicode:LOS! LOS! LOS!
Artist:Tanya Degurechaff
ArtistUnicode:Tanya Degurechaff
Creator:Umi Sonoda03
Version:Military
Source:
Tags:
BeatmapID:2088573
BeatmapSetID:998559

[Difficulty]
HPDrainRate:6.4
CircleSize:4
OverallDifficulty:9
ApproachRate:9.2
SliderMultiplier:1.84
SliderTickRate:1

[Events]
//Background and Video events
0,0,"938960.jpg",0,0
//Break Periods
//Storyboard Layer 0 (Background)
//Storyboard Layer 1 (Fail)
//Storyboard Layer 2 (Pass)
//Storyboard Layer 3 (Foreground)
//Storyboard Sound Samples

[TimingPoints]
376,250,4,1,0,100,1,0
1376,-83.3333333333333,4,1,0,100,0,0
4126,-181.818181818181,4,1,0,100,0,0
5376,-83.3333333333333,4,1,0,100,0,0
6626,-117.647058823529,4,1,0,100,0,0
7376,-100,4,1,0,100,0,0
10376,-76.9230769230769,4,1,0,100,0,0
11376,-153.846153846153,4,1,0,100,0,0
12501,-100,4,1,0,100,0,0
14001,-111.111111111111,4,1,0,100,0,0
16376,-83.3333333333333,4,1,0,100,0,0
17376,-100,4,1,0,100,0,0
18876,-133.333333333333,4,1,0,100,0,0
19376,-83.3333333333333,4,1,0,100,0,0
20376,-181.818181818181,4,1,0,100,0,0
22876,-133.333333333333,4,1,0,100,0,0
25376,-111.111111111111,4,1,0,100,0,0
33376,-125,4,1,0,100,0,0
37376,-100,4,1,0,100,0,0
41376,-151.515151515152,4,1,0,100,0,0
45376,-105.263157894737,4,1,0,100,0,0
51376,-90.9090909090909,4,1,0,100,0,0
51876,-66.6666666666667,4,1,0,100,0,0
52376,-50,4,1,0,100,0,0
53376,-666.666666666658,4,1,0,100,0,0
54626,-133.333333333333,4,1,0,100,0,0
57377,-111.111111111111,4,1,0,100,0,0
58376,-83.3333333333333,4,1,0,100,0,0
59376,-100,4,1,0,100,0,0
61376,-83.3333333333333,4,1,0,100,0,0
62376,-153.846153846153,4,1,0,100,0,0
67376,-100,4,1,0,100,0,0
69376,-83.3333333333333,4,1,0,100,0,0
70376,-181.818181818181,4,1,0,100,0,0
71376,-133.333333333333,4,1,0,100,0,0
75376,-117.647058823529,4,1,0,100,0,0
77376,-100,4,1,0,100,0,0

[HitObjects]
89,153,1376,6,0,P|134:75|289:87,1,220.799993261719
222,142,1751,1,0,0:0:0:0:
247,338,1876,2,0,L|140:235,1,110.399996630859
86,294,2126,2,0,P|80:235|124:168,1,110.399996630859
280,80,2376,5,0,0:0:0:0:
262,111,2501,1,0,0:0:0:0:
334,147,2626,1,0,0:0:0:0:
316,226,2751,1,0,0:0:0:0:
400,355,2876,6,0,L|390:296,2,55.1999983154297
270,289,3126,2,0,L|270:227,2,55.1999983154297
175,349,3376,6,0,L|104:263,1,110.399996630859
33,292,3626,2,0,P|33:234|73:182,1,110.399996630859
107,253,3876,2,0,L|221:175,1,110.399996630859
207,147,4126,2,0,L|260:139,1,50.6000015441895
296,52,4376,6,0,B|385:62|331:144|425:146,1,151.800004632569
400,168,4876,2,0,L|337:183,1,50.6000015441895
336,210,5126,2,0,L|340:262,1,50.6000015441895
276,338,5376,6,0,L|244:291,2,55.1999983154297
160,311,5626,1,0,0:0:0:0:
168,289,5751,1,0,0:0:0:0:
110,224,5876,1,0,0:0:0:0:
32,187,6001,1,0,0:0:0:0:
74,154,6126,1,0,0:0:0:0:
86,77,6251,1,0,0:0:0:0:
194,172,6376,6,0,P|244:187|327:265,1,165.599994946289
340,277,6626,2,0,B|422:275|378:353|503:353,1,156.400002983093
454,312,6938,2,0,L|448:189,1,117.30000223732
367,107,7376,6,0,L|283:142,1,92
284,236,7626,2,0,P|216:196|208:112,1,138
146,116,7876,2,0,P|85:161|33:154,1,92
50,196,8063,2,0,L|161:299,1,138
151,334,8376,5,0,0:0:0:0:
191,358,8501,1,0,0:0:0:0:
253,283,8626,1,0,0:0:0:0:
316,365,8751,1,0,0:0:0:0:
418,332,8876,2,0,P|402:281|273:206,1,184
503,84,9376,6,0,P|466:125|409:130,1,92
347,63,9626,1,0,0:0:0:0:
347,152,9751,2,0,P|270:158|231:193,1,92
165,265,10001,1,0,0:0:0:0:
143,174,10126,2,0,P|89:174|55:143,1,92
60,130,10376,6,0,L|41:294,1,119.599994525147
58,265,10563,2,0,B|127:275|67:347|227:334,1,179.39999178772
229,330,10813,2,0,P|231:258|331:219,1,179.39999178772
412,271,11126,1,0,0:0:0:0:
427,107,11376,6,0,P|382:121|305:104,1,119.599994525147
348,36,11876,2,0,P|282:34|237:63,1,119.599994525147
228,97,12251,2,0,L|166:94,1,59.7999972625734
95,133,12501,1,0,0:0:0:0:
153,311,12626,1,0,0:0:0:0:
95,133,12751,1,0,0:0:0:0:
153,311,12876,2,0,B|244:245|236:372|347:254,1,184
385,159,13376,6,0,L|390:65,1,92
334,57,13626,2,0,B|248:150|256:23|165:89,1,184
33,121,14001,2,0,L|126:187,1,82.7999974731446
78,286,14251,1,0,0:0:0:0:
197,301,14376,6,0,B|287:247|284:346|361:266,1,165.599994946289
386,296,14751,1,0,0:0:0:0:
442,191,14876,2,0,P|389:186|326:90,1,165.599994946289
236,131,15251,1,0,0:0:0:0:
334,106,15376,6,0,P|336:179|266:228,1,165.599994946289
251,239,15751,2,0,L|147:199,1,82.7999974731446
114,215,16001,2,0,B|33:264|113:287|16:347,1,165.599994946289
176,338,16376,6,0,L|296:280,1,110.399996630859
409,308,16626,1,0,0:0:0:0:
349,229,16751,1,0,0:0:0:0:
447,169,16876,2,0,P|452:103|396:46,1,110.399996630859
379,125,17126,2,0,P|316:103|287:43,1,110.399996630859
365,34,17376,6,0,P|293:-2|205:82,1,184
114,36,17751,1,0,0:0:0:0:
89,66,17876,2,0,P|80:150|-10:202,1,184
31,227,18251,2,0,L|104:324,1,92
153,306,18501,2,0,P|204:325|335:302,1,184
362,294,18876,2,0,B|309:236|420:239|351:141,1,138.000005264282
325,122,19251,1,0,0:0:0:0:
311,84,19376,6,0,P|260:62|174:96,1,110.399996630859
233,141,19563,2,0,P|176:133|136:38,1,165.599994946289
104,51,19813,2,0,P|64:110|48:230,1,165.599994946289
38,302,20126,2,0,L|190:270,1,110.399996630859
185,348,20376,6,0,P|242:301|184:193,1,202.400006176758
178,186,20938,2,0,L|170:128,1,50.6000015441895
194,98,21126,1,0,0:0:0:0:
361,59,21376,5,0,0:0:0:0:
310,179,21626,1,0,0:0:0:0:
382,197,21751,1,0,0:0:0:0:
366,268,21876,1,0,0:0:0:0:
260,345,22126,1,0,0:0:0:0:
172,216,22376,5,0,0:0:0:0:
260,345,22626,1,0,0:0:0:0:
172,216,22876,2,0,B|91:168|200:155|82:93,1,138.000005264282
53,307,23376,5,0,0:0:0:0:
171,315,23626,1,0,0:0:0:0:
172,238,23751,1,0,0:0:0:0:
249,241,23876,1,0,0:0:0:0:
352,104,24126,1,0,0:0:0:0:
431,249,24376,5,0,0:0:0:0:
353,95,24626,1,0,0:0:0:0:
431,249,24876,2,0,B|419:336|367:276|348:367,1,138.000005264282
410,63,25376,6,0,P|366:114|278:77,2,165.599994946289
448,83,26126,1,0,0:0:0:0:
436,297,26376,6,0,B|348:288|408:217|276:223,1,165.599994946289
294,317,26751,1,0,0:0:0:0:
163,292,26876,2,0,L|164:172,1,82.7999974731446
95,76,27126,2,0,L|93:178,1,82.7999974731446
71,294,27376,6,0,P|113:352|228:356,1,165.599994946289
233,348,27876,1,0,0:0:0:0:
337,339,28126,2,0,B|373:259|373:259|335:161,1,165.599994946289
342,157,28501,1,0,0:0:0:0:
427,119,28626,2,0,P|385:84|250:113,1,165.599994946289
264,107,29001,1,0,0:0:0:0:
271,210,29126,2,0,L|186:142,1,82.7999974731446
154,118,29376,6,0,L|154:294,1,165.599994946289
174,311,29751,1,0,0:0:0:0:
267,359,29876,2,0,P|282:306|194:210,2,165.599994946289
309,372,30501,1,0,0:0:0:0:
415,211,30626,2,0,B|377:265|436:316|398:373,1,165.599994946289
307,291,31001,2,0,P|300:234|263:198,2,82.7999974731446
291,89,31376,6,0,P|332:130|343:169,1,82.7999974731446
190,59,31626,1,0,0:0:0:0:
127,178,31751,1,0,0:0:0:0:
169,310,31876,1,0,0:0:0:0:
169,310,32001,2,0,P|126:292|5:332,1,165.599994946289
38,335,32376,2,0,L|53:163,1,165.599994946289
75,176,32751,2,0,P|126:159|44:40,1,248.399992419434
160,330,33376,6,0,P|171:270|196:231,1,73.6
274,230,33626,2,0,P|274:176|260:128,1,73.6
184,111,33876,2,0,P|227:66|329:76,1,147.2
383,119,34251,1,0,0:0:0:0:
383,119,34376,6,0,B|384:181|344:203|392:277,1,147.2
317,335,34751,1,0,0:0:0:0:
219,341,34876,2,0,P|192:293|155:262,1,73.6
103,331,35126,2,0,P|57:286|42:255,1,73.6
86,189,35376,6,0,P|31:187|-36:261,1,147.2
86,189,35751,1,0,0:0:0:0:
135,239,35876,2,0,L|289:251,1,147.2
322,318,36251,1,0,0:0:0:0:
410,315,36376,5,0,0:0:0:0:
462,246,36501,2,0,B|460:199|460:199|458:155,1,73.6
427,65,36751,2,0,P|409:110|368:130,1,73.6
318,118,37001,1,0,0:0:0:0:
91,65,37376,6,0,L|64:260,1,184
127,308,37751,1,0,0:0:0:0:
254,195,37876,1,0,0:0:0:0:
356,220,38001,2,0,P|362:280|339:319,1,92
240,343,38251,1,0,0:0:0:0:
182,247,38376,6,0,B|140:167|96:218|41:113,1,184
137,67,38751,1,0,0:0:0:0:
229,38,38876,2,0,P|315:123|378:107,1,184
336,36,39251,1,0,0:0:0:0:
411,90,39376,6,0,L|481:19,1,92
467,161,39626,2,0,L|378:219,1,92
291,319,39876,2,0,L|408:295,1,92
251,226,40126,1,0,0:0:0:0:
146,210,40251,1,0,0:0:0:0:
56,250,40376,6,0,P|94:323|202:338,1,184
262,282,40751,1,0,0:0:0:0:
262,282,40876,2,0,P|291:227|253:99,1,184
117,198,41376,6,0,P|171:214|227:203,1,91.0799997220459
237,195,41626,2,0,P|285:165|320:168,1,91.0799997220459
345,190,41876,2,0,P|381:207|438:205,1,91.0799997220459
456,192,42126,2,0,P|458:135|444:109,1,60.7199998146973
434,102,42313,2,0,P|397:76|351:68,1,91.0799997220459
322,99,42626,2,0,P|290:118|243:123,1,60.7199998146973
251,151,42813,2,0,P|265:193|293:232,1,91.0799997220459
195,238,43376,6,0,P|173:278|131:303,1,91.0799997220459
111,296,43626,2,0,P|67:263|56:238,1,60.7199998146973
51,237,43813,2,0,P|53:198|82:148,1,91.0799997220459
84,125,44063,2,0,L|91:52,1,60.7199998146973
269,53,44376,2,0,L|351:57,1,60.7199998146973
352,71,44563,2,0,P|400:97|425:152,1,91.0799997220459
430,156,44813,2,0,L|438:261,1,91.0799997220459
436,272,45063,2,0,P|401:319|356:338,1,91.0799997220459
276,285,45376,6,0,P|220:272|174:223,1,87.3999976661683
133,112,45626,1,0,0:0:0:0:
368,134,45751,2,0,P|317:111|270:104,1,87.3999976661683
94,235,46001,1,0,0:0:0:0:
203,252,46126,2,0,L|204:157,1,87.3999976661683
260,53,46376,6,0,P|283:115|413:151,1,174.799995332337
427,63,46751,1,0,0:0:0:0:
468,154,46876,2,0,L|396:226,1,87.3999976661683
364,346,47126,2,0,L|461:269,1,87.3999976661683
294,256,47376,6,0,L|187:293,1,87.3999976661683
259,163,47626,2,0,P|332:128|321:31,2,174.799995332337
173,79,48376,6,0,P|122:113|102:162,1,87.3999976661683
193,185,48626,2,0,P|175:234|60:267,1,174.799995332337
63,291,49376,6,0,P|149:294|242:254,1,174.799995332337
332,95,49751,1,0,0:0:0:0:
377,271,49876,2,0,P|330:309|186:292,1,174.799995332337
121,180,50251,2,0,P|171:148|200:99,1,87.3999976661683
251,69,50501,1,0,0:0:0:0:
347,65,50626,1,0,0:0:0:0:
439,77,50751,2,0,P|458:128|390:240,1,174.799995332337
376,316,51126,2,0,L|276:246,1,87.3999976661683
248,328,51376,6,0,P|215:292|308:187,1,202.400006176758
336,250,51876,6,0,P|370:200|197:121,1,276.000010528565
269,165,52376,6,0,P|256:285|40:271,1,368
134,219,52876,6,0,P|158:123|429:95,1,368
289,167,53376,6,0,L|369:248,1,110.399996630859
313,310,54626,6,0,L|244:263,2,69.0000026321412
170,300,55001,2,0,L|112:262,2,69.0000026321412
198,179,55376,2,0,L|305:70,1,138.000005264282
395,63,55751,1,0,0:0:0:0:
484,109,55876,1,0,0:0:0:0:
466,210,56001,2,0,B|420:192|420:191|387:183,1,69.0000026321412
306,238,56251,1,0,0:0:0:0:
244,174,56376,6,0,B|242:94|192:156|194:52,1,138.000005264282
211,48,56751,2,0,L|306:60,1,69.0000026321412
387,70,57001,1,0,0:0:0:0:
297,149,57126,2,0,L|255:217,1,69.0000026321412
309,281,57376,2,0,P|272:296|183:235,1,138.000005264282
166,243,57751,2,0,B|78:234|122:179|23:146,1,165.599994946289
38,127,58126,2,0,L|137:112,1,82.7999974731446
156,36,58376,6,0,L|273:104,1,110.399996630859
322,159,58626,1,0,0:0:0:0:
322,159,58751,2,0,P|384:225|307:323,1,220.799993261719
289,321,59126,2,0,L|167:308,1,110.399996630859
153,302,59376,6,0,P|150:251|55:150,1,184
67,121,59751,1,0,0:0:0:0:
89,83,59876,2,0,P|148:113|282:60,1,184
357,118,60251,1,0,0:0:0:0:
434,38,60376,6,0,P|465:90|391:212,1,184
357,289,60751,1,0,0:0:0:0:
322,305,60876,2,0,P|256:264|136:263,1,184
75,204,61251,1,0,0:0:0:0:
77,171,61376,6,0,L|174:77,1,110.399996630859
183,92,61563,2,0,B|280:31|284:107|360:38,1,165.599994946289
371,3,61813,2,0,P|426:55|380:134,1,165.599994946289
397,154,62126,2,0,L|456:267,1,110.399996630859
386,310,62376,6,0,L|209:239,1,179.39999178772
192,204,62876,1,0,0:0:0:0:
188,174,62938,1,0,0:0:0:0:
196,145,63001,1,0,0:0:0:0:
213,121,63063,1,0,0:0:0:0:
238,105,63126,1,0,0:0:0:0:
269,100,63376,6,0,L|352:130,1,59.7999972625734
346,132,63626,2,0,P|386:181|376:260,1,119.599994525147
330,319,64001,1,0,0:0:0:0:
265,234,64126,1,0,0:0:0:0:
209,323,64251,1,0,0:0:0:0:
209,323,64376,6,0,P|179:290|94:269,1,119.599994525147
109,267,64751,2,0,P|81:240|75:198,1,59.7999972625734
76,200,65001,2,0,L|134:144,1,59.7999972625734
161,57,65251,1,0,0:0:0:0:
247,103,65376,6,0,L|245:235,1,119.599994525147
334,58,65751,1,0,0:0:0:0:
420,162,65876,2,0,L|416:38,1,119.599994525147
338,233,66251,1,0,0:0:0:0:
338,233,66376,6,0,P|300:277|242:285,1,119.599994525147
161,348,66876,2,0,P|141:316|155:237,1,119.599994525147
185,88,67376,6,0,P|239:130|351:99,1,184
372,113,67751,2,0,L|389:209,1,92
384,232,68001,2,0,L|269:251,1,92
235,302,68251,1,0,0:0:0:0:
235,302,68376,6,0,P|194:275|57:308,1,184
65,263,68751,2,0,L|93:143,1,92
162,80,69001,1,0,0:0:0:0:
162,80,69126,2,0,P|216:96|247:131,1,92
243,142,69376,6,0,P|245:204|328:240,1,110.399996630859
288,256,69626,2,0,P|285:317|229:361,1,110.399996630859
229,343,69876,2,0,P|189:299|75:306,1,165.599994946289
143,365,70126,2,0,L|191:205,1,165.599994946289
206,191,70376,2,0,P|260:175|208:65,1,202.400006176758
195,70,70938,2,0,L|126:103,1,75.9000023162843
89,212,71376,6,0,L|240:222,1,138.000005264282
287,297,71751,1,0,0:0:0:0:
382,235,71876,2,0,L|382:140,1,69.0000026321412
288,148,72126,2,0,L|292:61,1,69.0000026321412
193,26,72376,6,0,L|188:250,1,207.000007896424
98,255,72876,2,0,P|116:292|261:298,1,207.000007896424
193,227,73376,6,0,P|306:232|357:328,1,207.000007896424
376,307,73876,2,0,L|430:241,1,69.0000026321412
357,186,74126,2,0,L|415:128,1,69.0000026321412
403,42,74376,6,0,L|231:172,1,207.000007896424
174,99,74876,2,0,L|98:147,1,69.0000026321412
60,227,75126,1,0,0:0:0:0:
90,242,75188,1,0,0:0:0:0:
121,258,75251,1,0,0:0:0:0:
248,177,75376,2,0,L|328:313,1,156.400002983093
347,319,75751,2,0,P|423:304|439:292,1,78.2000014915467
445,284,76001,2,0,L|433:179,1,78.2000014915467
382,127,76251,1,0,0:0:0:0:
382,127,76376,2,0,P|342:107|229:133,1,156.400002983093
207,232,76751,1,0,0:0:0:0:
116,188,76876,2,0,L|107:93,1,78.2000014915467
30,203,77126,2,0,L|36:308,1,78.2000014915467
149,351,77376,6,0,P|183:320|275:307,1,117.30000223732
279,317,77626,2,0,P|332:318|386:281,1,92
385,288,77876,2,0,L|384:184,1,92
390,171,78126,2,0,P|391:119|339:66,1,92
297,142,78376,2,0,L|197:132,1,92
134,183,78626,1,0,0:0:0:0:
171,266,78751,1,0,0:0:0:0:
260,258,78876,2,0,P|310:227|372:226,1,92
422,264,79126,1,0,0:0:0:0:
400,347,79251,1,0,0:0:0:0:
308,354,79376,6,0,L|201:338,1,92
158,263,79626,1,0,0:0:0:0:
148,158,79751,2,0,L|250:157,1,92
334,72,80001,1,0,0:0:0:0:
361,108,80063,1,0,0:0:0:0:
369,153,80126,1,0,0:0:0:0:
356,197,80188,1,0,0:0:0:0:
325,230,80251,1,0,0:0:0:0:
284,250,80313,1,0,0:0:0:0:
251,282,80376,1,0,0:0:0:0:
232,324,80438,1,0,0:0:0:0:
202,354,80501,1,0,0:0:0:0:
169,321,80563,1,0,0:0:0:0:
137,288,80626,1,0,0:0:0:0:
175,112,80876,1,0,0:0:0:0:
