osu file format v14

[General]
AudioFilename: audio.mp3
AudioLeadIn: 0
PreviewTime: 120188
Countdown: 0
SampleSet: Soft
StackLeniency: 0.4
Mode: 0
LetterboxInBreaks: 0
WidescreenStoryboard: 0

[Editor]
DistanceSpacing: 0.2
BeatDivisor: 4
GridSize: 4
TimelineZoom: 1

[Metadata]
Title:Los! Los! Los!
TitleUnicode:Los! Los! Los!
Artist:Tanya Degurechaff (CV. Aoi Yuuki)
ArtistUnicode:ターニャ・デグレチャフ(CV:悠木碧)
Creator:sinn
Version:Merciless
Source:幼女戦記
Tags:my angel settia jejunedeity youjo senki saga of tanya the evil ed ending full
BeatmapID:1411724
BeatmapSetID:667143

[Difficulty]
HPDrainRate:5
CircleSize:4.2
OverallDifficulty:9
ApproachRate:9.7
SliderMultiplier:1.7
SliderTickRate:1

[Events]
//Background and Video events
0,0,"stretched-1920-1080-795062.png",0,0
//Break Periods
//Storyboard Layer 0 (Background)
//Storyboard Layer 1 (Fail)
//Storyboard Layer 2 (Pass)
//Storyboard Layer 3 (Foreground)
//Storyboard Sound Samples

[TimingPoints]
1290,250,4,2,4,40,1,0
1290,-142.857142857143,4,2,4,40,0,0
9290,-111.111111111111,4,2,4,70,0,0
33290,-142.857142857143,4,2,4,70,0,0
37290,-111.111111111111,4,2,4,70,0,0
45290,-125,4,2,4,70,0,0
53290,-200,4,2,4,70,0,0
54790,-100,4,2,4,70,0,0
55290,-100,4,2,4,70,0,1
71290,-133.333333333333,4,2,4,70,0,0
75290,-111.111111111111,4,2,4,70,0,0
80790,-200,4,3,4,70,0,0
81290,-111.111111111111,4,2,4,70,0,0
120290,-100,4,2,4,70,0,1
136290,-100,4,2,4,70,0,0
172290,-100,4,2,4,70,0,1
188290,-100,4,2,4,70,0,0

[HitObjects]
305,88,1290,6,0,P|316:118|309:158,1,59.4999981842042,4|0,0:0|0:0,0:0:0:0:
177,142,1540,2,0,P|206:129|241:129,1,59.4999981842042,2|0,0:0|0:0,0:0:0:0:
230,264,1790,2,0,L|221:194,1,59.4999981842042
315,279,2040,2,0,L|306:349,1,59.4999981842042,2|0,0:0|0:0,0:0:0:0:
170,270,2290,6,0,L|244:262,1,59.4999981842042
384,208,2540,2,0,L|310:200,1,59.4999981842042,2|0,0:0|0:0,0:0:0:0:
233,149,2790,2,0,B|217:182|217:182|231:277,1,118.999996368408,0|2,0:0|0:0,0:0:0:0:
324,201,3165,1,0,0:0:0:0:
224,90,3290,6,0,L|235:164,1,59.4999981842042
324,23,3540,2,0,L|313:97,1,59.4999981842042,2|0,0:0|0:0,0:0:0:0:
175,155,3790,2,0,P|203:146|246:154,1,59.4999981842042
346,240,4040,2,0,P|318:249|275:241,1,59.4999981842042,2|0,0:0|0:0,0:0:0:0:
175,155,4290,6,0,L|188:221,1,59.4999981842042
287,45,4540,2,0,L|274:111,1,59.4999981842042,2|0,0:0|0:0,0:0:0:0:
177,77,4790,1,2,0:0:0:0:
177,77,4915,6,2,P|114:93|91:167,1,148.74999546051
175,155,5290,5,4,0:0:0:0:
198,149,5540,1,8,0:0:0:0:
221,144,5790,1,0,0:0:0:0:
244,139,6040,1,8,0:0:0:0:
267,134,6290,1,0,0:0:0:0:
290,129,6540,1,8,0:0:0:0:
313,124,6790,1,0,0:0:0:0:
336,119,7040,1,8,0:0:0:0:
175,155,7290,5,4,0:0:0:0:
173,178,7540,1,8,0:0:0:0:
171,201,7790,1,0,0:0:0:0:
169,224,8040,1,8,0:0:0:0:
167,247,8290,1,0,0:0:0:0:
165,270,8540,1,8,0:0:0:0:
258,250,8790,2,0,L|255:216,7,29.7499990921021,0|0|0|0|8|0|0|0,0:0|0:0|0:0|0:0|0:0|0:0|0:0|0:0,0:0:0:0:
275,191,9290,6,0,L|196:202,1,76.4999976654053,4|0,0:0|0:0,0:0:0:0:
92,223,9540,1,8,0:0:0:0:
153,114,9665,1,0,0:0:0:0:
240,298,9790,1,0,0:0:0:0:
257,103,9915,1,0,0:0:0:0:
316,347,10040,1,8,0:0:0:0:
195,237,10165,1,0,0:0:0:0:
359,160,10290,6,0,L|451:172,1,76.4999976654053
270,227,10540,2,0,L|178:239,1,76.4999976654053,8|0,0:0|0:0,0:0:0:0:
174,18,10790,2,0,B|205:44|205:44|222:175,1,152.999995330811,0|8,0:0|0:0,0:0:0:0:
127,100,11165,1,0,0:0:0:0:
268,222,11290,5,8,0:0:0:0:
92,254,11415,1,0,0:0:0:0:
147,97,11540,1,8,0:0:0:0:
186,315,11665,1,0,0:0:0:0:
67,178,11790,5,8,0:0:0:0:
264,226,11915,1,0,0:0:0:0:
82,330,12040,1,8,0:0:0:0:
197,145,12165,1,0,0:0:0:0:
256,330,12290,5,8,0:0:0:0:
67,178,12415,1,0,0:0:0:0:
255,70,12540,1,8,0:0:0:0:
154,318,12665,1,0,0:0:0:0:
127,100,12790,5,8,0:0:0:0:
134,101,12852,1,2,0:0:0:0:
141,103,12915,1,2,0:0:0:0:
148,105,12977,1,2,0:0:0:0:
155,106,13040,2,0,L|187:114,5,19.1249994163513,8|0|0|0|0|0,0:0|0:0|0:0|0:0|0:0|0:0,0:0:0:0:
261,89,13290,6,0,L|242:180,1,76.4999976654053,4|0,0:0|0:0,0:0:0:0:
166,261,13540,2,0,L|147:170,1,76.4999976654053,8|0,0:0|0:0,0:0:0:0:
317,230,13790,2,0,P|281:245|240:242,1,76.4999976654053
77,199,14040,2,0,P|113:184|154:187,1,76.4999976654053,8|0,0:0|0:0,0:0:0:0:
147,339,14290,6,0,L|128:248,1,76.4999976654053
259,168,14540,2,0,L|240:259,1,76.4999976654053,8|0,0:0|0:0,0:0:0:0:
58,277,14790,2,0,P|94:262|135:265,1,76.4999976654053
307,311,15040,2,0,P|271:326|230:323,1,76.4999976654053,8|0,0:0|0:0,0:0:0:0:
174,149,15290,6,0,P|249:169|252:253,1,152.999995330811,2|8,0:0|0:0,0:0:0:0:
163,340,15665,1,0,0:0:0:0:
97,184,15790,2,0,P|93:141|105:106,1,76.4999976654053
261,235,16040,2,0,P|265:278|253:313,1,76.4999976654053,8|0,0:0|0:0,0:0:0:0:
94,275,16290,6,0,P|131:264|169:267,1,76.4999976654053
296,375,16540,2,0,P|259:386|221:383,1,76.4999976654053,8|0,0:0|0:0,0:0:0:0:
168,266,16790,1,0,0:0:0:0:
296,375,16915,1,0,0:0:0:0:
257,192,17040,1,8,0:0:0:0:
142,342,17165,1,0,0:0:0:0:
352,324,17290,6,0,L|347:236,1,76.4999976654053,4|0,0:0|0:0,0:0:0:0:
224,380,17540,1,8,0:0:0:0:
346,215,17665,1,2,0:0:0:0:
168,319,17790,6,0,L|173:231,1,76.4999976654053
296,375,18040,1,8,0:0:0:0:
174,210,18165,1,2,0:0:0:0:
224,380,18290,5,0,0:0:0:0:
346,215,18415,2,0,L|431:226,1,76.4999976654053,0|8,0:0|0:0,0:0:0:0:
305,126,18665,1,0,0:0:0:0:
240,306,18790,6,0,P|202:322|163:317,1,76.4999976654053
29,237,19040,2,0,P|67:221|106:226,1,76.4999976654053,8|0,0:0|0:0,0:0:0:0:
87,371,19290,2,0,L|79:291,1,76.4999976654053
199,165,19540,2,0,L|191:245,1,76.4999976654053,8|0,0:0|0:0,0:0:0:0:
56,146,19790,2,0,P|89:127|136:131,1,76.4999976654053
261,259,20040,2,0,P|223:259|190:240,1,76.4999976654053,8|0,0:0|0:0,0:0:0:0:
241,162,20290,5,2,0:0:0:0:
302,347,20415,1,0,0:0:0:0:
379,217,20540,1,8,0:0:0:0:
194,348,20665,1,0,0:0:0:0:
417,332,20790,1,8,0:0:0:0:
225,187,20915,1,0,0:0:0:0:
330,357,21040,1,8,0:0:0:0:
418,125,21165,1,0,0:0:0:0:
261,259,21290,5,4,0:0:0:0:
230,264,21540,1,8,0:0:0:0:
199,269,21790,1,0,0:0:0:0:
168,274,22040,1,8,0:0:0:0:
137,279,22290,1,0,0:0:0:0:
107,285,22540,1,8,0:0:0:0:
77,291,22790,1,0,0:0:0:0:
47,297,23040,1,8,0:0:0:0:
261,259,23290,6,0,L|362:247,1,76.4999976654053,4|0,0:0|0:0,0:0:0:0:
220,365,23540,2,0,L|119:353,1,76.4999976654053,8|0,0:0|0:0,0:0:0:0:
241,188,23790,2,0,P|260:221|260:259,1,76.4999976654053
144,355,24040,2,0,P|125:322|125:284,1,76.4999976654053,8|0,0:0|0:0,0:0:0:0:
241,188,24290,5,0,0:0:0:0:
144,355,24415,1,0,0:0:0:0:
109,205,24540,1,8,0:0:0:0:
256,338,24665,1,0,0:0:0:0:
342,169,24790,5,2,0:0:0:0:
342,169,24852,1,0,0:0:0:0:
342,169,24915,1,0,0:0:0:0:
373,278,25040,1,8,0:0:0:0:
443,80,25165,1,0,0:0:0:0:
260,241,25290,6,0,P|190:222|173:144,1,152.999995330811,0|8,0:0|0:0,0:0:0:0:
237,48,25665,1,0,0:0:0:0:
326,156,25790,2,0,P|291:168|245:167,1,76.4999976654053
89,85,26040,2,0,P|124:73|170:74,1,76.4999976654053,8|0,0:0|0:0,0:0:0:0:
165,301,26290,6,0,B|144:269|144:269|139:151,1,152.999995330811,0|8,0:0|0:0,0:0:0:0:
359,225,26665,2,0,P|289:250|217:216,1,152.999995330811
280,91,27040,2,0,P|292:127|289:170,1,76.4999976654053,8|0,0:0|0:0,0:0:0:0:
131,120,27290,6,0,L|219:129,1,76.4999976654053
359,225,27540,2,0,L|271:234,1,76.4999976654053,8|0,0:0|0:0,0:0:0:0:
312,131,27790,1,0,0:0:0:0:
203,282,27915,1,0,0:0:0:0:
312,131,28040,2,0,P|321:92|312:55,1,76.4999976654053,8|0,0:0|0:0,0:0:0:0:
93,71,28290,6,0,B|133:93|133:93|243:95,1,152.999995330811,0|8,0:0|0:0,0:0:0:0:
106,178,28665,2,0,P|47:176|59:251,1,152.999995330811
145,250,29040,1,8,0:0:0:0:
340,319,29165,1,0,0:0:0:0:
138,342,29290,2,0,P|128:296|139:256,1,76.4999976654053
340,319,29540,6,0,L|248:314,1,76.4999976654053,8|0,0:0|0:0,0:0:0:0:
134,268,29790,1,0,0:0:0:0:
252,191,29915,1,0,0:0:0:0:
209,367,30040,1,8,0:0:0:0:
149,166,30165,1,0,0:0:0:0:
149,166,30227,1,0,0:0:0:0:
149,166,30290,6,0,L|241:178,1,76.4999976654053
84,76,30540,1,8,0:0:0:0:
100,291,30665,2,0,P|157:227|132:144,1,152.999995330811
90,1,31040,2,0,P|79:41|86:82,1,76.4999976654053,8|0,0:0|0:0,0:0:0:0:
240,58,31290,6,0,P|205:45|158:44,1,76.4999976654053
201,202,31540,2,0,L|196:114,1,76.4999976654053,8|0,0:0|0:0,0:0:0:0:
290,263,31790,1,0,0:0:0:0:
358,182,31915,1,0,0:0:0:0:
406,356,32040,1,8,0:0:0:0:
290,263,32165,1,0,0:0:0:0:
432,118,32290,5,8,0:0:0:0:
432,118,32352,1,0,0:0:0:0:
432,118,32415,1,8,0:0:0:0:
290,263,32540,1,8,0:0:0:0:
196,125,32665,1,0,0:0:0:0:
174,313,32790,1,8,0:0:0:0:
396,222,32915,1,0,0:0:0:0:
285,131,33040,1,8,0:0:0:0:
254,359,33165,1,0,0:0:0:0:
459,270,33290,6,0,P|474:237|435:151,1,118.999996368408,4|0,0:0|0:0,0:0:0:0:
284,216,33665,1,0,0:0:0:0:
284,216,33790,2,0,P|340:236|404:216,1,118.999996368408,8|0,0:0|0:0,0:0:0:0:
343,144,34165,1,0,0:0:0:0:
203,200,34290,6,0,L|211:263,1,59.4999981842042
97,190,34540,2,0,L|105:127,1,59.4999981842042,8|0,0:0|0:0,0:0:0:0:
197,25,34790,2,0,P|207:60|203:91,1,59.4999981842042
63,70,35040,2,0,P|90:58|140:63,1,59.4999981842042,8|0,0:0|0:0,0:0:0:0:
112,200,35290,6,0,L|104:131,1,59.4999981842042
267,156,35540,2,0,L|193:164,1,59.4999981842042,8|0,0:0|0:0,0:0:0:0:
186,314,35790,2,0,L|178:245,1,59.4999981842042
324,263,36040,2,0,P|293:266|259:284,1,59.4999981842042,8|0,0:0|0:0,0:0:0:0:
391,307,36290,6,0,P|404:272|399:241,1,59.4999981842042
325,127,36540,2,0,L|334:190,1,59.4999981842042,8|0,0:0|0:0,0:0:0:0:
409,84,36790,1,8,0:0:0:0:
409,84,36852,1,0,0:0:0:0:
409,84,36915,1,0,0:0:0:0:
338,265,37040,1,8,0:0:0:0:
256,101,37165,1,0,0:0:0:0:
175,276,37290,6,0,P|126:274|76:183,1,152.999995330811,4|8,0:0|0:0,0:0:0:0:
158,122,37665,2,0,P|164:166|149:214,1,76.4999976654053
73,106,37915,1,0,0:0:0:0:
238,231,38040,1,8,0:0:0:0:
238,231,38102,1,0,0:0:0:0:
238,231,38165,1,0,0:0:0:0:
323,108,38290,6,0,L|333:190,1,76.4999976654053
158,122,38540,2,0,L|234:134,1,76.4999976654053,8|0,0:0|0:0,0:0:0:0:
453,197,38790,2,0,P|408:228|329:174,1,152.999995330811,0|8,0:0|0:0,0:0:0:0:
260,65,39165,1,0,0:0:0:0:
198,251,39290,6,0,L|286:247,1,76.4999976654053
391,86,39540,2,0,P|401:124|394:165,1,76.4999976654053,8|0,0:0|0:0,0:0:0:0:
339,296,39790,1,0,0:0:0:0:
274,163,39915,1,0,0:0:0:0:
204,332,40040,1,8,0:0:0:0:
127,128,40165,1,0,0:0:0:0:
127,128,40227,1,0,0:0:0:0:
127,128,40290,5,8,0:0:0:0:
204,332,40415,1,0,0:0:0:0:
200,162,40540,1,8,0:0:0:0:
113,375,40665,1,0,0:0:0:0:
113,207,40790,1,8,0:0:0:0:
273,290,40915,1,0,0:0:0:0:
113,375,41040,1,8,0:0:0:0:
36,201,41165,1,8,0:0:0:0:
36,201,41227,1,0,0:0:0:0:
36,201,41290,6,0,L|126:207,1,76.4999976654053,4|0,0:0|0:0,0:0:0:0:
251,155,41540,2,0,P|265:201|258:240,1,76.4999976654053,8|0,0:0|0:0,0:0:0:0:
189,359,41790,2,0,L|183:281,1,76.4999976654053
357,304,42040,2,0,P|323:322|280:319,1,76.4999976654053,8|0,0:0|0:0,0:0:0:0:
302,228,42290,5,0,0:0:0:0:
412,367,42415,1,0,0:0:0:0:
480,186,42540,1,8,0:0:0:0:
357,304,42665,1,0,0:0:0:0:
480,186,42790,6,0,P|488:149|479:108,1,76.4999976654053
357,229,43040,2,0,P|349:266|358:307,1,76.4999976654053,8|0,0:0|0:0,0:0:0:0:
401,141,43290,6,0,P|360:132|322:140,1,76.4999976654053
430,270,43540,2,0,P|471:279|509:271,1,76.4999976654053,8|0,0:0|0:0,0:0:0:0:
350,227,43790,2,0,L|357:316,1,76.4999976654053
483,179,44040,2,0,L|490:90,1,76.4999976654053,8|0,0:0|0:0,0:0:0:0:
401,140,44290,5,0,0:0:0:0:
243,86,44415,1,0,0:0:0:0:
291,308,44540,1,8,0:0:0:0:
315,191,44665,1,0,0:0:0:0:
192,351,44790,5,0,0:0:0:0:
192,351,44852,1,0,0:0:0:0:
192,351,44915,1,0,0:0:0:0:
393,270,45040,1,8,0:0:0:0:
229,162,45165,1,0,0:0:0:0:
388,336,45290,6,0,P|396:304|391:266,1,68
249,292,45540,2,0,L|326:299,1,68,8|0,0:0|0:0,0:0:0:0:
274,148,45790,2,0,L|285:224,1,68
372,77,46040,2,0,L|361:153,1,68,8|0,0:0|0:0,0:0:0:0:
159,116,46290,6,0,P|229:106|277:157,1,136,0|8,0:0|0:0,0:0:0:0:
186,311,46665,2,0,P|175:278|205:178,1,136
334,251,47040,2,0,L|259:254,1,68,8|0,0:0|0:0,0:0:0:0:
396,301,47290,6,0,P|413:261|405:220,1,68
315,108,47540,2,0,P|298:148|306:189,1,68,8|0,0:0|0:0,0:0:0:0:
455,154,47790,2,0,L|376:151,1,68
266,253,48040,2,0,L|345:251,1,68,8|0,0:0|0:0,0:0:0:0:
462,246,48290,5,0,0:0:0:0:
462,246,48352,1,0,0:0:0:0:
462,246,48415,1,0,0:0:0:0:
374,336,48540,1,8,0:0:0:0:
290,172,48665,1,0,0:0:0:0:
230,373,48790,1,0,0:0:0:0:
299,282,48915,1,0,0:0:0:0:
170,192,49040,1,8,0:0:0:0:
309,384,49165,1,0,0:0:0:0:
393,280,49290,6,0,P|398:220|332:169,1,136,0|8,0:0|0:0,0:0:0:0:
190,233,49665,1,0,0:0:0:0:
190,233,49790,2,0,B|230:252|230:252|329:245,1,136,0|8,0:0|0:0,0:0:0:0:
270,136,50165,1,0,0:0:0:0:
270,136,50290,2,0,P|216:160|197:252,1,136,0|8,0:0|0:0,0:0:0:0:
286,351,50665,2,0,B|299:315|299:315|273:215,1,136
145,298,51040,2,0,L|218:309,1,68,8|0,0:0|0:0,0:0:0:0:
98,224,51290,5,12,0:0:0:0:
183,186,51790,1,12,0:0:0:0:
275,261,52290,1,12,0:0:0:0:
391,173,52790,1,12,0:0:0:0:
98,224,53290,6,0,P|66:250|191:268,1,318.75,2|0,0:0|0:0,0:0:0:0:
125,288,54290,1,8,0:0:0:0:
125,288,54790,6,0,L|114:223,2,56.6666666666667,2|0|0,0:0|0:0|0:0,0:0:0:0:
214,347,55040,2,0,L|225:282,2,56.6666666666667,2|0|0,0:0|0:0|0:0,0:0:0:0:
115,232,55290,6,0,P|70:242|36:287,1,85,4|0,0:0|0:0,0:0:0:0:
214,347,55540,2,0,P|259:337|293:292,1,85,8|0,0:0|0:0,0:0:0:0:
207,189,55790,1,0,0:0:0:0:
125,352,55915,1,0,0:0:0:0:
9,202,56040,2,0,L|104:207,1,85,8|0,0:0|0:0,0:0:0:0:
305,276,56290,6,0,P|264:286|215:267,1,85
265,122,56540,2,0,P|276:169|265:214,1,85,8|0,0:0|0:0,0:0:0:0:
172,170,56790,1,0,0:0:0:0:
262,32,56915,1,0,0:0:0:0:
353,212,57040,2,0,L|257:203,1,85,8|0,0:0|0:0,0:0:0:0:
103,113,57290,6,0,B|82:154|82:154|104:298,1,170,0|8,0:0|0:0,0:0:0:0:
172,170,57665,1,0,0:0:0:0:
271,337,57790,2,0,P|228:341|186:319,1,85
255,215,58040,2,0,P|264:253|220:253,1,85,8|0,0:0|0:0,0:0:0:0:
109,208,58290,2,0,P|140:188|226:264,1,170,0|8,0:0|0:0,0:0:0:0:
127,314,58665,1,0,0:0:0:0:
35,193,58790,6,0,L|21:102,1,85
144,3,59040,2,0,L|130:94,1,85,8|0,0:0|0:0,0:0:0:0:
35,193,59290,6,0,B|98:197|98:197|142:222|142:222|206:225,1,170,4|8,0:0|0:0,0:0:0:0:
73,289,59665,1,0,0:0:0:0:
168,60,59790,2,0,P|181:104|173:142,1,85
19,97,60040,2,0,L|108:104,1,85,8|0,0:0|0:0,0:0:0:0:
300,154,60290,6,0,B|173:141|173:141|221:118,1,170,0|8,0:0|0:0,0:0:0:0:
285,71,60665,1,0,0:0:0:0:
361,241,60790,2,0,L|263:231,1,85
106,291,61040,2,0,L|190:299,1,85,8|0,0:0|0:0,0:0:0:0:
313,344,61290,5,4,0:0:0:0:
323,123,61415,1,0,0:0:0:0:
190,299,61540,1,8,0:0:0:0:
291,221,61665,1,0,0:0:0:0:
145,165,61790,5,0,0:0:0:0:
234,367,61915,1,0,0:0:0:0:
370,193,62040,1,8,0:0:0:0:
246,285,62165,1,0,0:0:0:0:
177,67,62290,5,2,0:0:0:0:
168,68,62352,1,2,0:0:0:0:
159,69,62415,1,2,0:0:0:0:
150,70,62477,1,2,0:0:0:0:
141,71,62540,1,10,0:0:0:0:
132,72,62602,1,2,0:0:0:0:
123,73,62665,1,2,0:0:0:0:
114,74,62727,1,2,0:0:0:0:
105,76,62790,6,0,L|61:82,3,42.5,2|0|0|0,0:0|0:0|0:0|0:0,0:0:0:0:
145,165,63040,2,0,L|189:159,1,42.5,10|0,0:0|0:0,0:0:0:0:
271,119,63165,2,0,L|315:113,1,42.5,2|0,0:0|0:0,0:0:0:0:
390,46,63290,6,0,P|413:88|404:147,1,85,4|0,0:0|0:0,0:0:0:0:
360,283,63540,2,0,P|337:241|346:182,1,85,8|0,0:0|0:0,0:0:0:0:
508,216,63790,2,0,L|420:226,1,85
246,96,64040,2,0,L|334:106,1,85,8|0,0:0|0:0,0:0:0:0:
508,216,64290,6,0,P|510:260|477:300,1,85
342,212,64540,2,0,P|383:209|429:229,1,85,8|0,0:0|0:0,0:0:0:0:
385,372,64790,2,0,L|377:281,1,85
224,300,65040,2,0,L|315:332,1,85,8|0,0:0|0:0,0:0:0:0:
149,352,65290,6,0,B|139:306|139:306|182:187,1,170,0|8,0:0|0:0,0:0:0:0:
225,303,65665,1,0,0:0:0:0:
73,230,65790,2,0,L|114:128,1,85
157,22,66040,2,0,L|198:124,1,85,8|0,0:0|0:0,0:0:0:0:
310,239,66290,6,0,P|252:259|177:182,1,170,0|8,0:0|0:0,0:0:0:0:
257,178,66665,1,0,0:0:0:0:
330,319,66790,2,0,P|285:338|241:332,1,85
98,208,67040,2,0,P|143:189|187:195,1,85,8|0,0:0|0:0,0:0:0:0:
34,279,67290,6,0,B|12:237|12:237|29:105,1,170,4|8,0:0|0:0,0:0:0:0:
98,208,67665,1,0,0:0:0:0:
160,326,67790,2,0,P|201:328|246:304,1,85
201,158,68040,2,0,P|184:205|192:256,1,85,8|0,0:0|0:0,0:0:0:0:
356,286,68290,6,0,P|344:209|258:211,1,170,0|8,0:0|0:0,0:0:0:0:
260,308,68665,1,0,0:0:0:0:
445,288,68790,2,0,P|449:245|428:200,1,85
307,115,69040,2,0,P|303:158|324:203,1,85,8|0,0:0|0:0,0:0:0:0:
389,74,69290,5,4,0:0:0:0:
201,152,69415,1,0,0:0:0:0:
334,305,69540,1,8,0:0:0:0:
318,196,69665,1,0,0:0:0:0:
206,356,69790,5,8,0:0:0:0:
201,152,69915,1,0,0:0:0:0:
383,244,70040,1,8,0:0:0:0:
256,256,70165,1,0,0:0:0:0:
293,99,70290,6,0,L|382:113,1,85,8|0,0:0|0:0,0:0:0:0:
201,152,70540,2,0,L|112:166,1,85,8|0,0:0|0:0,0:0:0:0:
286,249,70790,1,8,0:0:0:0:
230,16,70915,1,8,0:0:0:0:
286,249,71040,1,8,0:0:0:0:
230,16,71165,1,8,0:0:0:0:
286,249,71290,6,0,B|304:348|304:348|271:327,1,127.500004863739,4|8,0:0|0:0,0:0:0:0:
204,283,71665,1,0,0:0:0:0:
204,283,71790,2,0,P|186:316|186:344,1,63.7500024318696
267,190,72040,2,0,P|285:223|285:251,1,63.7500024318696,8|0,0:0|0:0,0:0:0:0:
90,223,72290,6,0,P|148:252|215:237,1,127.500004863739,0|8,0:0|0:0,0:0:0:0:
185,110,72665,1,0,0:0:0:0:
185,110,72790,2,0,P|164:141|159:179,1,63.7500024318696
299,184,73040,2,0,P|272:167|229:165,1,63.7500024318696,8|0,0:0|0:0,0:0:0:0:
236,362,73290,6,0,B|251:335|251:335|248:237,1,127.500004863739,4|8,0:0|0:0,0:0:0:0:
168,303,73665,1,0,0:0:0:0:
168,303,73790,2,0,P|130:311|101:304,1,63.7500024318696
116,169,74040,2,0,P|131:202|130:236,1,63.7500024318696,8|0,0:0|0:0,0:0:0:0:
43,216,74290,5,0,0:0:0:0:
112,56,74415,1,0,0:0:0:0:
217,192,74540,1,8,0:0:0:0:
109,41,74665,1,0,0:0:0:0:
48,214,74790,1,8,0:0:0:0:
210,76,74915,1,0,0:0:0:0:
147,285,75040,1,8,0:0:0:0:
147,285,75102,1,0,0:0:0:0:
147,285,75165,1,8,0:0:0:0:
147,285,75227,1,0,0:0:0:0:
147,285,75290,6,0,L|67:294,1,76.4999976654053,4|0,0:0|0:0,0:0:0:0:
225,352,75540,2,0,L|305:361,1,76.4999976654053,8|0,0:0|0:0,0:0:0:0:
291,204,75790,2,0,P|269:250|268:280,1,76.4999976654053
428,277,76040,2,0,P|392:258|347:259,1,76.4999976654053,8|0,0:0|0:0,0:0:0:0:
225,352,76290,6,0,L|148:343,1,76.4999976654053
184,188,76540,2,0,P|200:230|192:270,1,76.4999976654053,8|0,0:0|0:0,0:0:0:0:
44,244,76790,2,0,L|135:240,1,76.4999976654053
109,82,77040,2,0,L|85:162,1,76.4999976654053,8|0,0:0|0:0,0:0:0:0:
181,41,77290,5,4,0:0:0:0:
256,195,77415,1,0,0:0:0:0:
322,77,77540,1,8,0:0:0:0:
377,182,77665,1,0,0:0:0:0:
199,128,77790,1,0,0:0:0:0:
236,303,77915,1,0,0:0:0:0:
271,197,78040,1,8,0:0:0:0:
318,358,78165,1,0,0:0:0:0:
152,255,78290,5,6,0:0:0:0:
152,255,78352,1,0,0:0:0:0:
152,255,78415,1,2,0:0:0:0:
367,276,78540,1,8,0:0:0:0:
302,104,78665,1,0,0:0:0:0:
273,332,78790,1,0,0:0:0:0:
453,228,78915,1,0,0:0:0:0:
229,194,79040,1,8,0:0:0:0:
403,343,79165,1,0,0:0:0:0:
335,201,79290,6,0,P|325:240|333:278,1,76.4999976654053
484,252,79540,2,0,P|445:240|403:244,1,76.4999976654053,8|0,0:0|0:0,0:0:0:0:
270,354,79790,1,2,0:0:0:0:
262,354,79852,1,2,0:0:0:0:
254,353,79915,1,2,0:0:0:0:
246,352,79977,1,2,0:0:0:0:
238,351,80040,1,8,0:0:0:0:
230,350,80102,1,2,0:0:0:0:
222,349,80165,1,2,0:0:0:0:
214,348,80227,1,2,0:0:0:0:
206,347,80290,6,0,L|157:339,3,38.2499988327027
96,293,80540,2,0,L|47:285,3,38.2499988327027,8|0|0|0,0:0|0:0|0:0|0:0,0:0:0:0:
161,196,80790,6,0,B|179:243|179:243|167:347,1,148.75,4|0,0:0|0:0,0:0:0:0:
167,340,81290,6,0,P|225:307|301:336,1,152.999995330811,4|0,0:0|0:0,0:0:0:0:
