osu file format v14

[General]
AudioFilename: audio.mp3
AudioLeadIn: 0
PreviewTime: 120188
Countdown: 0
SampleSet: Soft
StackLeniency: 0.4
Mode: 0
LetterboxInBreaks: 0
WidescreenStoryboard: 1

[Editor]
Bookmarks: 185290
DistanceSpacing: 0.9
BeatDivisor: 4
GridSize: 4
TimelineZoom: 2.5

[Metadata]
Title:Los! Los! Los!
TitleUnicode:Los! Los! Los!
Artist:Tanya Degurechaff (CV. Aoi Yuuki)
ArtistUnicode:ターニャ・デグレチャフ(CV:悠木碧)
Creator:sinn
Version:MAS's Sheer Madness
Source:幼女戦記
Tags:my angel settia jejunedeity youjo senki saga of tanya the evil ed ending full
BeatmapID:1414214
BeatmapSetID:667143

[Difficulty]
HPDrainRate:5
CircleSize:4
OverallDifficulty:9.5
ApproachRate:10
SliderMultiplier:1.7
SliderTickRate:1

[Events]
//Background and Video events
0,0,"stretched-1920-1080-795062.png",0,0
//Break Periods
2,148365,151811
//Storyboard Layer 0 (Background)
//Storyboard Layer 1 (Fail)
//Storyboard Layer 2 (Pass)
//Storyboard Layer 3 (Foreground)
//Storyboard Sound Samples

[TimingPoints]
1290,250,4,2,4,40,1,0
1290,-100,4,2,4,40,0,0
3790,-117.647058823529,4,2,4,40,0,0
4290,-153.846153846154,4,2,4,40,0,0
4790,-200,4,2,4,40,0,0
5290,-100,4,2,4,40,0,0
9290,-90.9090909090908,4,2,4,40,0,0
13290,-83.3333333333333,4,2,4,40,0,0
34290,-111.111111111111,4,2,4,40,0,0
35290,-83.3333333333333,4,2,4,40,0,0
36290,-111.111111111111,4,2,4,40,0,0
37290,-100,4,2,4,40,0,0
39540,-83.3333333333333,4,2,4,40,0,0
55290,-71.4285714285714,4,2,4,70,0,1
71290,-90.9090909090909,4,2,4,40,0,0
75290,-71.4285714285714,4,2,4,40,0,0
77290,-71.4285714285714,4,2,4,70,0,0
81290,-90.9090909090909,4,2,4,40,0,0
89456,-142.857142857143,4,2,4,40,0,0
90290,-90.9090909090909,4,2,4,40,0,0
97790,-111.111111111111,4,2,4,40,0,0
98290,-100,4,2,4,40,0,0
99290,-90.9090909090909,4,2,4,40,0,0
100290,-100,4,2,4,40,0,0
101665,-90.9090909090909,4,2,4,40,0,0
106290,-111.111111111111,4,2,4,40,0,0
120290,-71.4285714285714,4,2,4,70,0,1
136290,-100,4,2,4,40,0,0
142290,-100,4,2,4,70,0,0
144290,500,4,2,4,40,1,0
144290,-222.222222222222,4,2,4,40,0,0
148290,250,4,2,4,40,1,0
152290,-200,4,2,4,30,0,0
160290,250,4,2,4,40,1,0
160290,-83.3333333333333,4,2,4,65,0,0
172290,-71.4285714285714,4,2,4,75,0,1
188290,-100,4,2,4,70,0,0
200290,-100,4,2,4,75,0,0

[HitObjects]
98,134,1290,6,0,P|75:178|75:213,1,85
166,74,1540,2,0,L|64:44,1,85
161,193,1790,2,0,L|324:145,1,170
408,222,2165,5,0,0:0:0:0:
408,222,2290,2,0,B|396:176|396:176|408:138,1,85
502,45,2540,2,0,B|514:91|514:91|502:129,1,85
491,309,2790,2,0,B|428:304|428:304|387:329|387:329|306:323,1,170
204,315,3165,1,0,0:0:0:0:
334,174,3290,6,0,P|357:218|357:253,1,85
266,114,3540,2,0,L|368:84,1,85
34,114,3790,6,0,L|31:34,1,72.2500013780594
157,124,4040,2,0,L|160:44,1,72.2500013780594
36,169,4290,6,0,L|33:89,1,55.2499974708558
154,179,4540,2,0,L|157:99,1,55.2499974708558
37,211,4790,6,0,L|34:155,1,42.5
152,221,5040,2,0,L|154:164,1,42.5
20,328,5290,6,0,B|66:335|93:319|93:319|109:323|127:333|127:333|158:319|206:335,1,170
314,333,5665,1,0,0:0:0:0:
269,117,5790,1,0,0:0:0:0:
269,117,5915,2,0,B|245:82|245:82|230:216,1,170
314,333,6290,6,0,L|402:339,1,85
230,208,6540,2,0,L|142:214,1,85
384,259,6790,2,0,B|384:186|384:186|376:175|376:175|376:68,1,170
376,0,7165,1,0,0:0:0:0:
232,288,7290,6,0,P|219:245|232:203,1,85
510,288,7540,2,0,P|523:245|510:203,1,85
376,91,7790,2,0,B|376:175|376:175|384:186|384:186|384:259,1,170
384,364,8165,1,0,0:0:0:0:
232,288,8290,5,0,0:0:0:0:
232,288,8415,1,0,0:0:0:0:
155,216,8540,2,0,P|232:184|308:216,1,170
384,364,8915,1,0,0:0:0:0:
234,368,9040,2,0,P|221:325|234:283,1,85
401,29,9290,5,8,0:0:0:0:
366,201,9540,1,8,0:0:0:0:
111,355,9790,5,8,0:0:0:0:
146,183,10040,1,8,0:0:0:0:
439,353,10290,5,8,0:0:0:0:
181,277,10540,1,8,0:0:0:0:
73,31,10790,5,8,0:0:0:0:
331,107,11040,1,12,0:0:0:0:
368,213,11290,5,8,0:0:0:0:
413,95,11415,1,8,0:0:0:0:
306,245,11540,5,8,0:0:0:0:
331,107,11665,1,8,0:0:0:0:
247,275,11790,5,8,0:0:0:0:
246,120,11915,1,8,0:0:0:0:
186,297,12040,5,8,0:0:0:0:
155,139,12165,1,8,0:0:0:0:
15,290,12290,5,8,0:0:0:0:
15,290,12352,1,8,0:0:0:0:
15,290,12415,1,8,0:0:0:0:
29,129,12540,1,8,0:0:0:0:
79,355,12665,1,8,0:0:0:0:
271,351,12790,6,0,L|274:320,1,23.3750007133484,8|0,0:0|0:0,0:0:0:0:
311,341,12852,2,0,L|306:310,1,23.3750007133484
348,322,12915,2,0,L|335:293,1,23.3750007133484
378,293,12977,2,0,L|358:268,1,23.3750007133484
400,258,13040,2,0,L|374:239,1,23.3750007133484,0|8,0:0|0:0,0:0:0:0:
412,218,13102,2,0,L|382:207,1,23.3750007133484
413,177,13165,2,0,L|382:174,1,23.3750007133484
404,136,13227,2,0,L|373:141,1,23.3750007133484
375,63,13290,6,0,L|262:79,1,101.999996887207,6|0,0:0|0:0,0:0:0:0:
146,208,13540,5,8,0:0:0:0:
120,39,13665,1,0,0:0:0:0:
149,225,13790,1,0,0:0:0:0:
15,93,13915,5,0,0:0:0:0:
201,122,14040,1,8,0:0:0:0:
32,208,14165,1,0,0:0:0:0:
215,49,14290,6,0,P|264:81|254:181,1,152.999995330811
256,184,14540,2,0,L|365:179,1,101.999996887207,8|0,0:0|0:0,0:0:0:0:
459,22,14790,2,0,B|474:73|474:73|460:123,1,101.999996887207
359,277,15040,2,0,B|344:226|344:226|358:176,1,101.999996887207,8|0,0:0|0:0,0:0:0:0:
510,338,15290,6,0,B|430:334|430:334|399:364|399:364|311:361,1,203.999993774414,0|8,0:0|0:0,0:0:0:0:
125,287,15665,1,0,0:0:0:0:
224,140,15790,1,0,0:0:0:0:
217,384,15915,1,0,0:0:0:0:
75,226,16040,2,0,P|126:209|176:226,1,101.999996887207,8|0,0:0|0:0,0:0:0:0:
318,361,16290,6,0,B|330:314|330:314|319:280|319:280|332:241|332:241|320:204|320:204|330:160,1,203.999993774414,0|8,0:0|0:0,0:0:0:0:
398,58,16665,5,0,0:0:0:0:
224,140,16790,1,0,0:0:0:0:
405,198,16915,5,0,0:0:0:0:
221,43,17040,1,8,0:0:0:0:
405,198,17165,1,0,0:0:0:0:
151,347,17290,5,12,0:0:0:0:
178,241,17415,1,0,0:0:0:0:
256,318,17540,1,8,0:0:0:0:
74,286,17665,5,8,0:0:0:0:
162,160,17790,1,0,0:0:0:0:
10,149,17915,1,0,0:0:0:0:
350,39,18040,5,8,0:0:0:0:
241,185,18165,1,0,0:0:0:0:
169,16,18290,1,0,0:0:0:0:
384,162,18415,5,8,0:0:0:0:
256,318,18540,1,0,0:0:0:0:
455,349,18665,1,0,0:0:0:0:
159,100,18790,5,8,0:0:0:0:
193,368,18915,1,0,0:0:0:0:
159,100,19040,5,8,0:0:0:0:
193,368,19165,1,0,0:0:0:0:
424,122,19290,6,0,B|345:132|345:132|311:173|311:173|228:186,1,203.999993774414,8|8,0:0|0:0,0:0:0:0:
83,198,19665,1,0,0:0:0:0:
266,95,19790,5,0,0:0:0:0:
135,315,19915,1,0,0:0:0:0:
480,267,20040,5,0,0:0:0:0:
307,175,20165,1,0,0:0:0:0:
273,349,20290,5,8,0:0:0:0:
330,256,20415,1,0,0:0:0:0:
174,223,20540,5,0,0:0:0:0:
248,272,20665,1,0,0:0:0:0:
292,47,20790,6,0,P|241:34|190:47,1,101.999996887207
307,175,21040,2,0,P|358:188|409:175,1,101.999996887207
70,60,21290,6,0,B|18:160|121:160|67:266,2,203.999993774414,14|0|0,0:0|0:0|0:0,0:0:0:0:
235,61,21915,2,0,P|252:113|233:159,1,101.999996887207
185,331,22165,1,0,0:0:0:0:
185,331,22290,6,0,L|178:226,1,101.999996887207
292,311,22540,2,0,L|294:205,1,101.999996887207
404,335,22790,2,0,L|426:125,1,203.999993774414
67,57,23290,5,14,0:0:0:0:
65,230,23415,1,0,0:0:0:0:
199,71,23540,1,0,0:0:0:0:
34,267,23665,1,0,0:0:0:0:
211,165,23790,5,0,0:0:0:0:
67,57,23915,1,0,0:0:0:0:
226,268,24040,1,0,0:0:0:0:
199,71,24165,1,0,0:0:0:0:
293,319,24290,5,0,0:0:0:0:
136,242,24415,1,0,0:0:0:0:
306,213,24540,1,0,0:0:0:0:
186,336,24665,1,0,0:0:0:0:
211,165,24790,5,8,0:0:0:0:
293,319,24915,1,0,0:0:0:0:
136,242,25040,2,0,B|211:235|211:235|255:265|255:265|339:255,1,203.999993774414,14|0,0:0|0:0,0:0:0:0:
447,241,25415,1,0,0:0:0:0:
413,137,25540,6,0,P|364:127|315:150,1,101.999996887207,8|0,0:0|0:0,0:0:0:0:
349,360,25790,2,0,P|398:370|447:347,1,101.999996887207,0|8,0:0|0:0,0:0:0:0:
447,241,26040,2,0,L|337:255,1,101.999996887207
195,332,26290,6,0,B|176:345|162:372|162:372|157:210,1,203.999993774414,8|0,0:0|0:0,0:0:0:0:
162,63,26665,2,0,P|215:2|247:87,1,203.999993774414
103,159,27040,6,0,B|205:106|207:201|308:151,1,203.999993774414,8|0,0:0|0:0,0:0:0:0:
431,55,27415,1,0,0:0:0:0:
423,182,27540,1,8,0:0:0:0:
431,44,27665,1,0,0:0:0:0:
340,122,27790,5,0,0:0:0:0:
511,115,27915,1,8,0:0:0:0:
350,122,28040,5,0,0:0:0:0:
503,115,28165,1,0,0:0:0:0:
270,238,28290,6,0,P|355:281|419:211,1,203.999993774414,8|0,0:0|0:0,0:0:0:0:
511,115,28665,2,0,B|429:113|429:113|412:131|412:131|296:129,1,203.999993774414
185,0,29040,2,0,B|202:47|202:47|179:103,1,101.999996887207,8|0,0:0|0:0,0:0:0:0:
56,202,29290,5,0,0:0:0:0:
236,204,29415,1,0,0:0:0:0:
121,51,29540,2,0,B|110:37|98:9|98:9|64:174,1,203.999993774414,8|0,0:0|0:0,0:0:0:0:
236,204,29915,1,8,0:0:0:0:
236,204,30040,2,0,P|191:173|137:178,1,101.999996887207
50,368,30290,6,0,P|159:317|164:223,1,203.999993774414,8|0,0:0|0:0,0:0:0:0:
330,272,30665,2,0,P|276:281|241:323,1,101.999996887207
421,343,30915,1,0,0:0:0:0:
444,218,31040,1,8,0:0:0:0:
417,369,31165,1,0,0:0:0:0:
220,125,31290,6,0,P|270:142|321:125,1,101.999996887207
444,218,31540,2,0,P|394:235|343:218,1,101.999996887207
389,67,31790,2,0,B|409:116|409:116|389:168,1,101.999996887207,0|8,0:0|0:0,0:0:0:0:
266,312,32040,2,0,B|246:263|246:263|266:211,1,101.999996887207,0|8,0:0|0:0,0:0:0:0:
452,23,32290,6,0,P|454:112|332:117,1,203.999993774414,8|0,0:0|0:0,0:0:0:0:
216,10,32665,2,0,P|265:-4|317:10,1,101.999996887207,8|0,0:0|0:0,0:0:0:0:
389,67,32915,1,0,0:0:0:0:
266,92,33040,1,0,0:0:0:0:
389,67,33165,1,0,0:0:0:0:
218,176,33290,6,0,P|181:140|167:88,1,101.999996887207,6|0,0:0|0:0,0:0:0:0:
361,92,33540,2,0,P|348:141|310:179,1,101.999996887207
216,10,33790,2,0,P|265:-3|317:9,1,101.999996887207,8|0,0:0|0:0,0:0:0:0:
218,176,34040,2,0,P|181:140|167:88,1,101.999996887207
73,0,34290,6,0,L|56:152,1,152.999995330811
44,281,34665,1,0,0:0:0:0:
232,318,34790,5,8,0:0:0:0:
112,216,34915,1,0,0:0:0:0:
95,363,35040,5,0,0:0:0:0:
218,176,35165,1,0,0:0:0:0:
272,384,35290,6,0,P|310:334|307:285,1,101.999996887207,0|8,0:0|0:0,0:0:0:0:
331,160,35540,2,0,P|355:217|399:239,1,101.999996887207
495,323,35790,2,0,P|432:315|391:342,1,101.999996887207,8|0,3:0|3:0,3:0:0:0:
272,384,36040,6,0,P|310:334|307:285,1,101.999996887207
407,152,36290,6,0,L|228:170,1,152.999995330811
142,177,36665,1,0,0:0:0:0:
243,83,36790,5,8,0:0:0:0:
48,134,36915,1,8,0:0:0:0:
48,134,36977,1,8,0:0:0:0:
48,134,37040,1,8,0:0:0:0:
154,30,37165,1,8,0:0:0:0:
109,277,37290,6,0,B|137:306|137:306|142:159,2,170,4|8|0,0:0|0:0|0:0,0:0:0:0:
36,217,37915,1,0,0:0:0:0:
219,247,38040,1,8,0:0:0:0:
18,214,38165,1,0,0:0:0:0:
218,329,38290,6,0,B|228:289|228:289|218:245,1,85
300,130,38540,2,0,B|290:172|290:172|300:212,1,85,8|0,0:0|0:0,0:0:0:0:
383,321,38790,2,0,L|468:317,2,85,0|0|8,0:0|0:0|0:0,0:0:0:0:
218,329,39165,1,0,0:0:0:0:
370,173,39290,1,0,0:0:0:0:
299,326,39415,1,0,0:0:0:0:
399,96,39540,6,0,P|454:172|385:252,1,203.999993774414,8|0,0:0|0:0,0:0:0:0:
218,329,39915,1,0,0:0:0:0:
176,142,40040,2,0,L|188:40,1,101.999996887207,8|0,0:0|0:0,0:0:0:0:
187,40,40227,1,0,0:0:0:0:
187,40,40290,5,8,0:0:0:0:
276,118,40415,1,0,0:0:0:0:
77,166,40540,1,0,0:0:0:0:
296,114,40665,1,0,0:0:0:0:
92,36,40790,5,8,0:0:0:0:
152,264,40915,1,8,0:0:0:0:
296,114,41040,1,8,0:0:0:0:
77,166,41165,1,8,0:0:0:0:
217,316,41290,6,0,P|234:260|217:214,1,101.999996887207,6|0,0:0|0:0,0:0:0:0:
14,116,41540,2,0,P|-3:172|14:218,1,101.999996887207,8|0,0:0|0:0,0:0:0:0:
175,148,41790,6,0,B|124:146|124:146|75:165,1,101.999996887207
217,316,42040,2,0,B|267:317|267:317|316:298,1,101.999996887207,8|0,0:0|0:0,0:0:0:0:
415,156,42290,2,0,L|442:369,2,203.999993774414,0|8|0,0:0|0:0|0:0,0:0:0:0:
400,51,42915,1,0,0:0:0:0:
120,60,43040,6,0,L|222:55,1,101.999996887207,8|0,0:0|0:0,0:0:0:0:
400,51,43290,1,10,0:0:0:0:
400,51,43415,1,0,0:0:0:0:
235,157,43540,1,8,0:0:0:0:
305,0,43665,1,0,0:0:0:0:
377,218,43790,6,0,B|296:213|296:213|248:236|248:236|171:233,1,203.999993774414,0|8,0:0|0:0,0:0:0:0:
0,220,44165,1,0,2:0:0:0:
151,125,44290,1,8,2:0:0:0:
85,291,44415,1,8,2:0:0:0:
41,118,44540,1,8,2:0:0:0:
178,233,44665,1,0,0:0:0:0:
0,305,44790,5,8,0:0:0:0:
235,160,44915,1,8,0:0:0:0:
0,305,45040,1,8,0:0:0:0:
235,157,45165,1,8,0:0:0:0:
106,343,45290,2,0,P|114:270|183:232,1,152.999995330811,12|0,0:0|0:0,0:0:0:0:
195,232,45540,6,0,L|296:249,1,101.999996887207,8|0,0:0|0:0,0:0:0:0:
411,384,45790,2,0,B|390:337|390:337|411:282,1,101.999996887207
510,108,46040,2,0,B|531:155|531:155|510:210,1,101.999996887207,8|0,0:0|0:0,0:0:0:0:
294,249,46290,1,0,0:0:0:0:
437,160,46415,1,0,0:0:0:0:
474,336,46540,5,8,0:0:0:0:
369,200,46665,1,0,0:0:0:0:
485,350,46790,1,0,0:0:0:0:
358,186,46915,1,0,0:0:0:0:
215,351,47040,6,0,B|177:310|177:310|198:147,1,203.999993774414,8|0,0:0|0:0,0:0:0:0:
235,15,47415,1,0,0:0:0:0:
317,36,47540,2,0,P|257:97|157:48,1,203.999993774414,8|0,0:0|0:0,0:0:0:0:
65,31,47915,1,0,0:0:0:0:
6,178,48040,6,0,B|48:211|48:211|64:48,1,203.999993774414,12|8,0:0|0:0,0:0:0:0:
39,291,48415,1,0,0:0:0:0:
198,337,48540,1,8,0:0:0:0:
198,337,48602,1,8,0:0:0:0:
198,337,48665,1,8,0:0:0:0:
46,210,48790,1,0,0:0:0:0:
214,350,48915,1,0,0:0:0:0:
213,240,49040,1,0,0:0:0:0:
119,296,49165,1,0,0:0:0:0:
376,245,49290,6,0,P|300:191|208:247,2,203.999993774414,12|0|8,0:0|0:0|0:0,0:0:0:0:
422,384,49915,2,0,B|423:318|423:318|454:283|454:283|454:186,1,203.999993774414,4|0,0:0|0:0,0:0:0:0:
315,111,50290,2,0,P|299:159|324:212,2,101.999996887207,8|0|0,0:0|0:0|2:0,2:0:0:0:
378,36,50665,1,0,0:0:0:0:
480,143,50790,2,0,L|378:156,1,101.999996887207,8|0,0:0|0:0,0:0:0:0:
276,23,51040,2,0,L|378:36,1,101.999996887207
110,240,51290,5,12,0:0:0:0:
103,265,51790,1,12,0:0:0:0:
195,35,52290,5,12,0:0:0:0:
202,60,52790,1,12,0:0:0:0:
256,192,53290,12,12,54290,0:0:0:0:
182,263,54790,6,0,P|192:301|219:336,1,67.9999979248048,2|0,0:0|3:0,0:0:0:0:
251,88,54956,2,0,P|276:64|292:34,1,67.9999979248048,2|0,0:0|3:0,0:0:0:0:
66,115,55123,2,0,P|33:105|0:106,1,67.9999979248048,2|0,0:0|3:0,0:0:0:0:
276,276,55290,6,0,B|330:294|330:294|405:271,1,118.999996368408,4|0,0:0|0:0,0:0:0:0:
512,129,55540,2,0,B|448:118|448:118|394:145|394:145|318:134,1,178.499994552612,8|0,0:0|0:0,0:0:0:0:
175,101,55790,1,0,0:0:0:0:
365,66,55915,1,0,0:0:0:0:
273,179,56040,1,8,0:0:0:0:
391,35,56165,1,0,0:0:0:0:
158,26,56290,6,0,P|100:117|205:172,1,237.999992736817,0|8,0:0|0:0,0:0:0:0:
208,276,56665,1,0,0:0:0:0:
175,101,56790,1,0,0:0:0:0:
300,254,56915,1,0,0:0:0:0:
104,285,57040,1,8,0:0:0:0:
273,179,57165,1,0,0:0:0:0:
404,368,57290,6,0,B|350:342|302:382|302:382|286:344|286:344|256:321,1,178.499994552612
106,198,57540,1,8,0:0:0:0:
300,254,57665,1,0,0:0:0:0:
104,285,57790,1,0,0:0:0:0:
273,179,57915,1,0,0:0:0:0:
105,363,58040,2,0,P|47:338|27:274,1,118.999996368408,8|0,0:0|0:0,0:0:0:0:
0,64,58290,6,0,B|127:11|110:126|237:66,1,237.999992736817,0|8,0:0|0:0,0:0:0:0:
273,179,58665,1,0,0:0:0:0:
171,11,58790,1,0,0:0:0:0:
417,103,58915,1,0,0:0:0:0:
417,103,58977,1,0,0:0:0:0:
417,103,59040,1,8,0:0:0:0:
186,220,59165,1,0,0:0:0:0:
512,13,59290,6,0,B|512:91|512:91|500:107|500:107|500:207,1,178.499994552612,4|0,0:0|0:0,0:0:0:0:
310,326,59540,1,8,0:0:0:0:
273,179,59665,1,0,0:0:0:0:
511,283,59790,5,0,0:0:0:0:
293,329,59915,1,0,0:0:0:0:
511,283,60040,1,8,0:0:0:0:
257,172,60165,1,0,0:0:0:0:
163,368,60290,6,0,P|86:352|159:311,1,178.499994552612
293,329,60540,1,8,0:0:0:0:
257,172,60665,1,0,0:0:0:0:
163,368,60790,1,0,0:0:0:0:
391,300,60915,1,0,0:0:0:0:
197,119,61040,1,8,0:0:0:0:
163,368,61165,1,0,0:0:0:0:
358,114,61290,6,0,B|372:55|372:55|341:-16,1,118.999996368408
197,119,61540,1,8,0:0:0:0:
385,226,61665,1,0,0:0:0:0:
129,65,61790,2,0,B|115:124|115:124|146:195,1,118.999996368408
385,226,62040,1,8,0:0:0:0:
274,63,62165,1,0,0:0:0:0:
274,63,62227,1,0,0:0:0:0:
274,63,62290,2,0,L|276:126,1,59.4999981842042,2|0,0:0|0:0,0:0:0:0:
236,302,62415,5,2,0:0:0:0:
264,339,62477,1,2,0:0:0:0:
307,357,62540,1,10,0:0:0:0:
353,351,62602,1,2,0:0:0:0:
392,323,62665,1,2,0:0:0:0:
410,281,62727,1,2,0:0:0:0:
385,226,62790,5,2,0:0:0:0:
340,226,62852,1,2,0:0:0:0:
295,226,62915,1,2,0:0:0:0:
251,226,62977,1,2,0:0:0:0:
206,226,63040,6,0,B|176:234|176:234|132:264,1,59.4999981842042,8|0,0:0|0:0,0:0:0:0:
319,281,63165,2,0,B|334:254|334:254|344:201,1,59.4999981842042,2|0,0:0|0:0,0:0:0:0:
430,2,63290,6,0,P|479:72|419:146,1,178.499994552612,4|0,0:0|0:0,0:0:0:0:
265,73,63540,1,8,0:0:0:0:
512,171,63665,1,0,0:0:0:0:
319,280,63790,1,0,0:0:0:0:
403,73,63915,1,0,0:0:0:0:
322,378,64040,2,0,P|292:332|331:274,1,118.999996368408,8|0,0:0|0:0,0:0:0:0:
512,171,64290,6,0,B|426:167|426:167|372:205|372:205|280:199,1,237.999992736817,0|8,0:0|0:0,0:0:0:0:
100,178,64665,1,0,0:0:0:0:
285,42,64790,1,0,0:0:0:0:
310,270,64915,1,0,0:0:0:0:
100,178,65040,1,8,0:0:0:0:
446,241,65165,1,0,0:0:0:0:
50,358,65290,6,0,B|108:345|108:345|144:306|144:306|211:295,1,178.499994552612
310,270,65540,1,8,0:0:0:0:
100,178,65665,1,0,0:0:0:0:
240,360,65790,5,0,0:0:0:0:
197,58,65915,1,0,0:0:0:0:
240,360,66040,1,8,0:0:0:0:
197,58,66165,1,0,0:0:0:0:
446,239,66290,2,0,P|405:328|310:253,1,237.999992736817,0|8,0:0|0:0,0:0:0:0:
460,147,66665,5,0,0:0:0:0:
240,175,66790,1,0,0:0:0:0:
512,80,66915,1,0,0:0:0:0:
512,80,66977,1,0,0:0:0:0:
512,80,67040,1,8,0:0:0:0:
304,78,67165,1,0,0:0:0:0:
446,320,67290,6,0,B|450:260|450:260|464:231|464:231|455:202|455:202|460:142,1,178.499994552612,4|0,0:0|0:0,0:0:0:0:
472,0,67540,1,8,0:0:0:0:
383,230,67665,1,0,0:0:0:0:
226,84,67790,2,0,P|242:28|312:-1,1,118.999996368408
464,231,68040,2,0,P|448:287|378:316,1,118.999996368408,8|0,0:0|0:0,0:0:0:0:
41,378,68290,6,0,B|-10:317|38:251|38:251|5:204|41:140,1,237.999992736817,0|8,0:0|0:0,0:0:0:0:
277,88,68665,1,0,0:0:0:0:
98,198,68790,1,0,0:0:0:0:
214,0,68915,1,0,0:0:0:0:
205,294,69040,1,8,0:0:0:0:
32,156,69165,1,0,0:0:0:0:
32,156,69227,1,0,0:0:0:0:
32,156,69290,5,4,0:0:0:0:
277,88,69415,1,0,0:0:0:0:
119,288,69540,1,8,0:0:0:0:
130,34,69665,1,0,0:0:0:0:
271,246,69790,1,8,0:0:0:0:
32,156,69915,1,0,0:0:0:0:
277,88,70040,1,8,0:0:0:0:
119,288,70165,1,0,0:0:0:0:
214,0,70290,5,8,0:0:0:0:
291,318,70415,1,0,0:0:0:0:
98,198,70540,5,8,0:0:0:0:
277,88,70665,1,0,0:0:0:0:
291,318,70790,5,8,0:0:0:0:
169,157,70915,1,8,0:0:0:0:
443,153,71040,5,8,0:0:0:0:
331,169,71165,1,8,0:0:0:0:
448,51,71290,6,0,B|483:113|472:188|472:188|439:164|439:131,1,187.000005706787,12|0,0:0|0:0,0:0:0:0:
324,31,71665,1,0,0:0:0:0:
324,31,71727,1,0,0:0:0:0:
324,31,71790,2,0,B|245:26|245:26|213:54|213:54|137:58,1,187.000005706787,8|0,0:0|0:0,0:0:0:0:
21,186,72290,6,0,B|125:148|107:228|212:184,1,187.000005706787
317,338,72665,1,0,0:0:0:0:
317,338,72727,1,0,0:0:0:0:
317,338,72790,2,0,P|261:280|348:255,1,187.000005706787,8|0,0:0|0:0,0:0:0:0:
458,350,73290,6,0,B|495:276|451:215|451:215|485:170,1,187.000005706787,4|0,0:0|0:0,0:0:0:0:
497,70,73665,1,0,0:0:0:0:
497,70,73727,1,0,0:0:0:0:
497,70,73790,2,0,B|434:101|390:60|390:60|383:94|383:94|353:126,1,187.000005706787,8|0,0:0|0:0,0:0:0:0:
219,215,74290,5,0,0:0:0:0:
160,48,74415,2,0,B|179:30|185:5|185:5|207:143,1,187.000005706787,8|0,0:0|0:0,0:0:0:0:
242,332,74790,1,8,0:0:0:0:
94,204,74915,1,0,0:0:0:0:
458,249,75040,1,8,0:0:0:0:
458,249,75102,1,8,0:0:0:0:
458,249,75165,1,8,0:0:0:0:
458,249,75227,1,8,0:0:0:0:
458,249,75290,6,0,P|379:345|305:283,1,237.999992736817,4|8,0:0|0:0,0:0:0:0:
244,122,75665,1,0,0:0:0:0:
439,320,75790,1,0,0:0:0:0:
227,261,75915,1,0,0:0:0:0:
503,338,76040,1,8,0:0:0:0:
375,119,76165,1,0,0:0:0:0:
150,334,76290,6,0,B|150:264|150:264|139:244|139:244|139:144,1,178.499994552612
250,8,76540,1,8,0:0:0:0:
227,261,76665,1,0,0:0:0:0:
20,152,76790,1,0,0:0:0:0:
311,175,76915,1,0,0:0:0:0:
150,334,77040,1,8,0:0:0:0:
123,96,77165,1,0,0:0:0:0:
123,96,77227,1,0,0:0:0:0:
123,96,77290,5,8,0:0:0:0:
373,66,77415,1,0,0:0:0:0:
94,218,77540,1,8,0:0:0:0:
250,8,77665,1,0,0:0:0:0:
284,353,77790,5,8,0:0:0:0:
123,96,77915,1,0,0:0:0:0:
450,172,78040,1,8,0:0:0:0:
74,220,78165,1,0,0:0:0:0:
373,66,78290,5,8,0:0:0:0:
161,325,78415,1,0,0:0:0:0:
466,170,78540,1,8,0:0:0:0:
54,223,78665,1,0,0:0:0:0:
286,362,78790,5,8,0:0:0:0:
248,0,78915,1,0,0:0:0:0:
32,226,79040,1,0,0:0:0:0:
403,294,79165,1,0,0:0:0:0:
154,335,79290,5,0,0:0:0:0:
373,66,79415,1,0,0:0:0:0:
114,88,79540,1,0,0:0:0:0:
403,294,79665,1,8,0:0:0:0:
403,294,79727,5,0,0:0:0:0:
403,294,79790,2,0,L|328:308,1,59.4999981842042
155,351,79915,1,8,0:0:0:0:
155,351,79977,1,8,0:0:0:0:
155,351,80040,2,0,L|230:337,1,59.4999981842042,8|0,0:0|0:0,0:0:0:0:
427,185,80165,5,0,0:0:0:0:
427,185,80227,1,0,0:0:0:0:
427,185,80290,1,0,0:0:0:0:
426,155,80352,1,0,0:0:0:0:
425,125,80415,1,0,0:0:0:0:
424,95,80477,1,0,0:0:0:0:
423,66,80540,5,0,0:0:0:0:
385,22,80602,1,0,0:0:0:0:
328,25,80665,1,0,0:0:0:0:
295,73,80727,1,0,0:0:0:0:
313,127,80790,5,8,0:0:0:0:
56,267,81290,6,0,L|49:163,1,93.5000028533936,12|0,0:0|0:0,0:0:0:0:
217,351,81540,2,0,L|223:257,1,93.5000028533936,8|0,0:0|0:0,0:0:0:0:
88,94,81790,2,0,P|41:91|0:111,2,93.5000028533936,0|0|8,0:0|0:0|0:0,0:0:0:0:
179,192,82165,1,0,0:0:0:0:
179,192,82290,2,0,B|277:155|260:238|369:196,1,187.000005706787,0|8,0:0|0:0,0:0:0:0:
470,174,82665,1,0,0:0:0:0:
323,116,82790,5,0,0:0:0:0:
317,135,82915,1,0,0:0:0:0:
229,276,83040,5,8,0:0:0:0:
223,257,83165,1,0,0:0:0:0:
294,43,83290,6,0,P|340:40|382:65,2,93.5000028533936,12|0|8,0:0|0:0|0:0,0:0:0:0:
157,70,83665,1,0,0:0:0:0:
241,181,83790,2,0,P|285:168|316:134,1,93.5000028533936
316,134,83977,1,0,0:0:0:0:
316,134,84040,1,8,0:0:0:0:
157,70,84165,1,0,0:0:0:0:
223,257,84290,5,8,0:0:0:0:
243,105,84415,1,0,0:0:0:0:
126,217,84540,2,0,L|134:324,1,93.5000028533936,8|0,0:0|0:0,0:0:0:0:
132,310,84727,1,8,0:0:0:0:
132,310,84790,1,8,0:0:0:0:
288,323,84915,5,8,0:0:0:0:
42,266,85040,1,8,0:0:0:0:
223,257,85165,1,8,0:0:0:0:
50,353,85290,6,0,B|50:288|50:288|40:269|40:269|40:153,1,187.000005706787,12|0,0:0|0:0,0:0:0:0:
0,76,85665,1,0,0:0:0:0:
0,76,85727,1,0,0:0:0:0:
0,76,85790,2,0,L|104:83,1,93.5000028533936,8|0,0:0|0:0,0:0:0:0:
130,176,86040,2,0,P|84:181|39:168,1,93.5000028533936
216,111,86290,6,0,L|208:213,2,93.5000028533936,0|8|0,0:0|0:0|0:0,0:0:0:0:
236,13,86665,1,0,0:0:0:0:
236,13,86727,1,0,0:0:0:0:
236,13,86790,2,0,B|280:30|280:30|334:20,1,93.5000028533936,8|0,0:0|0:0,0:0:0:0:
493,9,87040,2,0,B|449:-8|449:-8|395:2,1,93.5000028533936
343,219,87290,5,12,0:0:0:0:
446,113,87415,1,0,0:0:0:0:
294,154,87540,1,0,0:0:0:0:
467,124,87665,1,0,0:0:0:0:
253,89,87790,5,8,0:0:0:0:
488,135,87915,1,0,0:0:0:0:
211,24,88040,1,0,0:0:0:0:
509,146,88165,1,0,0:0:0:0:
414,63,88290,5,0,0:0:0:0:
414,63,88352,1,0,0:0:0:0:
414,63,88415,1,8,0:0:0:0:
343,219,88540,1,8,0:0:0:0:
436,17,88665,1,8,0:0:0:0:
253,89,88790,5,8,0:0:0:0:
509,146,88915,1,0,0:0:0:0:
226,250,89040,6,0,B|242:173|242:173|344:219,1,187.000005706787,8|0,2:0|2:0,2:0:0:0:
369,295,89456,6,0,P|347:302|309:301,1,39.6666654561361
399,273,89623,2,0,P|421:266|459:267,1,39.6666654561361
400,309,89790,2,0,P|412:326|415:353,3,29.7499990921021
377,257,90040,2,0,P|364:215|368:167,1,89.2499972763062
440,116,90290,6,0,B|392:104|368:61|368:61|344:103|295:116,1,187.000005706787,4|8,0:0|0:0,0:0:0:0:
111,86,90665,1,0,0:0:0:0:
187,0,90790,1,0,0:0:0:0:
223,104,90915,1,0,0:0:0:0:
61,78,91040,2,0,B|46:124|46:124|61:172,1,93.5000028533936,8|0,0:0|0:0,0:0:0:0:
7,251,91290,6,0,B|79:246|79:246|115:275|115:275|193:273,1,187.000005706787,0|8,0:0|0:0,0:0:0:0:
341,217,91665,2,0,P|302:186|252:182,1,93.5000028533936
46,321,91915,2,0,P|85:352|135:356,1,93.5000028533936,0|8,0:0|0:0,0:0:0:0:
321,362,92165,1,0,0:0:0:0:
321,362,92290,6,0,L|352:146,1,187.000005706787
491,308,92665,1,0,0:0:0:0:
491,308,92790,2,0,B|444:320|444:320|398:308,1,93.5000028533936
182,197,93040,2,0,B|229:185|229:185|275:197,1,93.5000028533936,8|0,0:0|0:0,0:0:0:0:
443,246,93290,5,8,0:0:0:0:
443,246,93352,1,0,0:0:0:0:
443,246,93415,2,0,L|440:191,1,46.7500014266968
339,136,93540,2,0,L|388:160,1,46.7500014266968
486,100,93665,2,0,L|439:130,1,46.7500014266968
272,196,93790,1,12,0:0:0:0:
207,16,94040,5,8,0:0:0:0:
272,196,94165,1,8,0:0:0:0:
139,105,94290,5,0,0:0:0:0:
319,40,94415,1,0,0:0:0:0:
128,11,94540,2,0,L|139:107,2,93.5000028533936,8|0|0,0:0|0:0|0:0,0:0:0:0:
49,129,94915,2,0,P|76:171|148:193,1,93.5000028533936,8|0,0:0|0:0,0:0:0:0:
272,196,95165,1,0,0:0:0:0:
299,118,95290,6,0,P|207:147|199:234,1,187.000005706787,8|0,0:0|0:0,0:0:0:0:
272,301,95665,2,0,L|175:316,2,93.5000028533936,8|0|0,0:0|0:0|0:0,0:0:0:0:
403,353,96040,2,0,B|416:305|416:305|403:260,1,93.5000028533936,8|0,0:0|0:0,0:0:0:0:
301,22,96290,6,0,B|288:70|288:70|301:115,1,93.5000028533936
452,190,96540,2,0,B|357:148|367:233|257:190,1,187.000005706787,8|0,0:0|0:0,0:0:0:0:
134,126,96915,2,0,P|180:116|228:131,1,93.5000028533936,8|0,0:0|0:0,0:0:0:0:
175,195,97165,1,0,0:0:0:0:
17,134,97290,5,0,0:0:0:0:
17,134,97415,2,0,B|46:91|46:91|66:241,1,187.000005706787,8|0,0:0|0:0,0:0:0:0:
171,363,97790,6,0,L|89:374,1,76.4999976654053
0,289,98040,2,0,L|82:300,1,76.4999976654053
186,279,98290,6,0,L|166:386,1,85,12|0,0:0|0:0,0:0:0:0:
274,279,98540,2,0,L|265:363,1,85
452,255,98791,2,0,L|458:339,1,85,8|0,0:0|0:0,0:0:0:0:
364,269,99040,2,0,L|363:353,1,85
458,339,99290,6,0,L|443:150,1,187.000005706787
433,29,99665,1,0,0:0:0:0:
336,121,99790,5,0,0:0:0:0:
512,92,99915,1,0,0:0:0:0:
336,121,100040,1,0,0:0:0:0:
512,92,100165,1,0,0:0:0:0:
258,66,100290,6,0,P|249:110|253:159,1,85,8|0,0:0|0:0,0:0:0:0:
160,271,100540,2,0,P|168:226|165:178,1,85
291,45,100790,2,0,P|270:86|262:133,1,85,8|0,0:0|0:0,0:0:0:0:
128,293,101040,2,0,P|148:251|156:204,1,85
62,138,101290,6,0,L|83:230,2,85,8|8|0,0:0|0:0|0:0,0:0:0:0:
1,33,101665,1,0,0:0:0:0:
1,33,101790,2,0,L|94:40,1,93.5000028533936,8|0,0:0|0:0,0:0:0:0:
197,180,102040,2,0,P|161:143|161:85,1,93.5000028533936
441,38,102290,5,8,0:0:0:0:
423,137,102790,5,8,0:0:0:0:
405,236,103290,5,8,0:0:0:0:
387,335,103790,5,8,0:0:0:0:
71,38,104290,5,8,0:0:0:0:
89,137,104790,5,8,0:0:0:0:
107,236,105290,5,8,0:0:0:0:
125,335,105790,5,8,0:0:0:0:
388,79,106290,6,0,P|350:80|310:104,1,76.4999976654053,4|0,0:0|0:0,0:0:0:0:
371,161,106540,2,0,P|409:160|449:136,1,76.4999976654053
195,97,106790,6,0,P|161:79|124:79,1,76.4999976654053,8|0,0:0|0:0,0:0:0:0:
69,142,107040,2,0,P|103:160|141:161,1,76.4999976654053
342,269,107290,6,0,L|322:343,2,76.4999976654053,0|8|0,0:0|0:0|0:0,0:0:0:0:
281,108,107665,1,0,0:0:0:0:
250,305,107790,1,8,0:0:0:0:
358,171,107915,1,0,0:0:0:0:
172,242,108040,1,0,0:0:0:0:
281,108,108165,1,0,0:0:0:0:
281,108,108227,1,0,0:0:0:0:
281,108,108290,1,12,0:0:0:0:
172,242,108415,5,0,0:0:0:0:
358,171,108540,1,0,0:0:0:0:
250,305,108665,1,0,0:0:0:0:
188,144,108790,1,0,0:0:0:0:
342,269,108915,1,8,0:0:0:0:
172,242,109040,1,0,0:0:0:0:
277,102,109165,1,8,0:0:0:0:
250,305,109290,5,0,0:0:0:0:
188,144,109415,1,8,0:0:0:0:
358,171,109540,1,0,0:0:0:0:
172,242,109665,1,8,0:0:0:0:
342,269,109790,1,8,0:0:0:0:
277,102,109915,1,8,0:0:0:0:
434,364,110040,6,0,B|464:329|464:329|461:188,1,152.999995330811,12|4,0:0|0:0,0:0:0:0:
383,83,110415,1,0,0:0:0:0:
383,83,110540,2,0,L|374:177,1,76.4999976654053,8|0,0:0|0:0,0:0:0:0:
461,222,110790,2,0,L|459:145,1,76.4999976654053
284,147,111040,2,0,L|285:223,1,76.4999976654053
402,281,111290,6,0,B|342:273|342:273|317:298|317:298|241:294,1,152.999995330811
171,384,111665,1,0,0:0:0:0:
188,202,111790,1,0,0:0:0:0:
171,384,111915,1,0,0:0:0:0:
259,294,112040,1,8,0:0:0:0:
73,329,112165,1,0,0:0:0:0:
25,182,112290,6,0,L|72:328,1,152.999995330811,4|0,0:0|0:0,0:0:0:0:
148,132,112665,1,0,0:0:0:0:
188,202,112790,2,0,P|149:213|111:202,1,76.4999976654053
108,62,113040,2,0,P|147:51|185:62,1,76.4999976654053
363,128,113290,6,0,B|325:128|325:128|289:141|289:141|252:128|252:128|192:128,1,152.999995330811,0|8,0:0|0:0,0:0:0:0:
11,138,113665,1,0,0:0:0:0:
108,62,113790,1,8,0:0:0:0:
74,180,113915,1,8,0:0:0:0:
32,64,114040,1,0,0:0:0:0:
136,134,114165,1,0,0:0:0:0:
12,254,114290,6,0,B|74:181|74:181|128:241,1,152.999995330811,12|0,0:0|0:0,0:0:0:0:
156,282,114665,1,0,0:0:0:0:
300,310,114790,6,0,B|238:383|238:383|184:323,1,152.999995330811,12|0,0:0|0:0,0:0:0:0:
156,282,115165,1,0,0:0:0:0:
321,174,115290,6,0,B|439:180|439:180|409:208,1,152.999995330811,12|0,0:0|0:0,0:0:0:0:
357,257,115665,1,0,0:0:0:0:
392,339,115790,6,0,B|274:333|274:333|304:305,1,152.999995330811,12|0,0:0|0:0,0:0:0:0:
357,257,116165,1,8,0:0:0:0:
156,282,116290,5,8,0:0:0:0:
72,364,116415,1,0,0:0:0:0:
109,148,116540,1,12,0:0:0:0:
229,199,116790,5,0,0:0:0:0:
313,117,116915,1,12,0:0:0:0:
276,333,117040,1,0,0:0:0:0:
229,199,117290,5,12,0:0:0:0:
109,148,117415,1,0,0:0:0:0:
313,117,117540,1,0,0:0:0:0:
201,57,117665,1,12,0:0:0:0:
201,57,117727,1,8,0:0:0:0:
201,57,117790,1,8,0:0:0:0:
229,199,117915,5,8,0:0:0:0:
313,117,118040,1,8,0:0:0:0:
109,148,118165,1,8,0:0:0:0:
406,340,118290,5,4,0:0:0:0:
313,117,118415,1,8,0:0:0:0:
258,293,118540,5,0,0:0:0:0:
313,117,118665,1,8,0:0:0:0:
185,365,118790,5,0,0:0:0:0:
478,270,118915,1,8,0:0:0:0:
284,205,119040,5,0,0:0:0:0:
478,270,119165,1,8,0:0:0:0:
383,63,119290,5,0,0:0:0:0:
345,371,119415,1,8,0:0:0:0:
208,180,119540,5,0,0:0:0:0:
478,270,119665,1,8,0:0:0:0:
191,372,119790,5,4,0:0:0:0:
81,17,120290,6,8,B|41:87|41:87|94:271,1,237.999992736817,12|8,0:0|0:0,0:0:0:0:
231,279,120665,1,0,0:0:0:0:
130,107,120790,1,0,0:0:0:0:
322,214,120915,1,0,0:0:0:0:
84,238,121040,1,8,0:0:0:0:
179,27,121165,1,0,0:0:0:0:
365,260,121290,6,0,P|298:283|331:213,1,178.499994552612
399,11,121540,1,8,0:0:0:0:
454,220,121665,1,0,0:0:0:0:
287,84,121790,1,0,0:0:0:0:
503,96,121915,1,0,0:0:0:0:
321,213,122040,1,8,0:0:0:0:
399,11,122165,1,0,0:0:0:0:
500,350,122290,6,0,B|368:297|393:404|263:350,1,237.999992736817,0|8,0:0|0:0,0:0:0:0:
50,223,122665,1,0,0:0:0:0:
321,213,122790,1,0,0:0:0:0:
165,356,122915,1,0,0:0:0:0:
170,77,123040,1,8,0:0:0:0:
209,263,123165,1,0,0:0:0:0:
52,142,123290,6,0,B|82:105|71:53|71:53|81:28|81:28|88:52|88:52|82:105|115:142,1,237.999992736817,0|8,0:0|0:0,0:0:0:0:
209,263,123665,1,0,0:0:0:0:
332,48,123790,1,0,0:0:0:0:
306,343,123915,1,0,0:0:0:0:
329,43,124040,1,8,0:0:0:0:
303,348,124165,1,0,0:0:0:0:
500,189,124290,6,0,B|460:193|429:183|429:183|407:183|388:196|388:196|343:204|311:188,1,178.499994552612,4|0,0:0|0:0,0:0:0:0:
179,162,124540,1,8,0:0:0:0:
332,48,124665,1,0,0:0:0:0:
172,340,124790,2,0,P|141:289|151:217,1,118.999996368408
425,257,125040,2,0,P|456:308|446:380,1,118.999996368408,8|0,0:0|0:0,0:0:0:0:
94,87,125290,6,0,B|151:104|179:162|179:162|210:101|277:89,1,237.999992736817,0|8,0:0|0:0,0:0:0:0:
474,119,125665,1,0,0:0:0:0:
272,15,125790,1,0,0:0:0:0:
479,116,125915,1,0,0:0:0:0:
179,160,126040,1,8,0:0:0:0:
474,119,126165,1,0,0:0:0:0:
189,384,126290,6,0,B|185:308|185:308|169:275|169:275|183:244|183:244|178:132,1,237.999992736817,12|0,0:0|0:0,0:0:0:0:
479,259,126665,1,12,0:0:0:0:
250,273,126790,1,0,0:0:0:0:
493,273,126915,1,0,0:0:0:0:
241,288,127040,1,8,0:0:0:0:
395,119,127165,1,0,0:0:0:0:
395,119,127227,1,0,0:0:0:0:
395,119,127290,5,12,0:0:0:0:
395,138,127352,1,0,0:0:0:0:
396,158,127415,1,0,0:0:0:0:
397,178,127477,1,0,0:0:0:0:
372,220,127540,5,8,0:0:0:0:
372,239,127602,1,0,0:0:0:0:
373,259,127665,1,0,0:0:0:0:
374,279,127727,1,0,0:0:0:0:
400,334,127790,5,8,0:0:0:0:
380,334,127852,1,0,0:0:0:0:
360,335,127915,1,0,0:0:0:0:
340,336,127977,1,0,0:0:0:0:
320,336,128040,6,0,L|255:338,1,59.4999981842042,12|0,0:0|0:0,0:0:0:0:
193,278,128165,2,0,L|128:280,1,59.4999981842042
41,362,128290,6,0,B|24:305|24:305|34:233,1,118.999996368408,4|0,0:0|0:0,0:0:0:0:
264,146,128540,2,0,B|281:203|281:203|271:275,1,118.999996368408,8|0,0:0|0:0,0:0:0:0:
62,71,128790,5,0,0:0:0:0:
327,38,128915,1,0,0:0:0:0:
193,278,129040,5,8,0:0:0:0:
160,13,129165,1,0,0:0:0:0:
486,13,129290,6,0,P|427:95|326:37,1,237.999992736817,0|8,0:0|0:0,0:0:0:0:
499,156,129665,1,0,0:0:0:0:
205,175,129790,1,0,0:0:0:0:
502,160,129915,1,0,0:0:0:0:
203,180,130040,1,8,0:0:0:0:
453,266,130165,1,0,0:0:0:0:
209,98,130290,6,0,P|124:166|184:257,1,237.999992736817,0|8,0:0|0:0,0:0:0:0:
453,266,130665,1,0,0:0:0:0:
322,24,130790,1,0,0:0:0:0:
179,258,130915,1,0,0:0:0:0:
420,127,131040,1,8,0:0:0:0:
155,272,131165,1,0,0:0:0:0:
123,56,131290,6,0,B|57:22|57:22|48:176,1,178.499994552612
63,346,131540,1,8,0:0:0:0:
50,126,131665,1,0,0:0:0:0:
65,374,131790,1,0,0:0:0:0:
146,187,131915,1,0,0:0:0:0:
0,295,132040,1,8,0:0:0:0:
225,373,132165,1,0,0:0:0:0:
275,117,132290,6,0,L|292:-7,1,118.999996368408,4|0,0:0|0:0,0:0:0:0:
478,274,132540,2,0,P|405:361|304:280,1,237.999992736817,8|0,0:0|0:0,0:0:0:0:
405,44,132915,1,0,0:0:0:0:
394,279,133040,1,8,0:0:0:0:
146,187,133165,1,0,0:0:0:0:
405,44,133290,2,0,B|406:137|406:137|394:160|394:160|394:286,1,237.999992736817,0|8,0:0|0:0,0:0:0:0:
154,293,133665,5,0,0:0:0:0:
209,63,133790,2,0,L|338:89,1,118.999996368408
237,355,134040,2,0,L|108:381,1,118.999996368408,8|0,0:0|0:0,0:0:0:0:
117,116,134290,5,12,0:0:0:0:
398,166,134415,1,0,0:0:0:0:
159,344,134540,1,0,0:0:0:0:
209,63,134665,1,0,0:0:0:0:
275,367,134790,5,0,0:0:0:0:
94,232,134915,1,0,0:0:0:0:
375,282,135040,1,8,0:0:0:0:
159,344,135165,1,8,0:0:0:0:
398,166,135290,5,0,0:0:0:0:
94,232,135415,1,0,0:0:0:0:
325,86,135540,1,0,0:0:0:0:
275,367,135665,1,0,0:0:0:0:
118,114,135790,5,12,0:0:0:0:
159,344,135915,1,0,0:0:0:0:
209,62,136040,1,8,0:0:0:0:
275,367,136165,1,0,0:0:0:0:
461,52,136290,6,0,P|368:35|323:127,2,170,4|0|8,0:0|0:0|0:0,0:0:0:0:
407,197,136915,2,0,L|402:98,2,85
450,328,137290,5,0,0:0:0:0:
367,336,137415,2,0,B|409:342|409:342|451:327,2,85,8|0|0,0:0|0:0|0:0,0:0:0:0:
261,215,137790,2,0,L|277:396,1,170,8|0,0:0|0:0,0:0:0:0:
326,180,138165,1,0,0:0:0:0:
326,180,138290,6,0,P|256:141|187:225,1,170,4|0,0:0|0:0,0:0:0:0:
120,332,138665,1,0,0:0:0:0:
34,227,138790,2,0,L|129:236,1,85,8|0,0:0|0:0,0:0:0:0:
204,340,139040,2,0,L|119:331,1,85
165,171,139290,6,0,P|193:205|197:252,2,85,0|8|0,0:0|0:0|0:0,0:0:0:0:
11,148,139665,1,0,0:0:0:0:
118,235,139790,1,8,0:0:0:0:
140,99,139915,1,0,0:0:0:0:
125,242,140040,1,8,0:0:0:0:
125,242,140102,1,0,0:0:0:0:
125,242,140165,1,8,0:0:0:0:
120,18,140290,6,0,B|183:23|183:23|208:59|208:59|275:69,1,170,4|8,0:0|0:0,0:0:0:0:
411,105,140665,1,0,0:0:0:0:
482,81,140790,2,0,P|419:32|343:74,2,170,0|8|0,0:0|0:0|0:0,0:0:0:0:
421,269,141415,5,0,0:0:0:0:
411,105,141540,1,8,0:0:0:0:
423,302,141665,1,0,0:0:0:0:
254,198,141790,5,0,0:0:0:0:
418,188,141915,1,0,0:0:0:0:
221,200,142040,1,8,0:0:0:0:
431,312,142165,1,0,0:0:0:0:
431,312,142227,1,0,0:0:0:0:
429,311,142290,5,8,0:0:0:0:
221,200,142415,1,0,0:0:0:0:
418,188,142540,5,8,0:0:0:0:
148,271,142665,1,0,0:0:0:0:
352,104,142790,5,8,0:0:0:0:
162,364,142915,1,0,0:0:0:0:
259,53,143040,5,8,0:0:0:0:
296,384,143165,1,0,0:0:0:0:
295,225,143290,5,0,0:0:0:0:
236,268,143373,1,0,0:0:0:0:
237,341,143456,1,8,0:0:0:0:
296,384,143539,1,8,0:0:0:0:
306,302,143623,5,0,0:0:0:0:
335,302,143706,1,0,0:0:0:0:
376,338,143790,5,0,0:0:0:0:
405,338,143873,1,0,0:0:0:0:
434,338,143956,1,0,0:0:0:0:
463,338,144040,1,0,0:0:0:0:
445,258,144123,5,8,0:0:0:0:
445,178,144206,1,0,0:0:0:0:
480,91,144290,6,8,B|409:33|301:71|288:169|288:169|214:127|214:127|183:223|60:241|7:162,1,592.874981906891,4|0,0:0|0:0,0:0:0:0:
512,167,152290,6,0,P|470:178|426:167,1,85
282,73,152665,2,0,P|324:62|368:73,1,85
335,266,153040,1,0,0:0:0:0:
335,266,153290,6,0,L|328:129,2,127.5
394,324,154290,2,0,B|350:308|350:308|270:328,2,127.5
271,327,155290,6,0,P|206:349|152:325,1,127.5
212,271,155790,2,0,L|219:134,1,127.5
99,95,156290,6,0,P|140:99|180:76,1,85
125,27,156665,1,0,0:0:0:0:
328,40,157040,5,0,0:0:0:0:
334,167,157290,2,0,L|328:40,2,127.5
456,262,158290,2,0,P|396:240|335:269,2,127.5
317,344,159290,6,0,L|405:331,1,85
295,201,159790,2,0,L|207:214,1,85
68,350,160290,6,0,L|58:245,1,101.999996887207,8|0,0:0|0:0,0:0:0:0:
3,146,160540,1,0,0:0:0:0:
189,136,160665,6,0,P|183:186|138:227,1,101.999996887207,8|0,0:0|0:0,0:0:0:0:
3,146,160915,1,0,0:0:0:0:
3,146,161040,6,0,L|113:149,1,101.999996887207,8|0,0:0|0:0,0:0:0:0:
316,0,161290,6,0,B|324:52|324:52|310:105,1,101.999996887207,8|0,0:0|0:0,0:0:0:0:
273,193,161540,1,0,0:0:0:0:
243,47,161665,1,8,0:0:0:0:
243,47,161790,1,0,0:0:0:0:
378,148,161915,1,0,0:0:0:0:
189,136,162040,1,8,0:0:0:0:
400,63,162165,1,0,0:0:0:0:
424,284,162290,6,0,L|440:388,2,101.999996887207,12|0|0,0:0|0:0|0:0,0:0:0:0:
309,100,162665,2,0,L|324:0,2,101.999996887207,12|0|0,0:0|0:0|0:0,0:0:0:0:
181,284,163040,2,0,L|165:388,2,101.999996887207,12|0|0,0:0|0:0|0:0,0:0:0:0:
309,100,163415,5,8,0:0:0:0:
96,30,163540,2,0,P|38:31|-10:57,1,101.999996887207
281,190,163790,2,0,P|335:191|379:155,1,101.999996887207
178,75,164040,1,0,0:0:0:0:
181,284,164165,1,0,0:0:0:0:
434,131,164290,6,0,P|373:166|391:277,1,152.999995330811,4|0,0:0|0:0,0:0:0:0:
455,319,164540,2,0,L|449:212,2,101.999996887207,0|0|8,0:0|0:0|0:0,0:0:0:0:
322,384,164915,1,0,0:0:0:0:
266,324,165040,2,0,P|320:306|379:324,1,101.999996887207
200,376,165290,5,0,0:0:0:0:
183,275,165415,2,0,L|200:378,1,101.999996887207,8|0,0:0|0:0,0:0:0:0:
92,373,165665,1,0,0:0:0:0:
115,226,165790,2,0,B|154:194|154:194|212:194,1,101.999996887207,8|0,0:0|0:0,0:0:0:0:
398,270,166040,2,0,P|418:332|361:302,1,152.999995330811
370,60,166290,6,0,P|344:111|348:161,1,101.999996887207,4|0,0:0|0:0,0:0:0:0:
470,214,166540,2,0,P|370:189|265:214,2,203.999993774414,0|8|0,0:0|0:0|0:0,0:0:0:0:
475,334,167165,1,0,0:0:0:0:
274,297,167290,6,0,P|321:270|379:264,1,101.999996887207,4|8,0:0|0:0,0:0:0:0:
475,334,167540,1,0,0:0:0:0:
229,368,167665,1,0,0:0:0:0:
229,368,167727,1,0,0:0:0:0:
229,368,167790,1,8,0:0:0:0:
367,263,167915,1,0,0:0:0:0:
354,161,168040,2,0,L|368:274,1,101.999996887207
454,155,168290,5,8,0:0:0:0:
230,220,168415,1,0,0:0:0:0:
458,196,168540,5,8,0:0:0:0:
201,201,168665,1,0,0:0:0:0:
450,240,168790,5,8,0:0:0:0:
176,172,168915,1,0,0:0:0:0:
428,284,169040,5,8,0:0:0:0:
157,134,169165,1,0,0:0:0:0:
222,358,169290,5,8,0:0:0:0:
157,134,169415,1,0,0:0:0:0:
181,362,169540,5,8,0:0:0:0:
176,105,169665,1,0,0:0:0:0:
137,354,169790,5,8,0:0:0:0:
205,80,169915,1,0,0:0:0:0:
93,332,170040,5,8,0:0:0:0:
243,61,170165,1,0,0:0:0:0:
368,268,170290,5,8,0:0:0:0:
157,134,170415,1,0,0:0:0:0:
325,337,170540,5,8,0:0:0:0:
176,105,170665,1,0,0:0:0:0:
246,382,170790,5,8,0:0:0:0:
205,80,170915,1,0,0:0:0:0:
144,383,171040,5,8,0:0:0:0:
243,61,171165,1,8,0:0:0:0:
38,378,171290,5,8,0:0:0:0:
337,181,171790,6,0,P|374:168|425:176,2,67.9999979248048
279,267,172040,2,0,P|242:280|191:272,2,67.9999979248048
458,244,172290,6,0,P|490:149|357:95,1,237.999992736817,4|8,0:0|0:0,0:0:0:0:
279,267,172665,1,0,0:0:0:0:
402,168,172790,1,0,0:0:0:0:
255,111,172915,1,0,0:0:0:0:
358,279,173040,2,0,L|401:167,1,118.999996368408,8|0,0:0|0:0,0:0:0:0:
254,0,173290,6,0,P|239:59|275:138,1,118.999996368408
358,279,173540,2,0,B|414:297|414:297|485:272,2,118.999996368408,8|0|0,0:0|0:0|0:0,0:0:0:0:
205,247,173915,1,0,0:0:0:0:
254,113,174040,2,0,B|231:68|231:68|208:215,1,178.499994552612,8|0,0:0|0:0,0:0:0:0:
126,329,174290,6,0,P|191:249|293:312,2,237.999992736817,0|8|0,0:0|0:0|0:0,0:0:0:0:
211,322,174915,1,0,0:0:0:0:
64,111,175040,1,8,0:0:0:0:
126,329,175165,1,0,0:0:0:0:
254,113,175290,5,0,0:0:0:0:
6,222,175415,1,0,0:0:0:0:
237,208,175540,1,8,0:0:0:0:
64,111,175665,1,0,0:0:0:0:
126,329,175790,5,0,0:0:0:0:
254,113,175915,1,0,0:0:0:0:
254,113,175977,1,0,0:0:0:0:
254,113,176040,2,0,P|314:148|332:213,1,118.999996368408,8|0,0:0|0:0,0:0:0:0:
449,333,176290,6,0,P|413:227|456:92,1,237.999992736817,4|8,0:0|0:0,0:0:0:0:
512,8,176665,1,0,0:0:0:0:
504,202,176790,1,0,0:0:0:0:
285,196,176915,1,0,0:0:0:0:
507,208,177040,1,8,0:0:0:0:
288,202,177165,1,0,0:0:0:0:
512,93,177290,6,0,B|450:90|450:90|403:118|403:118|321:114,1,178.499994552612
190,109,177540,1,8,0:0:0:0:
368,262,177665,1,0,0:0:0:0:
338,9,177790,2,0,B|311:62|311:62|345:123,1,118.999996368408
469,310,178040,2,0,P|424:270|364:262,1,118.999996368408,8|0,0:0|0:0,0:0:0:0:
114,266,178290,5,8,0:0:0:0:
270,212,178415,1,0,0:0:0:0:
145,356,178540,1,8,0:0:0:0:
82,176,178665,1,8,0:0:0:0:
331,139,178790,5,0,0:0:0:0:
114,266,178915,1,0,0:0:0:0:
144,104,179040,1,8,0:0:0:0:
270,212,179165,1,0,0:0:0:0:
51,86,179290,5,8,0:0:0:0:
51,86,179352,1,0,0:0:0:0:
51,86,179415,1,0,0:0:0:0:
208,284,179540,1,8,0:0:0:0:
82,176,179665,1,8,0:0:0:0:
238,121,179790,1,0,0:0:0:0:
238,121,179852,1,0,0:0:0:0:
238,121,179915,1,0,0:0:0:0:
150,353,180040,1,8,0:0:0:0:
82,176,180165,1,0,0:0:0:0:
415,336,180290,6,0,P|438:279|414:226,1,118.999996368408
95,228,180540,2,0,P|73:282|97:336,1,118.999996368408,8|0,0:0|0:0,0:0:0:0:
446,289,180790,6,0,P|454:228|417:183,1,118.999996368408
110,269,181040,2,0,P|103:326|139:372,1,118.999996368408,8|0,0:0|0:0,0:0:0:0:
463,120,181290,6,0,B|375:88|380:162|273:123,1,178.499994552612
155,73,181540,1,8,0:0:0:0:
378,25,181665,1,0,0:0:0:0:
284,241,181790,2,0,B|268:184|268:184|291:124,1,118.999996368408
468,7,182040,2,0,B|484:64|484:64|461:124,1,118.999996368408,8|0,0:0|0:0,0:0:0:0:
341,319,182290,6,0,B|387:263|387:263|266:237,1,178.499994552612
32,215,182540,1,8,0:0:0:0:
205,287,182665,1,0,0:0:0:0:
181,102,182790,1,0,0:0:0:0:
32,215,182915,1,0,0:0:0:0:
333,113,183040,1,8,0:0:0:0:
99,100,183165,1,0,0:0:0:0:
115,360,183290,6,0,L|101:118,1,237.999992736817,0|8,0:0|0:0,0:0:0:0:
310,261,183665,2,0,B|252:279|252:279|191:267,1,118.999996368408,0|8,0:0|0:0,0:0:0:0:
32,215,183915,1,0,0:0:0:0:
32,215,183977,1,0,0:0:0:0:
32,215,184040,1,12,0:0:0:0:
223,146,184165,1,0,0:0:0:0:
229,372,184290,6,0,B|289:260|176:261|223:145,2,237.999992736817,4|8|0,0:0|0:0|0:0,0:0:0:0:
295,200,184915,1,0,0:0:0:0:
52,308,185040,2,0,B|110:326|110:326|171:314,1,118.999996368408,8|0,0:0|0:0,0:0:0:0:
446,289,185290,6,0,P|454:228|417:183,1,118.999996368408
274,109,185540,1,8,0:0:0:0:
319,288,185665,1,0,0:0:0:0:
353,83,185790,2,0,P|315:34|257:28,1,118.999996368408
243,310,186040,2,0,P|280:358|338:364,1,118.999996368408,8|0,0:0|0:0,0:0:0:0:
480,77,186290,5,12,0:0:0:0:
226,185,186415,1,0,0:0:0:0:
420,185,186540,1,0,0:0:0:0:
127,27,186665,5,12,0:0:0:0:
243,310,186790,1,0,0:0:0:0:
245,100,186915,1,0,0:0:0:0:
94,357,187040,5,12,0:0:0:0:
392,359,187165,1,0,0:0:0:0:
245,100,187290,1,0,0:0:0:0:
508,172,187415,5,12,0:0:0:0:
243,310,187540,1,0,0:0:0:0:
256,12,187665,1,0,0:0:0:0:
421,260,187790,5,8,0:0:0:0:
142,157,187915,5,8,0:0:0:0:
429,78,188040,5,8,0:0:0:0:
243,310,188165,5,8,0:0:0:0:
93,94,188290,6,0,P|193:95|225:160,2,170,4|8|0,0:0|0:0|0:0,0:0:0:0:
146,241,188915,1,0,0:0:0:0:
142,157,189040,2,0,L|146:241,1,85,8|0,0:0|0:0,0:0:0:0:
36,328,189290,6,0,B|94:313|94:313|133:331|133:331|199:313,1,170,0|8,0:0|0:0,0:0:0:0:
274,203,189665,1,0,0:0:0:0:
345,340,189790,2,0,P|305:329|272:286,1,85
441,255,190040,2,0,L|356:253,1,85,8|0,0:0|0:0,0:0:0:0:
266,123,190290,6,0,L|350:124,1,85,4|0,0:0|0:0,0:0:0:0:
419,39,190540,2,0,L|334:37,1,85,8|0,0:0|0:0,0:0:0:0:
189,45,190790,6,0,L|176:129,1,85
253,207,191040,2,0,L|265:122,1,85,8|0,0:0|0:0,0:0:0:0:
247,319,191290,5,0,0:0:0:0:
247,319,191352,1,0,0:0:0:0:
247,319,191415,1,0,0:0:0:0:
124,215,191540,1,8,0:0:0:0:
265,122,191665,1,0,0:0:0:0:
148,314,191790,1,0,0:0:0:0:
178,135,191915,1,0,0:0:0:0:
356,253,192040,1,0,0:0:0:0:
356,253,192165,1,0,0:0:0:0:
178,135,192290,5,4,0:0:0:0:
148,314,192415,1,0,0:0:0:0:
265,122,192540,1,8,0:0:0:0:
247,319,192665,1,0,0:0:0:0:
124,215,192790,1,0,0:0:0:0:
349,168,192915,1,0,0:0:0:0:
148,314,193040,1,8,0:0:0:0:
178,135,193165,1,0,0:0:0:0:
355,337,193290,6,0,P|393:357|452:355,2,85,0|0|8,0:0|0:0|0:0,0:0:0:0:
255,191,193665,1,0,0:0:0:0:
157,337,193790,2,0,P|119:357|60:355,2,85,0|0|8,0:0|0:0|0:0,0:0:0:0:
255,191,194165,1,0,0:0:0:0:
415,286,194290,5,4,0:0:0:0:
101,269,194415,1,0,0:0:0:0:
308,15,194540,5,8,0:0:0:0:
329,282,194665,1,0,0:0:0:0:
157,337,194790,5,0,0:0:0:0:
316,107,194915,1,0,0:0:0:0:
388,368,195040,5,8,0:0:0:0:
260,183,195165,1,0,0:0:0:0:
336,363,195290,5,8,0:0:0:0:
200,249,195415,1,8,0:0:0:0:
286,369,195540,5,0,0:0:0:0:
155,319,195665,1,0,0:0:0:0:
235,379,195790,5,8,0:0:0:0:
104,384,195915,1,8,0:0:0:0:
104,384,196040,5,8,0:0:0:0:
104,384,196165,1,0,0:0:0:0:
67,132,196290,6,0,P|30:208|43:295,1,170,4|0,0:0|0:0,0:0:0:0:
104,384,196665,1,0,0:0:0:0:
104,384,196727,1,0,0:0:0:0:
104,384,196790,1,8,0:0:0:0:
215,214,196915,1,0,0:0:0:0:
202,293,197040,2,0,P|220:255|214:211,1,85
41,52,197290,6,0,B|94:53|94:53|137:82|137:82|202:83,1,170,4|0,0:0|0:0,0:0:0:0:
367,0,197665,2,0,L|390:37,2,42.5,0|0|8,0:0|0:0|0:0,0:0:0:0:
301,164,197915,1,0,0:0:0:0:
380,144,198040,2,0,P|357:108|316:86,1,85
202,83,198290,6,0,B|176:48|176:48|180:195,1,170,4|0,0:0|0:0,0:0:0:0:
180,309,198665,1,0,0:0:0:0:
180,309,198727,1,0,0:0:0:0:
180,309,198790,2,0,L|290:320,1,85,8|0,0:0|0:0,0:0:0:0:
389,231,199040,2,0,L|279:242,1,85,0|8,0:0|0:0,0:0:0:0:
465,359,199290,6,0,L|468:275,1,85
473,117,199540,1,12,0:0:0:0:
389,231,199665,1,0,0:0:0:0:
333,37,199790,1,8,0:0:0:0:
333,37,199852,1,0,0:0:0:0:
333,37,199915,1,8,0:0:0:0:
333,37,199977,1,8,0:0:0:0:
333,37,200040,6,0,L|387:36,1,42.5,8|0,0:0|0:0,0:0:0:0:
313,134,200165,2,0,L|259:133,1,42.5,8|0,0:0|0:0,0:0:0:0:
42,77,200290,5,0,0:0:0:0:
131,349,200415,1,8,0:0:0:0:
164,33,200540,5,0,0:0:0:0:
164,33,200602,1,0,0:0:0:0:
164,33,200665,1,8,0:0:0:0:
22,311,200790,1,0,0:0:0:0:
42,77,200915,5,8,0:0:0:0:
131,349,201040,1,0,0:0:0:0:
131,349,201102,1,0,0:0:0:0:
131,349,201165,1,8,0:0:0:0:
395,243,201290,5,0,0:0:0:0:
42,77,201415,1,8,0:0:0:0:
464,276,201540,1,0,0:0:0:0:
464,276,201602,1,0,0:0:0:0:
464,276,201665,1,8,0:0:0:0:
22,311,201790,5,0,0:0:0:0:
221,6,201915,1,8,0:0:0:0:
386,331,202040,1,0,0:0:0:0:
386,331,202102,1,0,0:0:0:0:
386,331,202165,1,8,0:0:0:0:
42,77,202290,5,4,0:0:0:0:
