osu file format v14

[General]
AudioFilename: audio.mp3
AudioLeadIn: 0
PreviewTime: 54289
Countdown: 0
SampleSet: Normal
StackLeniency: 0.7
Mode: 1
LetterboxInBreaks: 0
WidescreenStoryboard: 0

[Editor]
Bookmarks: 54664
DistanceSpacing: 1
BeatDivisor: 4
GridSize: 16
TimelineZoom: 2.2

[Metadata]
Title:Los! Los! Los! (TV Size)
TitleUnicode:Los! Los! Los! (TV Size)
Artist:Tanya Degurechaff (CV: Yuuki Aoi)
ArtistUnicode:ターニャ・デグレチャフ (CV:悠木碧)
Creator:Volta
Version:Oni
Source:幼女戦記
Tags:youjo senki saga of tanya the evil anime ending ed japanese yuki
BeatmapID:2239274
BeatmapSetID:1069743

[Difficulty]
HPDrainRate:5
CircleSize:7
OverallDifficulty:5.5
ApproachRate:10
SliderMultiplier:1.4
SliderTickRate:1

[Events]
//Background and Video events
0,0,"tanya kenapa.jpg",0,0
//Break Periods
//Storyboard Layer 0 (Background)
//Storyboard Layer 1 (Fail)
//Storyboard Layer 2 (Pass)
//Storyboard Layer 3 (Foreground)
//Storyboard Layer 4 (Overlay)
//Storyboard Sound Samples

[TimingPoints]
664,250,4,1,0,100,1,0
664,-169.491525423729,4,1,0,100,0,0
4664,-156.25,4,1,0,100,0,0
8664,-135.135135135135,4,1,0,100,0,0
9664,-131.578947368421,4,1,0,100,0,0
9914,-128.205128205128,4,1,0,100,0,0
10039,-126.582278481013,4,1,0,100,0,0
10164,-125,4,1,0,100,0,0
10414,-121.951219512195,4,1,0,100,0,0
10664,-119.047619047619,4,1,0,100,0,0
10789,-117.647058823529,4,1,0,100,0,0
10914,-116.279069767442,4,1,0,100,0,0
11164,-113.636363636364,4,1,0,100,0,0
11289,-112.359550561798,4,1,0,100,0,0
11414,-111.111111111111,4,1,0,100,0,0
11664,-108.695652173913,4,1,0,100,0,0
11789,-107.52688172043,4,1,0,100,0,0
11914,-106.382978723404,4,1,0,100,0,0
12039,-105.263157894737,4,1,0,100,0,0
12164,-104.166666666667,4,1,0,100,0,0
12226,-103.626943005181,4,1,0,100,0,0
12289,-103.092783505155,4,1,0,100,0,0
12351,-102.564102564103,4,1,0,100,0,0
12414,-102.040816326531,4,1,0,100,0,0
12664,-100,4,1,0,100,0,0
20789,-133.333333333333,4,1,0,100,0,0
22664,-105.263157894737,4,1,0,100,0,0
24414,-111.111111111111,4,1,0,100,0,0
24664,-117.647058823529,4,1,0,100,0,0
32289,-123.456790123457,4,1,0,100,0,0
32414,-126.582278481013,4,1,0,100,0,0
32539,-129.87012987013,4,1,0,100,0,0
32664,-133.333333333333,4,1,0,100,0,0
36664,-100,4,1,0,100,0,0
44789,-111.111111111111,4,1,0,100,0,0
48289,-112.359550561798,4,1,0,100,0,0
48351,-113.636363636364,4,1,0,100,0,0
48414,-114.942528735632,4,1,0,100,0,0
48539,-117.647058823529,4,1,0,100,0,0
48664,-121.951219512195,4,1,0,100,0,0
54247,-117.647058823529,4,1,0,100,0,0
54330,-113.636363636364,4,1,0,100,0,0
54414,-109.89010989011,4,1,0,100,0,0
54664,-100,4,1,0,100,0,1
70664,-100,4,1,0,100,0,0
70789,-111.111111111111,4,1,0,100,0,0
74664,-100,4,1,0,100,0,1
80664,-100,4,1,0,100,0,0

[HitObjects]
286,192,664,5,4,0:0:0:0:
347,203,2664,1,0,0:0:0:0:
347,203,4664,5,4,0:0:0:0:
153,122,4914,1,0,0:0:0:0:
153,122,5164,1,0,0:0:0:0:
153,122,5289,1,8,0:0:0:0:
153,122,5414,1,0,0:0:0:0:
268,127,5664,1,0,0:0:0:0:
268,127,5914,1,0,0:0:0:0:
268,127,6164,1,8,0:0:0:0:
148,206,6414,1,0,0:0:0:0:
268,127,6664,1,4,0:0:0:0:
83,138,6789,1,8,0:0:0:0:
352,109,6914,1,0,0:0:0:0:
267,118,7164,1,0,0:0:0:0:
267,118,7414,1,0,0:0:0:0:
267,118,7664,1,0,0:0:0:0:
407,84,7789,1,0,0:0:0:0:
267,118,7914,1,0,0:0:0:0:
316,118,8164,1,8,0:0:0:0:
148,206,8414,1,0,0:0:0:0:
250,145,8664,1,4,0:0:0:0:
405,109,8914,1,0,0:0:0:0:
363,54,9164,1,0,0:0:0:0:
363,54,9289,1,0,0:0:0:0:
363,54,9414,1,8,0:0:0:0:
363,54,9664,1,8,0:0:0:0:
363,54,9914,1,8,0:0:0:0:
186,96,10039,1,0,0:0:0:0:
363,54,10164,1,8,0:0:0:0:
372,41,10414,1,8,0:0:0:0:
372,41,10664,1,8,0:0:0:0:
262,90,10789,1,8,0:0:0:0:
372,40,10914,1,0,0:0:0:0:
372,40,11164,1,8,0:0:0:0:
372,196,11289,1,0,0:0:0:0:
372,196,11414,1,8,0:0:0:0:
379,82,11664,1,8,0:0:0:0:
379,82,11789,1,8,0:0:0:0:
379,82,11914,1,0,0:0:0:0:
163,143,12039,1,0,0:0:0:0:
178,130,12164,1,8,0:0:0:0:
178,130,12226,1,8,0:0:0:0:
210,129,12289,1,8,0:0:0:0:
210,129,12351,1,8,0:0:0:0:
210,129,12414,1,0,0:0:0:0:
280,93,12664,1,4,0:0:0:0:
336,175,12914,1,8,0:0:0:0:
157,143,13039,1,0,0:0:0:0:
157,143,13101,1,0,0:0:0:0:
358,78,13164,1,0,0:0:0:0:
358,78,13289,1,0,0:0:0:0:
265,50,13414,1,8,0:0:0:0:
265,50,13664,1,8,0:0:0:0:
172,125,13789,1,0,0:0:0:0:
265,50,13914,1,8,0:0:0:0:
280,147,13976,1,8,0:0:0:0:
265,50,14039,1,0,0:0:0:0:
143,149,14164,1,8,0:0:0:0:
260,54,14289,1,0,0:0:0:0:
260,54,14414,1,8,0:0:0:0:
36,145,14664,1,0,0:0:0:0:
226,133,14914,1,8,0:0:0:0:
207,140,15039,1,0,0:0:0:0:
195,116,15164,1,0,0:0:0:0:
240,117,15226,1,0,0:0:0:0:
195,116,15289,1,0,0:0:0:0:
195,116,15414,1,8,0:0:0:0:
179,55,15539,1,0,0:0:0:0:
195,116,15664,1,8,0:0:0:0:
307,185,15914,1,8,0:0:0:0:
307,185,16039,1,0,0:0:0:0:
151,157,16164,1,0,0:0:0:0:
151,157,16226,1,0,0:0:0:0:
230,142,16289,1,0,0:0:0:0:
288,164,16414,1,8,0:0:0:0:
151,157,16539,1,0,0:0:0:0:
151,157,16664,1,8,0:0:0:0:
43,159,16914,1,0,0:0:0:0:
277,109,17039,1,8,0:0:0:0:
179,139,17289,1,0,0:0:0:0:
277,109,17414,1,8,0:0:0:0:
179,139,17664,1,0,0:0:0:0:
277,109,17789,1,8,0:0:0:0:
179,139,17914,1,0,0:0:0:0:
179,139,18039,1,0,0:0:0:0:
277,109,18164,1,8,0:0:0:0:
277,109,18414,1,8,0:0:0:0:
179,139,18539,1,0,0:0:0:0:
76,166,18664,1,8,0:0:0:0:
133,170,18914,1,0,0:0:0:0:
151,138,19039,1,0,0:0:0:0:
151,138,19164,1,8,0:0:0:0:
151,138,19226,1,8,0:0:0:0:
151,138,19289,1,0,0:0:0:0:
151,138,19414,1,8,0:0:0:0:
151,138,19539,1,0,0:0:0:0:
294,92,19664,1,0,0:0:0:0:
178,124,19726,1,0,0:0:0:0:
294,92,19789,1,0,0:0:0:0:
294,92,19914,1,8,0:0:0:0:
115,150,20039,1,0,0:0:0:0:
293,143,20164,1,8,0:0:0:0:
232,153,20289,1,8,0:0:0:0:
232,153,20414,1,0,0:0:0:0:
304,121,20664,1,4,0:0:0:0:
303,135,20914,1,0,0:0:0:0:
303,135,21164,1,0,0:0:0:0:
303,135,21289,1,8,0:0:0:0:
303,135,21414,1,0,0:0:0:0:
303,135,21664,1,0,0:0:0:0:
303,135,21914,1,0,0:0:0:0:
303,135,22164,1,8,0:0:0:0:
194,173,22414,1,0,0:0:0:0:
303,135,22664,1,4,0:0:0:0:
386,140,22789,1,0,0:0:0:0:
386,140,22914,1,8,0:0:0:0:
243,189,23164,1,8,0:0:0:0:
102,134,23289,1,0,0:0:0:0:
281,112,23414,1,8,0:0:0:0:
281,112,23539,1,0,0:0:0:0:
177,60,23601,1,0,0:0:0:0:
114,125,23664,1,8,0:0:0:0:
281,112,23789,1,8,0:0:0:0:
292,130,23914,1,0,0:0:0:0:
167,106,24039,1,0,0:0:0:0:
338,105,24164,1,8,0:0:0:0:
254,107,24414,1,8,0:0:0:0:
192,110,24664,1,4,0:0:0:0:
143,105,24914,1,8,0:0:0:0:
153,101,25164,1,0,0:0:0:0:
153,101,25289,1,8,0:0:0:0:
178,159,25414,1,0,0:0:0:0:
263,152,25664,1,8,0:0:0:0:
276,93,25914,1,8,0:0:0:0:
276,93,26039,1,0,0:0:0:0:
285,71,26289,1,0,0:0:0:0:
285,71,26414,1,8,0:0:0:0:
285,71,26664,1,0,0:0:0:0:
234,125,26789,1,0,0:0:0:0:
180,122,26914,1,8,0:0:0:0:
230,115,27164,1,0,0:0:0:0:
230,115,27289,1,8,0:0:0:0:
161,145,27414,1,0,0:0:0:0:
230,115,27664,1,8,0:0:0:0:
190,149,27914,1,8,0:0:0:0:
230,115,28039,1,0,0:0:0:0:
260,152,28289,1,0,0:0:0:0:
230,115,28414,1,8,0:0:0:0:
230,115,28664,1,4,0:0:0:0:
337,95,28914,1,8,0:0:0:0:
283,114,29164,1,0,0:0:0:0:
261,75,29289,1,8,0:0:0:0:
261,75,29414,1,0,0:0:0:0:
261,75,29664,1,8,0:0:0:0:
129,145,29789,1,0,0:0:0:0:
238,95,30039,1,8,0:0:0:0:
247,83,30289,1,0,0:0:0:0:
247,83,30414,1,8,0:0:0:0:
185,147,30664,1,0,0:0:0:0:
216,138,30789,1,0,0:0:0:0:
216,138,30914,1,8,0:0:0:0:
194,132,31164,1,0,0:0:0:0:
194,132,31289,1,8,0:0:0:0:
177,129,31414,1,0,0:0:0:0:
194,132,31539,1,0,0:0:0:0:
194,131,31664,1,8,0:0:0:0:
194,131,31914,1,0,0:0:0:0:
238,142,32039,1,8,0:0:0:0:
238,142,32289,1,8,0:0:0:0:
238,142,32414,1,0,0:0:0:0:
289,129,32539,1,0,0:0:0:0:
192,174,32664,1,4,0:0:0:0:
259,170,32914,1,0,0:0:0:0:
253,158,33164,1,8,0:0:0:0:
56,126,33289,1,8,0:0:0:0:
249,159,33414,1,0,0:0:0:0:
196,295,33664,6,0,P|98:166|239:73,1,367.500014019013
265,126,34664,1,0,0:0:0:0:
265,126,34789,1,8,0:0:0:0:
265,126,34914,1,0,0:0:0:0:
265,126,35039,1,0,0:0:0:0:
265,126,35164,1,8,0:0:0:0:
227,148,35414,1,0,0:0:0:0:
214,303,35664,2,0,P|310:123|405:199,1,367.500014019013
251,131,36664,1,4,0:0:0:0:
353,113,36914,1,8,0:0:0:0:
369,97,37039,1,0,0:0:0:0:
305,129,37101,1,0,0:0:0:0:
305,129,37164,1,8,0:0:0:0:
305,129,37289,1,8,0:0:0:0:
321,161,37414,1,0,0:0:0:0:
321,161,37664,1,8,0:0:0:0:
241,129,37789,1,0,0:0:0:0:
257,113,37914,1,8,0:0:0:0:
337,65,38039,1,0,0:0:0:0:
337,65,38164,1,8,0:0:0:0:
337,65,38226,1,8,0:0:0:0:
257,129,38289,1,0,0:0:0:0:
321,81,38414,1,8,0:0:0:0:
241,129,38539,1,8,0:0:0:0:
289,113,38664,1,0,0:0:0:0:
289,113,38789,1,0,0:0:0:0:
289,113,38914,1,8,0:0:0:0:
209,129,39164,1,8,0:0:0:0:
209,129,39289,1,0,0:0:0:0:
289,113,39414,1,8,0:0:0:0:
321,97,39664,1,8,0:0:0:0:
209,129,39789,1,8,0:0:0:0:
209,129,39914,1,0,0:0:0:0:
401,145,39976,1,0,0:0:0:0:
209,129,40039,1,0,0:0:0:0:
305,33,40164,1,8,0:0:0:0:
449,209,40289,5,8,0:0:0:0:
449,209,40414,1,8,0:0:0:0:
449,209,40539,1,8,0:0:0:0:
369,145,40664,5,4,0:0:0:0:
209,113,40914,1,8,0:0:0:0:
113,145,41039,1,0,0:0:0:0:
209,113,41164,1,0,0:0:0:0:
113,145,41226,1,0,0:0:0:0:
113,145,41289,1,0,0:0:0:0:
209,113,41414,1,8,0:0:0:0:
225,145,41539,1,0,0:0:0:0:
209,113,41664,1,8,0:0:0:0:
209,113,41914,1,0,0:0:0:0:
209,113,42039,1,8,0:0:0:0:
209,113,42101,1,8,0:0:0:0:
209,113,42164,1,8,0:0:0:0:
209,113,42289,1,0,0:0:0:0:
209,113,42414,1,8,0:0:0:0:
209,113,42664,1,0,0:0:0:0:
257,129,42914,1,8,0:0:0:0:
273,145,43039,1,0,0:0:0:0:
257,129,43164,1,0,0:0:0:0:
273,145,43226,1,0,0:0:0:0:
145,161,43289,1,0,0:0:0:0:
257,129,43414,1,8,0:0:0:0:
273,145,43539,1,0,0:0:0:0:
264,132,43664,1,8,0:0:0:0:
385,129,43914,1,0,0:0:0:0:
161,193,44039,1,8,0:0:0:0:
97,161,44101,1,8,0:0:0:0:
305,65,44164,1,8,0:0:0:0:
296,135,44289,5,0,0:0:0:0:
286,106,44414,5,8,0:0:0:0:
286,106,44539,1,8,0:0:0:0:
286,106,44664,1,4,0:0:0:0:
353,139,44914,1,8,0:0:0:0:
353,139,45164,1,0,0:0:0:0:
342,136,45289,1,0,0:0:0:0:
342,136,45414,1,8,0:0:0:0:
342,136,45664,1,0,0:0:0:0:
342,136,45914,1,8,0:0:0:0:
341,111,46039,1,0,0:0:0:0:
287,115,46289,1,0,0:0:0:0:
287,115,46414,1,8,0:0:0:0:
287,115,46664,1,0,0:0:0:0:
255,119,46914,1,8,0:0:0:0:
255,119,47164,1,0,0:0:0:0:
225,161,47289,1,0,0:0:0:0:
255,119,47414,1,8,0:0:0:0:
255,119,47664,1,8,0:0:0:0:
269,70,47789,1,0,0:0:0:0:
359,118,47914,1,0,0:0:0:0:
359,118,48039,1,8,0:0:0:0:
235,176,48164,1,8,0:0:0:0:
235,176,48289,1,0,0:0:0:0:
225,145,48351,1,0,0:0:0:0:
359,118,48414,1,0,0:0:0:0:
359,118,48539,1,0,0:0:0:0:
227,102,48664,5,8,0:0:0:0:
287,96,48789,1,0,0:0:0:0:
455,164,49039,1,0,0:0:0:0:
227,102,49164,1,8,0:0:0:0:
185,149,49289,1,0,0:0:0:0:
455,164,49539,1,0,0:0:0:0:
227,102,49664,1,8,0:0:0:0:
455,164,49789,1,0,0:0:0:0:
455,164,50039,1,0,0:0:0:0:
227,102,50164,1,8,0:0:0:0:
455,164,50289,1,0,0:0:0:0:
324,115,50414,1,0,0:0:0:0:
211,87,50664,5,12,0:0:0:0:
211,87,51164,1,12,0:0:0:0:
211,87,51664,1,12,0:0:0:0:
211,87,52164,1,12,0:0:0:0:
256,192,52664,12,0,53539,0:0:0:0:
199,123,53664,5,8,0:0:0:0:
239,128,54164,5,0,0:0:0:0:
239,128,54247,1,0,0:0:0:0:
239,128,54330,1,0,0:0:0:0:
239,128,54414,1,8,0:0:0:0:
280,93,54664,1,4,0:0:0:0:
336,175,54914,1,8,0:0:0:0:
157,143,55039,1,0,0:0:0:0:
157,143,55101,1,0,0:0:0:0:
358,78,55164,1,0,0:0:0:0:
358,78,55289,1,0,0:0:0:0:
265,50,55414,1,8,0:0:0:0:
265,50,55539,1,0,0:0:0:0:
265,50,55664,1,8,0:0:0:0:
265,50,55914,1,8,0:0:0:0:
265,50,56039,1,0,0:0:0:0:
143,149,56164,1,8,0:0:0:0:
101,140,56226,1,8,0:0:0:0:
188,102,56289,1,0,0:0:0:0:
260,54,56414,1,8,0:0:0:0:
66,196,56539,1,0,0:0:0:0:
259,146,56664,1,0,0:0:0:0:
226,133,56914,1,8,0:0:0:0:
207,140,57039,1,0,0:0:0:0:
195,116,57164,1,0,0:0:0:0:
240,117,57226,1,0,0:0:0:0:
195,116,57289,1,0,0:0:0:0:
195,116,57414,1,8,0:0:0:0:
195,116,57539,1,0,0:0:0:0:
195,116,57664,1,8,0:0:0:0:
307,185,57914,1,8,0:0:0:0:
307,185,58039,1,0,0:0:0:0:
151,157,58164,1,8,0:0:0:0:
288,164,58414,1,8,0:0:0:0:
151,157,58539,1,0,0:0:0:0:
368,121,58664,1,0,0:0:0:0:
262,137,58726,1,0,0:0:0:0:
394,94,58789,1,0,0:0:0:0:
394,94,58914,1,8,0:0:0:0:
394,94,59039,1,0,0:0:0:0:
394,94,59164,1,0,0:0:0:0:
154,105,59414,1,8,0:0:0:0:
382,90,59539,1,0,0:0:0:0:
203,107,59664,1,8,0:0:0:0:
203,107,59726,1,8,0:0:0:0:
203,107,59789,1,8,0:0:0:0:
203,107,59914,1,0,0:0:0:0:
225,204,60039,1,0,0:0:0:0:
225,204,60164,1,8,0:0:0:0:
225,204,60289,1,0,0:0:0:0:
225,204,60351,1,0,0:0:0:0:
225,204,60414,1,8,0:0:0:0:
225,204,60539,1,0,0:0:0:0:
232,119,60664,1,8,0:0:0:0:
289,97,60914,1,0,0:0:0:0:
354,81,61039,1,8,0:0:0:0:
248,81,61289,1,0,0:0:0:0:
356,70,61414,1,8,0:0:0:0:
356,70,61539,1,0,0:0:0:0:
194,189,61664,1,8,0:0:0:0:
237,177,61726,1,8,0:0:0:0:
237,177,61789,1,0,0:0:0:0:
237,177,61851,1,0,0:0:0:0:
237,177,61914,1,0,0:0:0:0:
213,185,62039,1,0,0:0:0:0:
214,185,62164,1,8,0:0:0:0:
99,164,62289,1,0,0:0:0:0:
276,134,62351,1,0,0:0:0:0:
99,164,62414,1,8,0:0:0:0:
250,110,62476,1,8,0:0:0:0:
250,110,62539,1,8,0:0:0:0:
274,117,62664,1,4,0:0:0:0:
336,175,62914,1,8,0:0:0:0:
157,143,63039,1,0,0:0:0:0:
157,143,63101,1,0,0:0:0:0:
358,78,63164,1,0,0:0:0:0:
358,78,63289,1,0,0:0:0:0:
265,50,63414,1,8,0:0:0:0:
265,50,63539,1,0,0:0:0:0:
265,50,63664,1,8,0:0:0:0:
265,50,63914,1,8,0:0:0:0:
265,50,64039,1,0,0:0:0:0:
143,149,64164,1,8,0:0:0:0:
168,174,64226,1,8,0:0:0:0:
260,54,64289,1,0,0:0:0:0:
260,54,64414,1,8,0:0:0:0:
285,143,64539,1,0,0:0:0:0:
259,146,64664,1,0,0:0:0:0:
226,133,64914,1,8,0:0:0:0:
207,140,65039,1,8,0:0:0:0:
195,116,65164,1,0,0:0:0:0:
195,116,65289,1,0,0:0:0:0:
194,134,65351,1,0,0:0:0:0:
195,116,65414,1,8,0:0:0:0:
195,116,65539,1,0,0:0:0:0:
195,116,65664,1,8,0:0:0:0:
307,185,65914,1,0,0:0:0:0:
307,185,66039,1,0,0:0:0:0:
151,157,66164,1,8,0:0:0:0:
288,164,66414,1,8,0:0:0:0:
353,145,66539,1,0,0:0:0:0:
305,97,66664,1,8,0:0:0:0:
305,97,66726,1,8,0:0:0:0:
305,97,66789,1,8,0:0:0:0:
353,145,66914,1,0,0:0:0:0:
337,49,67039,1,0,0:0:0:0:
337,49,67164,1,8,0:0:0:0:
273,97,67414,1,8,0:0:0:0:
273,97,67539,1,0,0:0:0:0:
369,97,67664,1,0,0:0:0:0:
369,97,67726,1,0,0:0:0:0:
369,97,67789,1,0,0:0:0:0:
369,97,67914,1,8,0:0:0:0:
196,159,68039,1,0,0:0:0:0:
256,138,68164,1,0,0:0:0:0:
270,125,68414,1,8,0:0:0:0:
270,125,68539,1,0,0:0:0:0:
318,113,68664,1,8,0:0:0:0:
273,132,68914,1,0,0:0:0:0:
273,132,69039,1,8,0:0:0:0:
210,139,69164,1,0,0:0:0:0:
41,154,69289,1,0,0:0:0:0:
41,154,69414,1,8,0:0:0:0:
318,113,69664,1,8,0:0:0:0:
318,113,69789,1,0,0:0:0:0:
318,113,69914,1,0,0:0:0:0:
40,119,69976,1,0,0:0:0:0:
318,113,70039,1,0,0:0:0:0:
273,161,70164,1,8,0:0:0:0:
270,98,70289,1,0,0:0:0:0:
270,112,70414,1,8,0:0:0:0:
311,85,70539,1,8,0:0:0:0:
385,193,70664,1,4,0:0:0:0:
305,113,71039,1,0,0:0:0:0:
273,193,71164,1,8,0:0:0:0:
305,113,71414,1,8,0:0:0:0:
305,81,71664,1,0,0:0:0:0:
305,81,71789,1,8,0:0:0:0:
321,49,72039,1,0,0:0:0:0:
321,49,72164,1,8,0:0:0:0:
321,49,72414,1,8,0:0:0:0:
321,49,72664,1,4,0:0:0:0:
209,193,73039,1,0,0:0:0:0:
209,193,73164,1,8,0:0:0:0:
289,113,73414,1,8,0:0:0:0:
289,113,73664,1,0,0:0:0:0:
289,113,73789,1,8,0:0:0:0:
305,49,74039,1,0,0:0:0:0:
305,49,74164,1,8,0:0:0:0:
305,33,74289,1,0,0:0:0:0:
385,113,74414,1,8,0:0:0:0:
385,113,74476,1,8,0:0:0:0:
385,113,74539,1,8,0:0:0:0:
385,113,74664,1,4,0:0:0:0:
210,245,74914,1,8,0:0:0:0:
272,150,75039,1,0,0:0:0:0:
272,150,75101,1,0,0:0:0:0:
261,196,75164,1,0,0:0:0:0:
261,196,75289,1,0,0:0:0:0:
261,196,75414,1,8,0:0:0:0:
241,167,75539,1,0,0:0:0:0:
261,196,75664,1,8,0:0:0:0:
272,178,75914,1,8,0:0:0:0:
272,178,76039,1,0,0:0:0:0:
233,94,76164,1,0,0:0:0:0:
288,154,76414,1,8,0:0:0:0:
283,146,76539,1,0,0:0:0:0:
283,146,76664,1,8,0:0:0:0:
128,174,76914,1,8,0:0:0:0:
296,109,77039,1,0,0:0:0:0:
99,158,77164,1,8,0:0:0:0:
242,127,77226,1,8,0:0:0:0:
243,69,77289,1,0,0:0:0:0:
291,116,77414,1,8,0:0:0:0:
296,109,77539,1,0,0:0:0:0:
291,116,77664,1,8,0:0:0:0:
75,97,77789,1,0,0:0:0:0:
183,126,77851,1,0,0:0:0:0:
291,116,77914,1,8,0:0:0:0:
296,109,78039,1,0,0:0:0:0:
291,116,78164,1,8,0:0:0:0:
296,109,78289,1,0,0:0:0:0:
291,116,78414,1,8,0:0:0:0:
291,116,78539,1,8,0:0:0:0:
276,149,78664,1,0,0:0:0:0:
288,148,78914,1,8,0:0:0:0:
303,96,79039,1,8,0:0:0:0:
303,96,79164,1,0,0:0:0:0:
307,91,79289,1,8,0:0:0:0:
65,147,79351,1,8,0:0:0:0:
363,127,79414,1,8,0:0:0:0:
377,189,79539,1,0,0:0:0:0:
346,172,79601,1,0,0:0:0:0:
377,189,79664,1,8,0:0:0:0:
260,162,79789,1,0,0:0:0:0:
260,162,79914,1,0,0:0:0:0:
110,180,79976,1,0,0:0:0:0:
110,180,80039,1,0,0:0:0:0:
123,114,80101,1,0,0:0:0:0:
73,157,80164,1,8,0:0:0:0:
242,132,80664,5,4,0:0:0:0:
243,119,80914,1,8,0:0:0:0:
247,118,81039,1,0,0:0:0:0:
162,136,81101,1,0,0:0:0:0:
247,118,81164,1,8,0:0:0:0:
192,131,81289,1,8,0:0:0:0:
208,126,81414,1,0,0:0:0:0:
205,125,81664,1,8,0:0:0:0:
205,125,81789,1,0,0:0:0:0:
62,155,81914,1,8,0:0:0:0:
154,78,82039,1,0,0:0:0:0:
299,90,82164,1,8,0:0:0:0:
298,69,82226,1,8,0:0:0:0:
267,90,82289,1,0,0:0:0:0:
267,90,82414,1,0,0:0:0:0:
267,90,82539,1,8,0:0:0:0:
267,90,82664,1,0,0:0:0:0:
199,112,82914,1,8,0:0:0:0:
219,106,83039,1,0,0:0:0:0:
173,150,83164,1,8,0:0:0:0:
261,146,83289,1,0,0:0:0:0:
205,118,83351,1,0,0:0:0:0:
205,118,83414,1,8,0:0:0:0:
187,138,83664,1,0,0:0:0:0:
187,138,83789,1,0,0:0:0:0:
187,138,83914,1,8,0:0:0:0:
325,155,84039,1,0,0:0:0:0:
325,155,84101,1,0,0:0:0:0:
325,155,84164,1,8,0:0:0:0:
325,155,84289,1,8,0:0:0:0:
325,155,84414,1,8,0:0:0:0:
325,155,84539,1,8,0:0:0:0:
325,155,84664,1,4,0:0:0:0:
293,93,84914,1,8,0:0:0:0:
346,174,85039,1,0,0:0:0:0:
346,174,85101,1,0,0:0:0:0:
346,174,85164,1,8,0:0:0:0:
293,93,85289,1,8,0:0:0:0:
293,93,85414,1,0,0:0:0:0:
170,144,85664,1,0,0:0:0:0:
143,165,85789,1,8,0:0:0:0:
333,93,86039,1,0,0:0:0:0:
333,93,86164,1,8,0:0:0:0:
174,120,86226,1,8,0:0:0:0:
333,93,86289,1,0,0:0:0:0:
174,120,86414,1,0,0:0:0:0:
253,125,86539,1,0,0:0:0:0:
95,129,86664,1,8,0:0:0:0:
225,162,86914,1,8,0:0:0:0:
320,182,87039,1,0,0:0:0:0:
141,170,87164,1,8,0:0:0:0:
171,158,87289,1,0,0:0:0:0:
171,158,87351,1,0,0:0:0:0:
171,158,87414,1,8,0:0:0:0:
249,147,87539,1,0,0:0:0:0:
326,148,87664,5,8,0:0:0:0:
326,148,87726,1,8,0:0:0:0:
380,89,87789,1,0,0:0:0:0:
375,87,87914,1,0,0:0:0:0:
182,145,88039,1,8,0:0:0:0:
375,87,88164,1,8,0:0:0:0:
375,87,88289,1,0,0:0:0:0:
337,209,88414,5,12,0:0:0:0:
