osu file format v14

[General]
AudioFilename: audio.mp3
AudioLeadIn: 0
PreviewTime: 54289
Countdown: 0
SampleSet: Normal
StackLeniency: 0.7
Mode: 1
LetterboxInBreaks: 0
WidescreenStoryboard: 0

[Editor]
Bookmarks: 20664,54664
DistanceSpacing: 1
BeatDivisor: 2
GridSize: 16
TimelineZoom: 0.8999997

[Metadata]
Title:Los! Los! Los! (TV Size)
TitleUnicode:Los! Los! Los! (TV Size)
Artist:Tanya Degurechaff (CV: Yuuki Aoi)
ArtistUnicode:ターニャ・デグレチャフ (CV:悠木碧)
Creator:Volta
Version:Kantan
Source:幼女戦記
Tags:youjo senki saga of tanya the evil anime ending ed japanese yuki
BeatmapID:2239272
BeatmapSetID:1069743

[Difficulty]
HPDrainRate:8
CircleSize:7
OverallDifficulty:2.5
ApproachRate:10
SliderMultiplier:1.4
SliderTickRate:1

[Events]
//Background and Video events
0,0,"tanya kenapa.jpg",0,0
//Break Periods
//Storyboard Layer 0 (Background)
//Storyboard Layer 1 (Fail)
//Storyboard Layer 2 (Pass)
//Storyboard Layer 3 (Foreground)
//Storyboard Layer 4 (Overlay)
//Storyboard Sound Samples

[TimingPoints]
664,250,4,1,0,100,1,0
664,-125,4,1,0,100,0,0
54664,-125,4,1,0,100,0,1
70664,-125,4,1,0,100,0,0
74664,-125,4,1,0,100,0,1
80664,-125,4,1,0,100,0,0

[HitObjects]
286,192,664,5,4,0:0:0:0:
347,203,2664,1,0,0:0:0:0:
347,203,4664,5,4,0:0:0:0:
268,127,5664,1,0,0:0:0:0:
268,127,6164,1,8,0:0:0:0:
268,127,6664,1,4,0:0:0:0:
267,118,7664,1,0,0:0:0:0:
316,118,8164,1,8,0:0:0:0:
250,145,8664,1,4,0:0:0:0:
363,54,9664,1,8,0:0:0:0:
363,54,10164,1,8,0:0:0:0:
372,41,10664,1,8,0:0:0:0:
372,196,10914,1,0,0:0:0:0:
372,40,11164,1,8,0:0:0:0:
379,82,11664,1,8,0:0:0:0:
379,82,11914,1,8,0:0:0:0:
178,130,12164,1,8,0:0:0:0:
280,93,12664,1,4,0:0:0:0:
358,78,13164,1,0,0:0:0:0:
265,50,13664,1,8,0:0:0:0:
143,149,14164,1,8,0:0:0:0:
260,54,14414,1,8,0:0:0:0:
36,145,14664,1,0,0:0:0:0:
195,116,15164,1,0,0:0:0:0:
195,116,15664,1,8,0:0:0:0:
151,157,16664,1,8,0:0:0:0:
96,80,17164,1,8,0:0:0:0:
277,109,17414,1,8,0:0:0:0:
96,80,17664,1,0,0:0:0:0:
277,109,18164,1,0,0:0:0:0:
76,166,18664,1,8,0:0:0:0:
151,138,19164,1,0,0:0:0:0:
151,138,19414,1,8,0:0:0:0:
294,92,19664,1,0,0:0:0:0:
293,143,20164,1,8,0:0:0:0:
304,121,20664,1,4,0:0:0:0:
303,135,21664,1,0,0:0:0:0:
303,135,22164,1,8,0:0:0:0:
303,135,22664,1,4,0:0:0:0:
117,185,23164,1,8,0:0:0:0:
292,130,23664,1,0,0:0:0:0:
114,125,23914,1,0,0:0:0:0:
338,105,24164,1,8,0:0:0:0:
192,110,24664,1,4,0:0:0:0:
8,149,25164,1,0,0:0:0:0:
263,152,25664,1,8,0:0:0:0:
130,113,26414,1,8,0:0:0:0:
285,71,26664,1,0,0:0:0:0:
230,115,27164,1,0,0:0:0:0:
230,115,27664,1,8,0:0:0:0:
230,115,28664,1,4,0:0:0:0:
9,148,29164,1,8,0:0:0:0:
261,75,29664,1,8,0:0:0:0:
157,110,30414,1,8,0:0:0:0:
185,147,30664,1,0,0:0:0:0:
194,132,31164,1,8,0:0:0:0:
194,131,31664,1,0,0:0:0:0:
192,174,32664,1,4,0:0:0:0:
253,158,33164,1,0,0:0:0:0:
87,121,33664,1,8,0:0:0:0:
135,104,34664,1,8,0:0:0:0:
265,126,35164,1,0,0:0:0:0:
61,138,35664,1,8,0:0:0:0:
210,114,36664,1,4,0:0:0:0:
305,129,37164,1,8,0:0:0:0:
321,161,37664,1,0,0:0:0:0:
257,113,37914,1,0,0:0:0:0:
337,65,38164,1,8,0:0:0:0:
289,113,38664,1,0,0:0:0:0:
209,129,39164,1,8,0:0:0:0:
321,97,39664,1,8,0:0:0:0:
305,33,40164,1,8,0:0:0:0:
241,106,40414,1,8,0:0:0:0:
369,145,40664,5,4,0:0:0:0:
209,113,41164,1,0,0:0:0:0:
209,113,41664,1,8,0:0:0:0:
59,135,41914,1,0,0:0:0:0:
168,40,42164,1,8,0:0:0:0:
209,113,42664,1,0,0:0:0:0:
257,129,43164,1,0,0:0:0:0:
264,132,43664,1,8,0:0:0:0:
286,106,44664,1,4,0:0:0:0:
353,139,45164,1,0,0:0:0:0:
342,136,45664,1,0,0:0:0:0:
159,140,45914,1,8,0:0:0:0:
287,115,46414,1,8,0:0:0:0:
287,115,46664,1,0,0:0:0:0:
255,119,47164,1,0,0:0:0:0:
255,119,47664,1,8,0:0:0:0:
235,176,48164,1,0,0:0:0:0:
359,118,48414,1,0,0:0:0:0:
227,102,48664,5,8,0:0:0:0:
227,102,49164,1,8,0:0:0:0:
227,102,49664,1,8,0:0:0:0:
211,87,50664,5,12,0:0:0:0:
211,87,51164,1,12,0:0:0:0:
211,87,51664,1,12,0:0:0:0:
211,87,52164,1,12,0:0:0:0:
256,192,52664,12,0,53414,0:0:0:0:
183,131,53664,5,8,0:0:0:0:
279,93,54664,1,4,0:0:0:0:
358,78,55164,1,0,0:0:0:0:
265,50,55664,1,8,0:0:0:0:
188,102,56164,1,8,0:0:0:0:
260,54,56414,1,8,0:0:0:0:
259,146,56664,1,0,0:0:0:0:
195,116,57164,1,0,0:0:0:0:
195,116,57664,1,8,0:0:0:0:
368,121,58664,1,0,0:0:0:0:
394,94,59164,1,0,0:0:0:0:
159,102,59414,1,0,0:0:0:0:
203,107,59664,1,8,0:0:0:0:
225,204,60164,1,0,0:0:0:0:
223,156,60664,1,8,0:0:0:0:
163,85,61164,1,8,0:0:0:0:
84,138,61414,1,8,0:0:0:0:
194,189,61664,1,0,0:0:0:0:
172,154,62164,1,8,0:0:0:0:
274,117,62664,1,4,0:0:0:0:
358,78,63164,1,0,0:0:0:0:
265,50,63664,1,8,0:0:0:0:
143,149,64164,1,8,0:0:0:0:
260,54,64414,1,8,0:0:0:0:
259,146,64664,1,0,0:0:0:0:
195,116,65164,1,0,0:0:0:0:
195,116,65664,1,8,0:0:0:0:
305,97,66664,1,8,0:0:0:0:
337,49,67164,1,8,0:0:0:0:
273,97,67414,1,8,0:0:0:0:
369,97,67664,1,0,0:0:0:0:
256,138,68164,1,0,0:0:0:0:
318,113,68664,1,8,0:0:0:0:
273,132,69164,1,0,0:0:0:0:
41,154,69414,1,8,0:0:0:0:
318,113,69664,1,0,0:0:0:0:
147,164,70164,1,8,0:0:0:0:
385,193,70664,1,4,0:0:0:0:
305,81,71664,1,0,0:0:0:0:
321,49,72164,1,8,0:0:0:0:
321,49,72664,1,4,0:0:0:0:
289,113,73414,1,8,0:0:0:0:
289,113,73664,1,0,0:0:0:0:
305,49,74164,1,8,0:0:0:0:
385,113,74664,1,4,0:0:0:0:
66,106,75164,1,0,0:0:0:0:
67,129,75414,1,0,0:0:0:0:
261,196,75664,1,8,0:0:0:0:
67,129,76164,1,8,0:0:0:0:
283,146,76664,1,0,0:0:0:0:
110,139,77164,1,8,0:0:0:0:
103,143,77414,1,0,0:0:0:0:
291,116,77664,1,8,0:0:0:0:
291,116,78164,1,8,0:0:0:0:
276,149,78664,1,0,0:0:0:0:
307,91,78914,1,8,0:0:0:0:
363,127,79414,1,8,0:0:0:0:
377,189,79664,1,0,0:0:0:0:
299,143,79914,1,0,0:0:0:0:
73,157,80164,1,8,0:0:0:0:
242,132,80664,5,4,0:0:0:0:
146,131,81414,1,0,0:0:0:0:
205,125,81664,1,8,0:0:0:0:
299,90,82164,1,8,0:0:0:0:
267,90,82414,1,8,0:0:0:0:
267,90,82664,1,0,0:0:0:0:
173,150,83164,1,8,0:0:0:0:
187,138,83664,1,8,0:0:0:0:
187,138,83914,1,0,0:0:0:0:
325,155,84164,1,8,0:0:0:0:
325,155,84664,1,4,0:0:0:0:
208,110,85414,1,0,0:0:0:0:
170,144,85664,1,8,0:0:0:0:
333,93,86164,1,8,0:0:0:0:
95,129,86664,1,8,0:0:0:0:
171,158,86914,1,0,0:0:0:0:
141,170,87164,1,8,0:0:0:0:
57,106,87664,1,8,0:0:0:0:
150,100,87914,1,8,0:0:0:0:
88,131,88164,1,0,0:0:0:0:
337,209,88414,5,12,0:0:0:0:
