osu file format v14

[General]
AudioFilename: audio.mp3
AudioLeadIn: 0
PreviewTime: 54289
Countdown: 0
SampleSet: Normal
StackLeniency: 0.7
Mode: 1
LetterboxInBreaks: 0
WidescreenStoryboard: 0

[Editor]
Bookmarks: 20664,54664
DistanceSpacing: 1
BeatDivisor: 2
GridSize: 16
TimelineZoom: 1.1

[Metadata]
Title:Los! Los! Los! (TV Size)
TitleUnicode:Los! Los! Los! (TV Size)
Artist:Tanya Degurechaff (CV: Yuuki Aoi)
ArtistUnicode:ターニャ・デグレチャフ (CV:悠木碧)
Creator:Volta
Version:Futsuu
Source:幼女戦記
Tags:youjo senki saga of tanya the evil anime ending ed japanese yuki
BeatmapID:2239270
BeatmapSetID:1069743

[Difficulty]
HPDrainRate:7
CircleSize:7
OverallDifficulty:3.5
ApproachRate:10
SliderMultiplier:1.4
SliderTickRate:1

[Events]
//Background and Video events
0,0,"tanya kenapa.jpg",0,0
//Break Periods
//Storyboard Layer 0 (Background)
//Storyboard Layer 1 (Fail)
//Storyboard Layer 2 (Pass)
//Storyboard Layer 3 (Foreground)
//Storyboard Layer 4 (Overlay)
//Storyboard Sound Samples

[TimingPoints]
664,250,4,1,0,100,1,0
664,-111.111111111111,4,1,0,100,0,0
54664,-111.111111111111,4,1,0,100,0,1
70664,-111.111111111111,4,1,0,100,0,0
74664,-111.111111111111,4,1,0,100,0,1
80664,-111.111111111111,4,1,0,100,0,0

[HitObjects]
286,192,664,5,4,0:0:0:0:
347,203,2664,1,0,0:0:0:0:
347,203,4664,5,4,0:0:0:0:
8,124,4914,1,0,0:0:0:0:
153,122,5164,1,0,0:0:0:0:
268,127,5664,1,0,0:0:0:0:
268,127,5914,1,0,0:0:0:0:
268,127,6164,1,8,0:0:0:0:
268,127,6664,1,4,0:0:0:0:
128,118,6914,1,0,0:0:0:0:
267,118,7164,1,0,0:0:0:0:
267,118,7664,1,0,0:0:0:0:
208,72,7914,1,0,0:0:0:0:
316,118,8164,1,8,0:0:0:0:
250,145,8664,1,4,0:0:0:0:
132,120,8914,1,0,0:0:0:0:
363,54,9164,1,0,0:0:0:0:
363,54,9664,1,8,0:0:0:0:
363,54,9914,1,8,0:0:0:0:
363,54,10164,1,8,0:0:0:0:
372,41,10664,1,8,0:0:0:0:
372,40,10914,1,0,0:0:0:0:
372,40,11164,1,8,0:0:0:0:
372,196,11414,1,0,0:0:0:0:
379,82,11664,1,8,0:0:0:0:
379,82,11789,1,8,0:0:0:0:
379,82,11914,1,8,0:0:0:0:
178,130,12164,1,0,0:0:0:0:
280,93,12664,1,4,0:0:0:0:
144,160,12914,1,8,0:0:0:0:
358,78,13164,1,0,0:0:0:0:
265,50,13414,1,8,0:0:0:0:
265,50,13664,1,8,0:0:0:0:
143,149,14164,1,0,0:0:0:0:
260,54,14414,1,8,0:0:0:0:
36,145,14664,1,0,0:0:0:0:
226,133,14914,1,8,0:0:0:0:
195,116,15164,1,8,0:0:0:0:
195,116,15414,1,0,0:0:0:0:
195,116,15664,1,8,0:0:0:0:
151,157,16164,1,0,0:0:0:0:
288,164,16414,1,8,0:0:0:0:
151,157,16664,1,8,0:0:0:0:
277,109,17039,1,8,0:0:0:0:
277,109,17414,1,8,0:0:0:0:
277,109,17789,1,8,0:0:0:0:
277,109,18164,1,8,0:0:0:0:
179,139,18414,1,0,0:0:0:0:
76,166,18664,1,8,0:0:0:0:
133,170,18914,1,8,0:0:0:0:
154,44,19164,1,0,0:0:0:0:
151,138,19414,1,8,0:0:0:0:
294,92,19664,1,0,0:0:0:0:
172,124,19789,1,0,0:0:0:0:
200,102,19914,1,0,0:0:0:0:
293,143,20164,1,8,0:0:0:0:
304,121,20664,1,4,0:0:0:0:
192,125,20914,1,0,0:0:0:0:
303,135,21164,1,0,0:0:0:0:
303,135,21664,1,0,0:0:0:0:
303,135,21914,1,0,0:0:0:0:
303,135,22164,1,8,0:0:0:0:
303,135,22664,1,4,0:0:0:0:
386,140,22914,1,8,0:0:0:0:
243,189,23164,1,0,0:0:0:0:
25,130,23414,5,8,0:0:0:0:
114,125,23664,1,0,0:0:0:0:
281,112,23789,1,0,0:0:0:0:
292,130,23914,1,0,0:0:0:0:
338,105,24164,1,8,0:0:0:0:
192,110,24664,1,4,0:0:0:0:
153,101,25164,1,0,0:0:0:0:
178,159,25414,1,0,0:0:0:0:
263,152,25664,1,8,0:0:0:0:
276,93,26039,1,0,0:0:0:0:
285,71,26414,1,8,0:0:0:0:
285,71,26664,1,0,0:0:0:0:
230,115,27164,1,8,0:0:0:0:
161,145,27414,1,0,0:0:0:0:
230,115,27664,1,8,0:0:0:0:
230,115,28039,1,0,0:0:0:0:
230,115,28414,1,8,0:0:0:0:
230,115,28664,1,4,0:0:0:0:
283,114,29164,1,8,0:0:0:0:
261,75,29414,1,0,0:0:0:0:
261,75,29664,1,8,0:0:0:0:
238,95,30039,1,0,0:0:0:0:
247,83,30414,1,8,0:0:0:0:
185,147,30664,1,0,0:0:0:0:
194,132,31164,1,0,0:0:0:0:
177,129,31414,1,0,0:0:0:0:
194,131,31664,1,8,0:0:0:0:
238,142,32039,1,8,0:0:0:0:
238,142,32414,1,0,0:0:0:0:
192,174,32664,1,4,0:0:0:0:
253,158,33164,1,8,0:0:0:0:
144,178,33414,1,0,0:0:0:0:
196,295,33664,6,0,P|98:166|272:76,1,377.999988464356
265,126,34664,1,8,0:0:0:0:
265,126,34914,1,0,0:0:0:0:
265,126,35164,1,8,0:0:0:0:
174,268,35664,2,0,P|270:88|430:184,1,377.999988464356
251,131,36664,1,4,0:0:0:0:
64,144,36914,1,0,0:0:0:0:
305,129,37164,1,8,0:0:0:0:
321,161,37414,1,0,0:0:0:0:
321,161,37664,1,8,0:0:0:0:
257,113,37914,1,8,0:0:0:0:
337,65,38164,1,8,0:0:0:0:
289,113,38664,1,0,0:0:0:0:
289,113,38914,1,8,0:0:0:0:
209,129,39164,1,8,0:0:0:0:
289,113,39414,1,0,0:0:0:0:
321,97,39664,1,8,0:0:0:0:
209,129,39914,1,0,0:0:0:0:
305,33,40164,1,8,0:0:0:0:
88,140,40289,1,8,0:0:0:0:
139,106,40414,1,8,0:0:0:0:
369,145,40664,5,4,0:0:0:0:
209,113,40914,1,8,0:0:0:0:
209,113,41164,1,0,0:0:0:0:
209,113,41414,1,0,0:0:0:0:
209,113,41664,1,8,0:0:0:0:
59,135,41914,1,0,0:0:0:0:
168,40,42164,1,8,0:0:0:0:
209,113,42664,1,0,0:0:0:0:
257,129,42914,1,8,0:0:0:0:
257,129,43164,1,0,0:0:0:0:
257,129,43414,1,0,0:0:0:0:
264,132,43664,1,8,0:0:0:0:
385,129,43914,1,0,0:0:0:0:
72,122,44164,1,8,0:0:0:0:
48,144,44289,1,8,0:0:0:0:
48,144,44414,1,8,0:0:0:0:
286,106,44664,1,4,0:0:0:0:
353,139,45164,1,0,0:0:0:0:
342,136,45414,1,8,0:0:0:0:
342,136,45664,1,0,0:0:0:0:
342,136,45914,1,8,0:0:0:0:
287,115,46414,1,8,0:0:0:0:
287,115,46664,1,0,0:0:0:0:
255,119,46914,1,8,0:0:0:0:
255,119,47164,1,0,0:0:0:0:
255,119,47414,1,8,0:0:0:0:
255,119,47664,1,8,0:0:0:0:
39,132,47914,1,0,0:0:0:0:
235,176,48164,1,0,0:0:0:0:
235,176,48289,1,0,0:0:0:0:
359,118,48414,1,0,0:0:0:0:
227,102,48664,5,8,0:0:0:0:
227,102,49164,1,8,0:0:0:0:
227,102,49664,1,8,0:0:0:0:
227,102,50164,1,8,0:0:0:0:
265,165,50414,1,0,0:0:0:0:
211,87,50664,5,12,0:0:0:0:
211,87,51164,1,12,0:0:0:0:
211,87,51664,1,12,0:0:0:0:
211,87,52164,1,12,0:0:0:0:
256,192,52664,12,0,53414,0:0:0:0:
183,131,53664,5,8,0:0:0:0:
112,192,54164,1,8,0:0:0:0:
112,192,54289,1,8,0:0:0:0:
112,192,54414,1,8,0:0:0:0:
279,93,54664,1,4,0:0:0:0:
160,128,54914,1,8,0:0:0:0:
358,78,55164,1,0,0:0:0:0:
265,50,55414,1,8,0:0:0:0:
265,50,55664,1,8,0:0:0:0:
188,102,56164,1,8,0:0:0:0:
260,54,56414,1,8,0:0:0:0:
259,146,56664,1,0,0:0:0:0:
226,133,56914,1,8,0:0:0:0:
195,116,57164,1,0,0:0:0:0:
131,128,57289,1,0,0:0:0:0:
195,116,57414,1,8,0:0:0:0:
195,116,57664,1,8,0:0:0:0:
188,142,58164,1,0,0:0:0:0:
288,164,58414,1,8,0:0:0:0:
368,121,58664,1,0,0:0:0:0:
394,94,59164,1,0,0:0:0:0:
154,105,59414,1,8,0:0:0:0:
203,107,59664,1,8,0:0:0:0:
225,204,60164,1,8,0:0:0:0:
225,204,60414,1,0,0:0:0:0:
223,156,60664,1,8,0:0:0:0:
354,81,61039,1,8,0:0:0:0:
356,70,61414,1,8,0:0:0:0:
194,189,61664,1,0,0:0:0:0:
160,112,61789,1,0,0:0:0:0:
160,112,61914,1,0,0:0:0:0:
214,185,62164,1,8,0:0:0:0:
274,117,62664,1,4,0:0:0:0:
288,128,62914,1,8,0:0:0:0:
358,78,63164,1,0,0:0:0:0:
265,50,63414,1,8,0:0:0:0:
265,50,63664,1,8,0:0:0:0:
143,149,64164,1,8,0:0:0:0:
260,54,64414,1,8,0:0:0:0:
259,146,64664,1,0,0:0:0:0:
226,133,64914,1,8,0:0:0:0:
85,161,65039,1,8,0:0:0:0:
195,116,65164,1,8,0:0:0:0:
195,116,65414,1,0,0:0:0:0:
195,116,65664,1,8,0:0:0:0:
353,145,66164,1,0,0:0:0:0:
288,164,66414,1,8,0:0:0:0:
305,97,66664,1,8,0:0:0:0:
337,49,67164,1,8,0:0:0:0:
273,97,67414,1,8,0:0:0:0:
369,97,67664,1,0,0:0:0:0:
256,138,68164,1,8,0:0:0:0:
270,125,68414,1,0,0:0:0:0:
318,113,68664,1,8,0:0:0:0:
273,132,69039,1,0,0:0:0:0:
41,154,69414,1,8,0:0:0:0:
318,113,69664,1,0,0:0:0:0:
318,113,69914,1,0,0:0:0:0:
318,113,70039,1,0,0:0:0:0:
273,161,70164,1,8,0:0:0:0:
219,27,70414,1,8,0:0:0:0:
385,193,70664,1,4,0:0:0:0:
273,193,71164,1,8,0:0:0:0:
305,113,71414,1,8,0:0:0:0:
305,81,71664,1,0,0:0:0:0:
321,49,72164,1,8,0:0:0:0:
321,49,72664,1,4,0:0:0:0:
96,128,72914,1,0,0:0:0:0:
209,193,73164,1,8,0:0:0:0:
289,113,73414,1,8,0:0:0:0:
289,113,73664,1,0,0:0:0:0:
305,49,74164,1,8,0:0:0:0:
112,160,74414,1,8,0:0:0:0:
112,160,74539,1,8,0:0:0:0:
385,113,74664,1,4,0:0:0:0:
210,245,74914,1,8,0:0:0:0:
261,196,75164,1,0,0:0:0:0:
261,196,75414,1,8,0:0:0:0:
261,196,75664,1,8,0:0:0:0:
233,94,76164,1,0,0:0:0:0:
288,154,76414,1,8,0:0:0:0:
283,146,76664,1,0,0:0:0:0:
110,139,77164,1,8,0:0:0:0:
291,116,77414,1,0,0:0:0:0:
291,116,77664,1,8,0:0:0:0:
291,116,77914,1,8,0:0:0:0:
81,129,78039,1,8,0:0:0:0:
291,116,78164,1,0,0:0:0:0:
291,116,78414,1,8,0:0:0:0:
276,149,78664,1,0,0:0:0:0:
48,128,78914,1,8,0:0:0:0:
120,154,79039,1,8,0:0:0:0:
307,91,79289,1,0,0:0:0:0:
363,127,79414,1,8,0:0:0:0:
377,189,79539,1,0,0:0:0:0:
377,189,79664,1,0,0:0:0:0:
372,156,79914,1,0,0:0:0:0:
73,157,80164,1,8,0:0:0:0:
242,132,80664,5,4,0:0:0:0:
176,144,80914,1,0,0:0:0:0:
247,118,81164,1,8,0:0:0:0:
208,126,81414,1,0,0:0:0:0:
205,125,81664,1,8,0:0:0:0:
62,155,81914,1,8,0:0:0:0:
299,90,82164,1,8,0:0:0:0:
267,90,82289,1,8,0:0:0:0:
267,90,82414,1,0,0:0:0:0:
267,90,82664,1,0,0:0:0:0:
173,150,83164,1,8,0:0:0:0:
205,118,83414,1,0,0:0:0:0:
187,138,83664,1,8,0:0:0:0:
187,138,83914,1,0,0:0:0:0:
325,155,84164,1,8,0:0:0:0:
325,155,84289,1,8,0:0:0:0:
325,155,84414,1,8,0:0:0:0:
325,155,84664,1,4,0:0:0:0:
128,128,84914,1,8,0:0:0:0:
346,174,85164,1,8,0:0:0:0:
293,93,85414,1,0,0:0:0:0:
170,144,85664,1,8,0:0:0:0:
48,160,85914,1,0,0:0:0:0:
333,93,86164,1,8,0:0:0:0:
95,129,86664,1,8,0:0:0:0:
225,162,86914,1,0,0:0:0:0:
141,170,87164,1,8,0:0:0:0:
171,158,87414,1,0,0:0:0:0:
326,148,87664,5,8,0:0:0:0:
380,89,87789,1,8,0:0:0:0:
375,87,87914,1,0,0:0:0:0:
375,87,88164,1,0,0:0:0:0:
337,209,88414,5,12,0:0:0:0:
