osu file format v14

[General]
AudioFilename: audio.mp3
AudioLeadIn: 0
PreviewTime: 55087
Countdown: 1
SampleSet: Soft
StackLeniency: 0.7
Mode: 3
LetterboxInBreaks: 0
SpecialStyle: 0
WidescreenStoryboard: 1

[Editor]
Bookmarks: 9212,13212,17212,21212,25212,37212,41212,45212,55212,73212,81212
DistanceSpacing: 1.8
BeatDivisor: 4
GridSize: 32
TimelineZoom: 2.2

[Metadata]
Title:Los! Los! Los! (TV.Size)
TitleUnicode:Los! Los! Los! (TV.Size)
Artist:Tanya Degurechaff (CV: Yuki Aoi)
ArtistUnicode:ターニャ・デグレチャフ(CV:悠木碧)
Creator:Maneh
Version:eZmmR's NO LOSS?
Source:幼女戦記
Tags:Youjo Senki Saga of Tanya the Evil ED ending TV Size yuuki losloslos
BeatmapID:1616863
BeatmapSetID:767398

[Difficulty]
HPDrainRate:8.5
CircleSize:4
OverallDifficulty:5.5
ApproachRate:5
SliderMultiplier:1.4
SliderTickRate:1

[Events]
//Background and Video events
0,0,"LOSS.png",0,0
//Break Periods
//Storyboard Layer 0 (Background)
//Storyboard Layer 1 (Fail)
//Storyboard Layer 2 (Pass)
//Storyboard Layer 3 (Foreground)
//Storyboard Sound Samples

[TimingPoints]
1212,250,4,2,1,40,1,0

[HitObjects]
64,192,1212,128,0,2337:0:0:0:0:
448,192,1212,1,0,0:0:0:0:
320,192,1212,1,0,0:0:0:0:
192,192,1337,128,0,1462:0:0:0:0:
320,192,1462,128,0,1587:0:0:0:0:
448,192,1587,128,0,1712:0:0:0:0:
192,192,1712,128,0,1837:0:0:0:0:
448,192,1837,128,0,1962:0:0:0:0:
320,192,1962,128,0,2087:0:0:0:0:
192,192,2087,128,0,2212:0:0:0:0:
448,192,2212,128,0,2337:0:0:0:0:
320,192,2337,128,0,2462:0:0:0:0:
192,192,2462,128,0,2587:0:0:0:0:
64,192,2587,128,0,2712:0:0:0:0:
192,192,2712,128,0,2837:0:0:0:0:
448,192,2712,128,0,2837:0:0:0:0:
192,192,2962,128,0,3087:0:0:0:0:
448,192,2962,128,0,3087:0:0:0:0:
64,192,3212,1,0,0:0:0:0:
448,192,3212,128,0,4337:0:0:0:0:
192,192,3243,1,0,0:0:0:0:
320,192,3337,128,0,3462:0:0:0:0:
192,192,3462,128,0,3587:0:0:0:0:
64,192,3587,128,0,3712:0:0:0:0:
320,192,3712,128,0,3837:0:0:0:0:
64,192,3837,128,0,3962:0:0:0:0:
192,192,3962,128,0,4087:0:0:0:0:
320,192,4087,128,0,4212:0:0:0:0:
64,192,4212,128,0,4337:0:0:0:0:
192,192,4337,128,0,4462:0:0:0:0:
320,192,4462,128,0,4587:0:0:0:0:
448,192,4587,128,0,4712:0:0:0:0:
64,192,4587,128,0,4712:0:0:0:0:
192,192,4712,128,0,4837:0:0:0:0:
320,192,4837,128,0,5212:0:0:0:0:
64,192,4868,128,0,5212:0:0:0:0:
192,192,4962,1,0,0:0:0:0:
192,192,5212,128,0,5399:0:0:0:0:
448,192,5212,128,0,5399:0:0:0:0:
192,192,5462,1,0,0:0:0:0:
448,192,5462,1,0,0:0:0:0:
64,192,5462,128,0,5712:0:0:0:0:
448,192,5712,1,0,0:0:0:0:
192,192,5712,1,0,0:0:0:0:
320,192,5712,128,0,5962:0:0:0:0:
64,192,5837,128,0,5962:0:0:0:0:
192,192,5962,128,0,6149:0:0:0:0:
448,192,5962,128,0,6149:0:0:0:0:
448,192,6212,1,0,0:0:0:0:
192,192,6212,1,0,0:0:0:0:
64,192,6212,128,0,6462:0:0:0:0:
448,192,6462,1,0,0:0:0:0:
192,192,6462,1,0,0:0:0:0:
320,192,6462,128,0,6712:0:0:0:0:
192,192,6712,1,0,0:0:0:0:
448,192,6712,1,0,0:0:0:0:
64,192,6712,128,0,7087:0:0:0:0:
448,192,6962,128,0,7212:0:0:0:0:
192,192,6962,128,0,7087:0:0:0:0:
320,192,7212,1,0,0:0:0:0:
64,192,7212,1,0,0:0:0:0:
192,192,7212,128,0,7462:0:0:0:0:
448,192,7337,128,0,7462:0:0:0:0:
64,192,7462,128,0,7649:0:0:0:0:
320,192,7462,128,0,7649:0:0:0:0:
320,192,7712,1,0,0:0:0:0:
64,192,7712,1,0,0:0:0:0:
448,192,7712,128,0,8024:0:0:0:0:
64,192,7962,1,0,0:0:0:0:
320,192,7962,1,0,0:0:0:0:
192,192,7962,128,0,8212:0:0:0:0:
320,192,8212,1,0,0:0:0:0:
64,192,8212,1,0,0:0:0:0:
448,192,8212,128,0,8462:0:0:0:0:
192,192,8337,128,0,8462:0:0:0:0:
64,192,8462,128,0,8649:0:0:0:0:
320,192,8462,128,0,8649:0:0:0:0:
320,192,8712,1,0,0:0:0:0:
64,192,8712,1,0,0:0:0:0:
192,192,8712,128,0,9087:0:0:0:0:
64,192,8962,1,0,0:0:0:0:
320,192,8962,128,0,9087:0:0:0:0:
448,192,8962,128,0,9212:0:0:0:0:
64,192,9212,128,0,9399:0:0:0:0:
192,192,9212,128,0,9399:0:0:0:0:
64,192,9462,128,0,9649:0:0:0:0:
192,192,9462,128,0,9649:0:0:0:0:
64,192,9712,128,0,9899:0:0:0:0:
192,192,9712,128,0,9899:0:0:0:0:
320,192,9712,128,0,9899:0:0:0:0:
64,192,9962,128,0,10149:0:0:0:0:
192,192,9962,128,0,10149:0:0:0:0:
320,192,9962,128,0,10149:0:0:0:0:
64,192,10212,128,0,10399:0:0:0:0:
192,192,10212,128,0,10399:0:0:0:0:
320,192,10212,128,0,10399:0:0:0:0:
448,192,10212,128,0,10399:0:0:0:0:
64,192,10462,128,0,10649:0:0:0:0:
192,192,10462,128,0,10649:0:0:0:0:
320,192,10462,128,0,10649:0:0:0:0:
448,192,10462,128,0,10649:0:0:0:0:
64,192,10712,128,0,10899:0:0:0:0:
192,192,10712,128,0,10899:0:0:0:0:
320,192,10712,128,0,10899:0:0:0:0:
448,192,10712,128,0,10899:0:0:0:0:
64,192,10962,128,0,11149:0:0:0:0:
192,192,10962,128,0,11149:0:0:0:0:
320,192,10962,128,0,11149:0:0:0:0:
448,192,10962,128,0,11149:0:0:0:0:
192,192,11212,1,0,0:0:0:0:
448,192,11212,1,0,0:0:0:0:
64,192,11212,128,0,11337:0:0:0:0:
192,192,11337,128,0,11587:0:0:0:0:
64,192,11462,1,0,0:0:0:0:
448,192,11462,1,0,0:0:0:0:
320,192,11462,128,0,11587:0:0:0:0:
448,192,11587,128,0,11837:0:0:0:0:
64,192,11712,1,0,0:0:0:0:
320,192,11712,1,0,0:0:0:0:
192,192,11712,128,0,11837:0:0:0:0:
64,192,11837,128,0,12087:0:0:0:0:
192,192,11962,1,0,0:0:0:0:
448,192,11962,1,0,0:0:0:0:
320,192,11962,128,0,12087:0:0:0:0:
448,192,12087,128,0,12337:0:0:0:0:
64,192,12212,1,0,0:0:0:0:
320,192,12212,1,0,0:0:0:0:
192,192,12212,128,0,12337:0:0:0:0:
64,192,12337,128,0,12587:0:0:0:0:
192,192,12462,1,0,0:0:0:0:
320,192,12462,1,0,0:0:0:0:
448,192,12462,128,0,12587:0:0:0:0:
192,192,12587,1,0,0:0:0:0:
320,192,12587,128,0,12712:0:0:0:0:
448,192,12712,1,0,0:0:0:0:
64,192,12712,128,0,12962:0:0:0:0:
192,192,12774,128,0,12899:0:0:0:0:
320,192,12837,1,0,0:0:0:0:
448,192,12899,128,0,13024:0:0:0:0:
320,192,12962,128,0,13087:0:0:0:0:
192,192,13024,128,0,13149:0:0:0:0:
64,192,13087,128,0,13212:0:0:0:0:
320,192,13212,128,0,13462:0:0:0:0:
192,192,13212,1,0,0:0:0:0:
448,192,13212,128,0,13462:0:0:0:0:
64,192,13462,128,0,13712:0:0:0:0:
192,192,13462,128,0,13587:0:0:0:0:
320,192,13712,1,0,0:0:0:0:
448,192,13712,128,0,14212:0:0:0:0:
192,192,13837,128,0,13962:0:0:0:0:
320,192,13962,128,0,14212:0:0:0:0:
64,192,13962,1,0,0:0:0:0:
64,192,14212,128,0,14462:0:0:0:0:
192,192,14212,128,0,14337:0:0:0:0:
448,192,14462,128,0,14712:0:0:0:0:
320,192,14462,1,0,0:0:0:0:
320,192,14587,1,0,0:0:0:0:
192,192,14587,128,0,14712:0:0:0:0:
64,192,14712,128,0,14962:0:0:0:0:
320,192,14837,1,0,0:0:0:0:
192,192,14962,128,0,15212:0:0:0:0:
320,192,14962,1,0,0:0:0:0:
448,192,14962,1,0,0:0:0:0:
64,192,15087,1,0,0:0:0:0:
448,192,15212,128,0,15462:0:0:0:0:
64,192,15212,1,0,0:0:0:0:
320,192,15212,128,0,15462:0:0:0:0:
64,192,15462,128,0,15712:0:0:0:0:
192,192,15462,128,0,15587:0:0:0:0:
320,192,15712,128,0,15962:0:0:0:0:
448,192,15712,1,0,0:0:0:0:
192,192,15837,128,0,15962:0:0:0:0:
64,192,15962,128,0,16212:0:0:0:0:
448,192,15962,1,0,0:0:0:0:
448,192,16212,128,0,16712:0:0:0:0:
192,192,16212,1,0,0:0:0:0:
320,192,16212,128,0,16337:0:0:0:0:
64,192,16462,1,0,0:0:0:0:
192,192,16462,128,0,16712:0:0:0:0:
320,192,16587,128,0,16712:0:0:0:0:
64,192,16712,128,0,17212:0:0:0:0:
448,192,16837,128,0,16962:0:0:0:0:
320,192,16962,1,0,0:0:0:0:
192,192,16962,1,0,0:0:0:0:
320,192,17087,1,0,0:0:0:0:
448,192,17212,1,0,0:0:0:0:
320,192,17212,1,0,0:0:0:0:
192,192,17212,128,0,17337:0:0:0:0:
320,192,17337,128,0,17587:0:0:0:0:
192,192,17462,1,0,0:0:0:0:
448,192,17462,1,0,0:0:0:0:
64,192,17462,128,0,17587:0:0:0:0:
192,192,17587,128,0,17837:0:0:0:0:
64,192,17712,1,0,0:0:0:0:
448,192,17712,1,0,0:0:0:0:
320,192,17712,128,0,17837:0:0:0:0:
448,192,17837,128,0,18087:0:0:0:0:
192,192,17962,1,0,0:0:0:0:
320,192,17962,1,0,0:0:0:0:
64,192,17962,128,0,18087:0:0:0:0:
192,192,18087,128,0,18337:0:0:0:0:
64,192,18212,1,0,0:0:0:0:
320,192,18212,1,0,0:0:0:0:
448,192,18212,128,0,18337:0:0:0:0:
320,192,18337,128,0,18587:0:0:0:0:
64,192,18462,1,0,0:0:0:0:
448,192,18462,1,0,0:0:0:0:
192,192,18462,128,0,18587:0:0:0:0:
64,192,18587,128,0,18837:0:0:0:0:
192,192,18712,1,0,0:0:0:0:
320,192,18712,1,0,0:0:0:0:
448,192,18712,128,0,18837:0:0:0:0:
192,192,18837,128,0,19087:0:0:0:0:
320,192,18962,1,0,0:0:0:0:
448,192,18962,128,0,19212:0:0:0:0:
64,192,18962,128,0,19087:0:0:0:0:
320,192,19087,1,0,0:0:0:0:
192,192,19212,1,0,0:0:0:0:
320,192,19212,1,0,0:0:0:0:
192,192,19337,1,0,0:0:0:0:
64,192,19337,128,0,19587:0:0:0:0:
320,192,19462,1,0,0:0:0:0:
448,192,19462,128,0,19712:0:0:0:0:
192,192,19587,1,0,0:0:0:0:
320,192,19587,1,0,0:0:0:0:
192,192,19712,1,0,0:0:0:0:
64,192,19712,128,0,19962:0:0:0:0:
320,192,19837,1,0,0:0:0:0:
448,192,19837,128,0,20087:0:0:0:0:
192,192,19962,1,0,0:0:0:0:
320,192,19962,128,0,20149:0:0:0:0:
64,192,20087,1,0,0:0:0:0:
192,192,20087,128,0,20212:0:0:0:0:
448,192,20212,128,0,20712:0:0:0:0:
64,192,20212,128,0,20337:0:0:0:0:
320,192,20274,128,0,20524:0:0:0:0:
192,192,20337,128,0,20462:0:0:0:0:
64,192,20462,128,0,20587:0:0:0:0:
192,192,20587,128,0,20649:0:0:0:0:
320,192,20649,128,0,20712:0:0:0:0:
64,192,20712,128,0,21212:0:0:0:0:
192,192,20774,128,0,21024:0:0:0:0:
320,192,20837,128,0,20962:0:0:0:0:
448,192,20962,128,0,21087:0:0:0:0:
320,192,21087,128,0,21149:0:0:0:0:
192,192,21149,128,0,21212:0:0:0:0:
448,192,21212,128,0,21462:0:0:0:0:
320,192,21212,128,0,21587:0:0:0:0:
64,192,21462,128,0,21712:0:0:0:0:
192,192,21462,1,0,0:0:0:0:
448,192,21712,128,0,21962:0:0:0:0:
192,192,21712,1,0,0:0:0:0:
320,192,21837,128,0,21962:0:0:0:0:
192,192,21962,128,0,22212:0:0:0:0:
64,192,21962,128,0,22087:0:0:0:0:
320,192,22212,128,0,22462:0:0:0:0:
448,192,22212,1,0,0:0:0:0:
64,192,22337,128,0,22462:0:0:0:0:
192,192,22462,128,0,22712:0:0:0:0:
448,192,22462,1,0,0:0:0:0:
448,192,22712,128,0,22962:0:0:0:0:
320,192,22712,1,0,0:0:0:0:
64,192,22712,128,0,22962:0:0:0:0:
320,192,22962,1,0,0:0:0:0:
192,192,22962,128,0,23149:0:0:0:0:
64,192,23212,128,0,23274:0:0:0:0:
192,192,23212,128,0,23274:0:0:0:0:
448,192,23212,128,0,23274:0:0:0:0:
448,192,23337,128,0,23399:0:0:0:0:
192,192,23337,128,0,23399:0:0:0:0:
64,192,23337,128,0,23399:0:0:0:0:
448,192,23462,128,0,23649:0:0:0:0:
320,192,23462,1,0,0:0:0:0:
320,192,23587,128,0,23774:0:0:0:0:
192,192,23587,1,0,0:0:0:0:
192,192,23712,128,0,23899:0:0:0:0:
64,192,23712,1,0,0:0:0:0:
64,192,23837,128,0,24024:0:0:0:0:
448,192,23837,1,0,0:0:0:0:
192,192,23962,128,0,24149:0:0:0:0:
320,192,23962,1,0,0:0:0:0:
320,192,24087,128,0,24274:0:0:0:0:
448,192,24087,1,0,0:0:0:0:
448,192,24212,128,0,24399:0:0:0:0:
64,192,24212,1,0,0:0:0:0:
320,192,24337,128,0,24524:0:0:0:0:
192,192,24337,1,0,0:0:0:0:
192,192,24462,128,0,24649:0:0:0:0:
64,192,24462,1,0,0:0:0:0:
64,192,24587,128,0,24774:0:0:0:0:
448,192,24587,1,0,0:0:0:0:
192,192,24712,128,0,24899:0:0:0:0:
320,192,24712,1,0,0:0:0:0:
320,192,24837,128,0,25024:0:0:0:0:
448,192,24837,1,0,0:0:0:0:
448,192,24962,128,0,25149:0:0:0:0:
64,192,24962,1,0,0:0:0:0:
320,192,25087,1,0,0:0:0:0:
192,192,25212,1,0,0:0:0:0:
64,192,25212,1,0,0:0:0:0:
448,192,25212,128,0,25337:0:0:0:0:
320,192,25337,1,0,0:0:0:0:
192,192,25337,128,0,25462:0:0:0:0:
320,192,25462,128,0,25712:0:0:0:0:
64,192,25462,1,0,0:0:0:0:
448,192,25587,128,0,25712:0:0:0:0:
64,192,25712,1,0,0:0:0:0:
192,192,25712,128,0,26024:0:0:0:0:
320,192,25837,1,0,0:0:0:0:
448,192,25962,128,0,26212:0:0:0:0:
64,192,25962,1,0,0:0:0:0:
320,192,26087,128,0,26587:0:0:0:0:
64,192,26212,128,0,26462:0:0:0:0:
192,192,26212,1,0,0:0:0:0:
192,192,26337,1,0,0:0:0:0:
448,192,26462,128,0,26962:0:0:0:0:
192,192,26587,128,0,26962:0:0:0:0:
64,192,26587,128,0,26712:0:0:0:0:
320,192,26837,1,0,0:0:0:0:
320,192,26962,1,0,0:0:0:0:
64,192,26962,1,0,0:0:0:0:
192,192,27087,1,0,0:0:0:0:
320,192,27087,1,0,0:0:0:0:
64,192,27212,128,0,27462:0:0:0:0:
320,192,27212,1,0,0:0:0:0:
448,192,27212,128,0,27462:0:0:0:0:
192,192,27337,1,0,0:0:0:0:
320,192,27462,128,0,27712:0:0:0:0:
192,192,27462,1,0,0:0:0:0:
448,192,27712,128,0,28212:0:0:0:0:
192,192,27712,1,0,0:0:0:0:
64,192,27712,128,0,27837:0:0:0:0:
192,192,27837,128,0,27962:0:0:0:0:
320,192,27962,1,0,0:0:0:0:
64,192,28087,1,0,0:0:0:0:
192,192,28212,128,0,28587:0:0:0:0:
320,192,28212,128,0,28337:0:0:0:0:
448,192,28337,1,0,0:0:0:0:
64,192,28337,1,0,0:0:0:0:
320,192,28587,128,0,28962:0:0:0:0:
64,192,28587,128,0,28712:0:0:0:0:
448,192,28587,128,0,28712:0:0:0:0:
192,192,28837,1,0,0:0:0:0:
64,192,28962,1,0,0:0:0:0:
448,192,28962,128,0,29212:0:0:0:0:
320,192,29087,1,0,0:0:0:0:
192,192,29087,1,0,0:0:0:0:
64,192,29212,1,0,0:0:0:0:
192,192,29337,128,0,29462:0:0:0:0:
320,192,29337,128,0,29587:0:0:0:0:
64,192,29462,128,0,29837:0:0:0:0:
448,192,29462,128,0,29587:0:0:0:0:
192,192,29712,1,0,0:0:0:0:
320,192,29837,1,0,0:0:0:0:
448,192,29837,128,0,29962:0:0:0:0:
64,192,29962,1,0,0:0:0:0:
192,192,29962,1,0,0:0:0:0:
320,192,29962,128,0,30274:0:0:0:0:
192,192,30087,1,0,0:0:0:0:
64,192,30212,128,0,30462:0:0:0:0:
192,192,30212,1,0,0:0:0:0:
448,192,30212,1,0,0:0:0:0:
448,192,30337,128,0,30712:0:0:0:0:
192,192,30462,128,0,30712:0:0:0:0:
320,192,30587,128,0,30712:0:0:0:0:
64,192,30712,1,0,0:0:0:0:
448,192,30837,1,0,0:0:0:0:
320,192,30837,1,0,0:0:0:0:
64,192,30962,1,0,0:0:0:0:
448,192,30962,1,0,0:0:0:0:
192,192,30962,128,0,31212:0:0:0:0:
64,192,31212,128,0,31462:0:0:0:0:
320,192,31212,1,0,0:0:0:0:
448,192,31212,1,0,0:0:0:0:
320,192,31337,1,0,0:0:0:0:
448,192,31337,1,0,0:0:0:0:
448,192,31462,128,0,31712:0:0:0:0:
192,192,31462,1,0,0:0:0:0:
192,192,31712,128,0,31962:0:0:0:0:
64,192,31712,1,0,0:0:0:0:
320,192,31712,1,0,0:0:0:0:
64,192,31837,1,0,0:0:0:0:
320,192,31837,1,0,0:0:0:0:
320,192,31962,128,0,32212:0:0:0:0:
448,192,31962,1,0,0:0:0:0:
192,192,32087,5,0,0:0:0:0:
64,192,32212,128,0,32712:0:0:0:0:
448,192,32212,1,0,0:0:0:0:
192,192,32274,128,0,32524:0:0:0:0:
320,192,32337,128,0,32462:0:0:0:0:
448,192,32462,128,0,32587:0:0:0:0:
320,192,32587,128,0,32649:0:0:0:0:
192,192,32649,128,0,32712:0:0:0:0:
448,192,32712,128,0,33212:0:0:0:0:
320,192,32774,128,0,33024:0:0:0:0:
192,192,32837,128,0,32962:0:0:0:0:
64,192,32962,128,0,33087:0:0:0:0:
192,192,33087,128,0,33149:0:0:0:0:
320,192,33149,128,0,33212:0:0:0:0:
64,192,33212,128,0,33462:0:0:0:0:
192,192,33212,1,0,0:0:0:0:
192,192,33462,1,0,0:0:0:0:
320,192,33462,1,0,0:0:0:0:
448,192,33587,1,0,0:0:0:0:
320,192,33712,128,0,33962:0:0:0:0:
192,192,33712,1,0,0:0:0:0:
64,192,33712,1,0,0:0:0:0:
64,192,33837,1,0,0:0:0:0:
192,192,33962,128,0,34212:0:0:0:0:
448,192,33962,1,0,0:0:0:0:
64,192,33962,1,0,0:0:0:0:
64,192,34212,128,0,34712:0:0:0:0:
448,192,34212,1,0,0:0:0:0:
192,192,34274,1,0,0:0:0:0:
320,192,34337,1,0,0:0:0:0:
448,192,34399,1,0,0:0:0:0:
192,192,34462,1,0,0:0:0:0:
320,192,34524,1,0,0:0:0:0:
448,192,34587,1,0,0:0:0:0:
192,192,34649,1,0,0:0:0:0:
320,192,34712,1,0,0:0:0:0:
448,192,34712,1,0,0:0:0:0:
64,192,34837,1,0,0:0:0:0:
192,192,34837,1,0,0:0:0:0:
320,192,34962,1,0,0:0:0:0:
448,192,34962,1,0,0:0:0:0:
192,192,35087,1,0,0:0:0:0:
64,192,35087,1,0,0:0:0:0:
448,192,35212,128,0,35462:0:0:0:0:
320,192,35212,1,0,0:0:0:0:
64,192,35337,1,0,0:0:0:0:
192,192,35337,1,0,0:0:0:0:
64,192,35462,1,0,0:0:0:0:
320,192,35462,1,0,0:0:0:0:
448,192,35587,1,0,0:0:0:0:
192,192,35712,128,0,35962:0:0:0:0:
320,192,35712,1,0,0:0:0:0:
64,192,35712,1,0,0:0:0:0:
448,192,35837,1,0,0:0:0:0:
320,192,35962,128,0,36212:0:0:0:0:
448,192,35962,1,0,0:0:0:0:
64,192,35962,1,0,0:0:0:0:
448,192,36212,128,0,36712:0:0:0:0:
64,192,36212,1,0,0:0:0:0:
320,192,36274,1,0,0:0:0:0:
192,192,36337,1,0,0:0:0:0:
64,192,36399,1,0,0:0:0:0:
320,192,36462,1,0,0:0:0:0:
192,192,36524,1,0,0:0:0:0:
64,192,36587,1,0,0:0:0:0:
320,192,36649,1,0,0:0:0:0:
192,192,36712,1,0,0:0:0:0:
64,192,36712,1,0,0:0:0:0:
448,192,36837,1,0,0:0:0:0:
320,192,36837,1,0,0:0:0:0:
64,192,36899,1,0,0:0:0:0:
192,192,36899,1,0,0:0:0:0:
320,192,36962,1,0,0:0:0:0:
448,192,36962,1,0,0:0:0:0:
192,192,37087,1,0,0:0:0:0:
320,192,37087,1,0,0:0:0:0:
64,192,37212,128,0,37462:0:0:0:0:
192,192,37212,1,0,0:0:0:0:
448,192,37212,128,0,38337:0:0:0:0:
320,192,37462,128,0,37712:0:0:0:0:
64,192,37712,128,0,37962:0:0:0:0:
192,192,37837,128,0,38212:0:0:0:0:
320,192,37962,128,0,38087:0:0:0:0:
64,192,38087,128,0,38462:0:0:0:0:
320,192,38212,128,0,38587:0:0:0:0:
192,192,38337,128,0,38587:0:0:0:0:
448,192,38462,128,0,38712:0:0:0:0:
64,192,38587,128,0,38837:0:0:0:0:
192,192,38712,128,0,38962:0:0:0:0:
320,192,38712,128,0,38837:0:0:0:0:
448,192,38837,128,0,39087:0:0:0:0:
320,192,38962,128,0,39212:0:0:0:0:
64,192,38962,128,0,39087:0:0:0:0:
192,192,39087,128,0,39337:0:0:0:0:
64,192,39212,128,0,39462:0:0:0:0:
448,192,39212,128,0,39337:0:0:0:0:
320,192,39337,128,0,39587:0:0:0:0:
192,192,39462,1,0,0:0:0:0:
448,192,39462,128,0,39587:0:0:0:0:
64,192,39587,128,0,39712:0:0:0:0:
192,192,39587,128,0,39837:0:0:0:0:
320,192,39712,1,0,0:0:0:0:
448,192,39712,1,0,0:0:0:0:
320,192,39837,1,0,0:0:0:0:
448,192,39837,1,0,0:0:0:0:
192,192,39962,1,0,0:0:0:0:
448,192,39962,128,0,40587:0:0:0:0:
64,192,39962,128,0,40087:0:0:0:0:
320,192,40087,128,0,40337:0:0:0:0:
192,192,40212,128,0,40462:0:0:0:0:
64,192,40337,128,0,40712:0:0:0:0:
320,192,40462,128,0,40837:0:0:0:0:
192,192,40587,128,0,40712:0:0:0:0:
448,192,40712,128,0,40962:0:0:0:0:
64,192,40837,128,0,40962:0:0:0:0:
192,192,40837,128,0,41087:0:0:0:0:
320,192,40962,128,0,41212:0:0:0:0:
448,192,41087,128,0,41337:0:0:0:0:
64,192,41212,1,0,0:0:0:0:
192,192,41212,128,0,41462:0:0:0:0:
64,192,41337,128,0,41587:0:0:0:0:
448,192,41462,1,0,0:0:0:0:
192,192,41587,128,0,41837:0:0:0:0:
64,192,41712,128,0,41962:0:0:0:0:
320,192,41712,1,0,0:0:0:0:
448,192,41837,1,0,0:0:0:0:
192,192,41962,128,0,42212:0:0:0:0:
320,192,41962,1,0,0:0:0:0:
64,192,42087,128,0,42337:0:0:0:0:
448,192,42212,1,0,0:0:0:0:
192,192,42337,128,0,42587:0:0:0:0:
64,192,42462,128,0,42712:0:0:0:0:
320,192,42462,1,0,0:0:0:0:
192,192,42712,128,0,42962:0:0:0:0:
448,192,42712,1,0,0:0:0:0:
64,192,42837,128,0,43087:0:0:0:0:
320,192,42962,1,0,0:0:0:0:
192,192,43087,128,0,43337:0:0:0:0:
448,192,43087,1,0,0:0:0:0:
320,192,43212,128,0,43462:0:0:0:0:
64,192,43212,1,0,0:0:0:0:
448,192,43337,128,0,43587:0:0:0:0:
192,192,43462,1,0,0:0:0:0:
320,192,43587,128,0,43837:0:0:0:0:
448,192,43712,128,0,43962:0:0:0:0:
64,192,43712,1,0,0:0:0:0:
192,192,43837,1,0,0:0:0:0:
320,192,43962,128,0,44212:0:0:0:0:
64,192,43962,1,0,0:0:0:0:
448,192,44087,128,0,44337:0:0:0:0:
192,192,44212,1,0,0:0:0:0:
320,192,44337,128,0,44587:0:0:0:0:
448,192,44462,128,0,44712:0:0:0:0:
64,192,44462,1,0,0:0:0:0:
320,192,44712,128,0,44962:0:0:0:0:
192,192,44712,1,0,0:0:0:0:
448,192,44837,128,0,45087:0:0:0:0:
64,192,44962,1,0,0:0:0:0:
320,192,45087,128,0,45212:0:0:0:0:
192,192,45087,1,0,0:0:0:0:
448,192,45212,1,0,0:0:0:0:
64,192,45212,128,0,45462:0:0:0:0:
192,192,45337,1,0,0:0:0:0:
448,192,45462,128,0,45962:0:0:0:0:
192,192,45462,1,0,0:0:0:0:
320,192,45462,128,0,45587:0:0:0:0:
64,192,45587,128,0,45712:0:0:0:0:
192,192,45712,1,0,0:0:0:0:
320,192,45837,128,0,45962:0:0:0:0:
192,192,45962,128,0,46212:0:0:0:0:
64,192,45962,128,0,46212:0:0:0:0:
320,192,46212,128,0,46462:0:0:0:0:
448,192,46212,1,0,0:0:0:0:
192,192,46337,128,0,46462:0:0:0:0:
64,192,46462,128,0,46587:0:0:0:0:
448,192,46462,1,0,0:0:0:0:
448,192,46587,128,0,46712:0:0:0:0:
192,192,46587,128,0,46712:0:0:0:0:
64,192,46712,1,0,0:0:0:0:
320,192,46712,128,0,46837:0:0:0:0:
448,192,46837,1,0,0:0:0:0:
64,192,46962,1,0,0:0:0:0:
192,192,46962,1,0,0:0:0:0:
448,192,47087,128,0,47212:0:0:0:0:
320,192,47087,1,0,0:0:0:0:
64,192,47212,128,0,47337:0:0:0:0:
192,192,47212,1,0,0:0:0:0:
320,192,47337,128,0,47462:0:0:0:0:
448,192,47337,1,0,0:0:0:0:
192,192,47462,128,0,47587:0:0:0:0:
64,192,47462,1,0,0:0:0:0:
448,192,47587,128,0,47712:0:0:0:0:
320,192,47587,1,0,0:0:0:0:
64,192,47712,128,0,47837:0:0:0:0:
192,192,47712,1,0,0:0:0:0:
320,192,47837,128,0,47962:0:0:0:0:
448,192,47837,1,0,0:0:0:0:
192,192,47962,128,0,48087:0:0:0:0:
64,192,47962,1,0,0:0:0:0:
64,192,48087,128,0,48212:0:0:0:0:
448,192,48087,128,0,48212:0:0:0:0:
320,192,48212,128,0,48462:0:0:0:0:
192,192,48212,1,0,0:0:0:0:
64,192,48337,1,0,0:0:0:0:
448,192,48462,128,0,48587:0:0:0:0:
192,192,48462,128,0,48587:0:0:0:0:
64,192,48587,128,0,48712:0:0:0:0:
320,192,48587,128,0,48649:0:0:0:0:
448,192,48712,1,0,0:0:0:0:
320,192,48774,1,0,0:0:0:0:
192,192,48837,1,0,0:0:0:0:
64,192,48899,1,0,0:0:0:0:
448,192,48962,1,0,0:0:0:0:
320,192,49024,1,0,0:0:0:0:
192,192,49087,1,0,0:0:0:0:
64,192,49149,1,0,0:0:0:0:
448,192,49212,128,0,49462:0:0:0:0:
320,192,49212,1,0,0:0:0:0:
192,192,49212,1,0,0:0:0:0:
64,192,49337,1,0,0:0:0:0:
192,192,49462,128,0,49712:0:0:0:0:
320,192,49462,1,0,0:0:0:0:
64,192,49587,128,0,49712:0:0:0:0:
320,192,49712,128,0,49962:0:0:0:0:
448,192,49712,1,0,0:0:0:0:
192,192,49837,128,0,49962:0:0:0:0:
64,192,49962,128,0,50212:0:0:0:0:
448,192,49962,1,0,0:0:0:0:
320,192,50087,128,0,50212:0:0:0:0:
192,192,50212,128,0,50462:0:0:0:0:
448,192,50212,1,0,0:0:0:0:
64,192,50337,128,0,50462:0:0:0:0:
320,192,50462,128,0,50712:0:0:0:0:
448,192,50462,1,0,0:0:0:0:
64,192,50587,128,0,50712:0:0:0:0:
192,192,50712,1,0,0:0:0:0:
448,192,50712,1,0,0:0:0:0:
320,192,50837,1,0,0:0:0:0:
64,192,50962,1,0,0:0:0:0:
192,192,50962,1,0,0:0:0:0:
448,192,51087,1,0,0:0:0:0:
64,192,51212,128,0,51462:0:0:0:0:
192,192,51212,128,0,51462:0:0:0:0:
320,192,51212,128,0,51462:0:0:0:0:
448,192,51712,128,0,51962:0:0:0:0:
64,192,51712,128,0,51962:0:0:0:0:
192,192,51712,128,0,51962:0:0:0:0:
64,192,52212,128,0,52462:0:0:0:0:
320,192,52212,128,0,52462:0:0:0:0:
448,192,52212,128,0,52462:0:0:0:0:
192,192,52712,128,0,52962:0:0:0:0:
320,192,52712,128,0,52962:0:0:0:0:
448,192,52712,128,0,52962:0:0:0:0:
64,192,53212,128,0,53962:0:0:0:0:
192,192,54212,128,0,54587:0:0:0:0:
64,192,54212,128,0,54524:0:0:0:0:
320,192,54212,128,0,54649:0:0:0:0:
448,192,54212,128,0,54712:0:0:0:0:
64,192,54712,1,0,0:0:0:0:
192,192,54774,1,0,0:0:0:0:
320,192,54837,1,0,0:0:0:0:
448,192,54899,1,0,0:0:0:0:
64,192,54899,1,0,0:0:0:0:
192,192,54962,1,0,0:0:0:0:
320,192,55024,1,0,0:0:0:0:
448,192,55087,1,0,0:0:0:0:
64,192,55087,1,0,0:0:0:0:
192,192,55149,1,0,0:0:0:0:
320,192,55212,128,0,55337:0:0:0:0:
448,192,55212,1,0,0:0:0:0:
192,192,55337,128,0,55462:0:0:0:0:
64,192,55462,128,0,55587:0:0:0:0:
448,192,55462,1,0,0:0:0:0:
320,192,55462,1,0,0:0:0:0:
320,192,55587,128,0,55712:0:0:0:0:
192,192,55712,128,0,55837:0:0:0:0:
64,192,55712,1,0,0:0:0:0:
448,192,55712,1,0,0:0:0:0:
448,192,55837,128,0,55962:0:0:0:0:
320,192,55962,128,0,56087:0:0:0:0:
64,192,55962,1,0,0:0:0:0:
192,192,55962,1,0,0:0:0:0:
64,192,56087,128,0,56212:0:0:0:0:
192,192,56212,128,0,56337:0:0:0:0:
320,192,56212,1,0,0:0:0:0:
448,192,56212,1,0,0:0:0:0:
320,192,56337,128,0,56462:0:0:0:0:
448,192,56462,128,0,56587:0:0:0:0:
64,192,56462,1,0,0:0:0:0:
192,192,56462,1,0,0:0:0:0:
192,192,56587,128,0,56712:0:0:0:0:
320,192,56712,128,0,56837:0:0:0:0:
64,192,56712,1,0,0:0:0:0:
448,192,56712,1,0,0:0:0:0:
64,192,56837,128,0,56962:0:0:0:0:
192,192,56962,128,0,57212:0:0:0:0:
320,192,56962,1,0,0:0:0:0:
448,192,56962,1,0,0:0:0:0:
64,192,57087,1,0,0:0:0:0:
448,192,57212,128,0,57462:0:0:0:0:
64,192,57212,1,0,0:0:0:0:
320,192,57212,128,0,57337:0:0:0:0:
192,192,57337,1,0,0:0:0:0:
192,192,57462,128,0,57712:0:0:0:0:
64,192,57462,128,0,57587:0:0:0:0:
320,192,57587,1,0,0:0:0:0:
320,192,57712,128,0,57962:0:0:0:0:
448,192,57712,128,0,57837:0:0:0:0:
64,192,57837,1,0,0:0:0:0:
64,192,57962,128,0,58212:0:0:0:0:
192,192,57962,128,0,58087:0:0:0:0:
448,192,58087,1,0,0:0:0:0:
448,192,58212,128,0,58712:0:0:0:0:
320,192,58212,1,0,0:0:0:0:
192,192,58274,1,0,0:0:0:0:
64,192,58337,1,0,0:0:0:0:
320,192,58399,1,0,0:0:0:0:
192,192,58462,1,0,0:0:0:0:
64,192,58524,1,0,0:0:0:0:
192,192,58587,1,0,0:0:0:0:
320,192,58649,1,0,0:0:0:0:
64,192,58712,128,0,58962:0:0:0:0:
192,192,58774,1,0,0:0:0:0:
320,192,58837,1,0,0:0:0:0:
448,192,58899,1,0,0:0:0:0:
192,192,58962,128,0,59212:0:0:0:0:
320,192,58962,1,0,0:0:0:0:
448,192,59149,1,0,0:0:0:0:
64,192,59212,1,0,0:0:0:0:
320,192,59212,128,0,59712:0:0:0:0:
448,192,59337,1,0,0:0:0:0:
192,192,59337,1,0,0:0:0:0:
448,192,59462,1,0,0:0:0:0:
64,192,59462,1,0,0:0:0:0:
192,192,59587,1,0,0:0:0:0:
64,192,59587,128,0,59712:0:0:0:0:
192,192,59712,128,0,59962:0:0:0:0:
448,192,59712,1,0,0:0:0:0:
320,192,59837,1,0,0:0:0:0:
448,192,59837,1,0,0:0:0:0:
64,192,59962,128,0,60212:0:0:0:0:
320,192,59962,1,0,0:0:0:0:
192,192,60087,1,0,0:0:0:0:
448,192,60087,1,0,0:0:0:0:
448,192,60212,128,0,60712:0:0:0:0:
320,192,60212,1,0,0:0:0:0:
192,192,60274,1,0,0:0:0:0:
64,192,60337,1,0,0:0:0:0:
320,192,60399,1,0,0:0:0:0:
192,192,60462,1,0,0:0:0:0:
64,192,60524,1,0,0:0:0:0:
192,192,60587,1,0,0:0:0:0:
320,192,60649,1,0,0:0:0:0:
192,192,60712,128,0,60774:0:0:0:0:
64,192,60712,128,0,60899:0:0:0:0:
192,192,60837,128,0,60899:0:0:0:0:
320,192,60837,128,0,60899:0:0:0:0:
448,192,60962,128,0,61149:0:0:0:0:
320,192,60962,128,0,61024:0:0:0:0:
192,192,61087,128,0,61149:0:0:0:0:
320,192,61087,128,0,61149:0:0:0:0:
320,192,61212,1,0,0:0:0:0:
64,192,61212,128,0,61649:0:0:0:0:
192,192,61212,1,0,0:0:0:0:
448,192,61212,128,0,61337:0:0:0:0:
192,192,61337,128,0,61462:0:0:0:0:
320,192,61462,1,0,0:0:0:0:
448,192,61462,1,0,0:0:0:0:
192,192,61587,1,0,0:0:0:0:
320,192,61587,1,0,0:0:0:0:
448,192,61712,128,0,62149:0:0:0:0:
192,192,61712,1,0,0:0:0:0:
320,192,61712,1,0,0:0:0:0:
64,192,61712,128,0,61837:0:0:0:0:
320,192,61837,128,0,61962:0:0:0:0:
192,192,61962,1,0,0:0:0:0:
64,192,61962,128,0,62212:0:0:0:0:
320,192,62087,1,0,0:0:0:0:
192,192,62087,128,0,62274:0:0:0:0:
320,192,62212,128,0,62337:0:0:0:0:
448,192,62212,128,0,62399:0:0:0:0:
64,192,62337,128,0,62587:0:0:0:0:
192,192,62399,128,0,62524:0:0:0:0:
320,192,62462,1,0,0:0:0:0:
448,192,62524,128,0,62774:0:0:0:0:
320,192,62587,128,0,62712:0:0:0:0:
192,192,62649,1,0,0:0:0:0:
64,192,62712,128,0,62837:0:0:0:0:
192,192,62774,128,0,62837:0:0:0:0:
320,192,62837,1,0,0:0:0:0:
448,192,62899,128,0,62962:0:0:0:0:
64,192,62962,128,0,63087:0:0:0:0:
192,192,62962,128,0,63149:0:0:0:0:
320,192,62962,128,0,63212:0:0:0:0:
448,192,63212,1,0,0:0:0:0:
64,192,63212,1,0,0:0:0:0:
192,192,63212,128,0,63337:0:0:0:0:
320,192,63337,128,0,63462:0:0:0:0:
448,192,63462,128,0,63587:0:0:0:0:
64,192,63462,1,0,0:0:0:0:
192,192,63462,1,0,0:0:0:0:
192,192,63587,128,0,63712:0:0:0:0:
320,192,63712,128,0,63837:0:0:0:0:
64,192,63712,1,0,0:0:0:0:
448,192,63712,1,0,0:0:0:0:
64,192,63837,128,0,63962:0:0:0:0:
192,192,63962,128,0,64087:0:0:0:0:
320,192,63962,1,0,0:0:0:0:
448,192,63962,1,0,0:0:0:0:
448,192,64087,128,0,64212:0:0:0:0:
320,192,64212,128,0,64337:0:0:0:0:
192,192,64212,1,0,0:0:0:0:
64,192,64212,1,0,0:0:0:0:
192,192,64337,128,0,64462:0:0:0:0:
64,192,64462,128,0,64587:0:0:0:0:
320,192,64462,1,0,0:0:0:0:
448,192,64462,1,0,0:0:0:0:
320,192,64587,128,0,64712:0:0:0:0:
192,192,64712,128,0,64837:0:0:0:0:
64,192,64712,1,0,0:0:0:0:
448,192,64712,1,0,0:0:0:0:
448,192,64837,128,0,64962:0:0:0:0:
320,192,64962,128,0,65212:0:0:0:0:
192,192,64962,1,0,0:0:0:0:
64,192,64962,1,0,0:0:0:0:
448,192,65087,1,0,0:0:0:0:
64,192,65212,128,0,65462:0:0:0:0:
192,192,65212,128,0,65337:0:0:0:0:
448,192,65212,1,0,0:0:0:0:
320,192,65337,1,0,0:0:0:0:
320,192,65462,128,0,65587:0:0:0:0:
448,192,65462,128,0,65587:0:0:0:0:
64,192,65587,128,0,65712:0:0:0:0:
192,192,65587,128,0,65712:0:0:0:0:
320,192,65712,128,0,65837:0:0:0:0:
448,192,65712,128,0,65962:0:0:0:0:
192,192,65837,1,0,0:0:0:0:
320,192,65962,128,0,66212:0:0:0:0:
192,192,65962,128,0,66087:0:0:0:0:
64,192,65962,1,0,0:0:0:0:
448,192,66087,1,0,0:0:0:0:
64,192,66212,128,0,66712:0:0:0:0:
192,192,66212,1,0,0:0:0:0:
320,192,66274,1,0,0:0:0:0:
448,192,66337,1,0,0:0:0:0:
192,192,66399,1,0,0:0:0:0:
320,192,66462,1,0,0:0:0:0:
448,192,66524,1,0,0:0:0:0:
320,192,66587,1,0,0:0:0:0:
192,192,66649,1,0,0:0:0:0:
448,192,66712,128,0,66837:0:0:0:0:
320,192,66774,128,0,66899:0:0:0:0:
192,192,66837,128,0,66962:0:0:0:0:
64,192,66899,128,0,67024:0:0:0:0:
448,192,66962,128,0,67212:0:0:0:0:
320,192,67024,1,0,0:0:0:0:
192,192,67087,1,0,0:0:0:0:
64,192,67212,128,0,67712:0:0:0:0:
192,192,67212,128,0,67337:0:0:0:0:
320,192,67274,128,0,67399:0:0:0:0:
448,192,67337,128,0,67462:0:0:0:0:
192,192,67462,128,0,67587:0:0:0:0:
320,192,67524,128,0,67649:0:0:0:0:
448,192,67587,128,0,67712:0:0:0:0:
192,192,67712,128,0,67962:0:0:0:0:
320,192,67712,1,0,0:0:0:0:
448,192,67837,1,0,0:0:0:0:
320,192,67962,128,0,68212:0:0:0:0:
64,192,67962,1,0,0:0:0:0:
448,192,67962,1,0,0:0:0:0:
64,192,68087,1,0,0:0:0:0:
192,192,68212,128,0,68712:0:0:0:0:
64,192,68212,1,0,0:0:0:0:
448,192,68212,128,0,68337:0:0:0:0:
64,192,68337,128,0,68462:0:0:0:0:
448,192,68462,128,0,68587:0:0:0:0:
320,192,68462,1,0,0:0:0:0:
64,192,68587,128,0,68712:0:0:0:0:
448,192,68712,128,0,68899:0:0:0:0:
320,192,68712,128,0,68774:0:0:0:0:
64,192,68837,128,0,68899:0:0:0:0:
192,192,68837,128,0,68899:0:0:0:0:
64,192,68962,128,0,69149:0:0:0:0:
192,192,68962,128,0,69024:0:0:0:0:
320,192,69087,128,0,69149:0:0:0:0:
448,192,69087,128,0,69149:0:0:0:0:
320,192,69212,1,0,0:0:0:0:
448,192,69212,128,0,69712:0:0:0:0:
64,192,69212,128,0,69462:0:0:0:0:
192,192,69337,1,0,0:0:0:0:
320,192,69337,1,0,0:0:0:0:
192,192,69462,1,0,0:0:0:0:
320,192,69462,128,0,69712:0:0:0:0:
64,192,69587,1,0,0:0:0:0:
192,192,69587,1,0,0:0:0:0:
64,192,69712,128,0,69962:0:0:0:0:
192,192,69712,128,0,69962:0:0:0:0:
320,192,69837,1,0,0:0:0:0:
448,192,69837,1,0,0:0:0:0:
448,192,69962,128,0,70212:0:0:0:0:
320,192,69962,128,0,70212:0:0:0:0:
64,192,70087,1,0,0:0:0:0:
192,192,70087,1,0,0:0:0:0:
64,192,70212,128,0,70649:0:0:0:0:
192,192,70212,128,0,70337:0:0:0:0:
320,192,70274,128,0,70399:0:0:0:0:
448,192,70337,128,0,70462:0:0:0:0:
192,192,70462,128,0,70587:0:0:0:0:
448,192,70524,128,0,70649:0:0:0:0:
320,192,70587,128,0,70649:0:0:0:0:
448,192,70712,128,0,71149:0:0:0:0:
320,192,70712,128,0,70837:0:0:0:0:
192,192,70774,128,0,70899:0:0:0:0:
64,192,70837,128,0,70962:0:0:0:0:
320,192,70962,128,0,71087:0:0:0:0:
64,192,71024,128,0,71149:0:0:0:0:
192,192,71087,128,0,71149:0:0:0:0:
64,192,71212,128,0,71712:0:0:0:0:
448,192,71212,128,0,71337:0:0:0:0:
320,192,71212,128,0,71337:0:0:0:0:
192,192,71337,128,0,71462:0:0:0:0:
320,192,71462,128,0,71587:0:0:0:0:
448,192,71462,128,0,71587:0:0:0:0:
192,192,71587,128,0,71837:0:0:0:0:
320,192,71712,128,0,71962:0:0:0:0:
448,192,71712,128,0,71837:0:0:0:0:
64,192,71837,1,0,0:0:0:0:
192,192,71962,128,0,72212:0:0:0:0:
448,192,71962,128,0,72087:0:0:0:0:
64,192,71962,128,0,72087:0:0:0:0:
320,192,72087,128,0,72337:0:0:0:0:
448,192,72212,128,0,72712:0:0:0:0:
64,192,72212,128,0,72337:0:0:0:0:
192,192,72337,128,0,72462:0:0:0:0:
320,192,72462,128,0,72587:0:0:0:0:
64,192,72462,128,0,72587:0:0:0:0:
192,192,72587,128,0,72837:0:0:0:0:
320,192,72712,128,0,73212:0:0:0:0:
64,192,72712,128,0,72837:0:0:0:0:
448,192,72837,128,0,72962:0:0:0:0:
64,192,72962,128,0,73087:0:0:0:0:
192,192,72962,128,0,73087:0:0:0:0:
448,192,73087,128,0,73337:0:0:0:0:
192,192,73212,128,0,73712:0:0:0:0:
64,192,73212,128,0,73337:0:0:0:0:
320,192,73337,128,0,73462:0:0:0:0:
448,192,73462,128,0,73587:0:0:0:0:
64,192,73462,128,0,73587:0:0:0:0:
320,192,73587,128,0,73837:0:0:0:0:
64,192,73712,128,0,74212:0:0:0:0:
448,192,73712,128,0,73837:0:0:0:0:
192,192,73837,128,0,73962:0:0:0:0:
320,192,73962,128,0,74087:0:0:0:0:
448,192,73962,128,0,74087:0:0:0:0:
192,192,74087,128,0,74337:0:0:0:0:
320,192,74212,128,0,74712:0:0:0:0:
448,192,74212,128,0,74337:0:0:0:0:
64,192,74337,128,0,74462:0:0:0:0:
192,192,74462,128,0,74587:0:0:0:0:
448,192,74462,128,0,74587:0:0:0:0:
64,192,74587,128,0,74837:0:0:0:0:
448,192,74712,128,0,75212:0:0:0:0:
192,192,74712,128,0,74837:0:0:0:0:
320,192,74837,128,0,74962:0:0:0:0:
64,192,74962,128,0,75087:0:0:0:0:
192,192,74962,128,0,75087:0:0:0:0:
320,192,75087,128,0,75212:0:0:0:0:
192,192,75212,1,0,0:0:0:0:
64,192,75212,128,0,75337:0:0:0:0:
320,192,75337,128,0,75462:0:0:0:0:
192,192,75462,128,0,75587:0:0:0:0:
64,192,75462,1,0,0:0:0:0:
448,192,75462,1,0,0:0:0:0:
448,192,75587,128,0,75712:0:0:0:0:
64,192,75712,128,0,75837:0:0:0:0:
320,192,75712,1,0,0:0:0:0:
192,192,75837,128,0,75962:0:0:0:0:
448,192,75837,1,0,0:0:0:0:
320,192,75962,128,0,76087:0:0:0:0:
448,192,75962,1,0,0:0:0:0:
64,192,75962,1,0,0:0:0:0:
64,192,76087,128,0,76212:0:0:0:0:
448,192,76212,128,0,76337:0:0:0:0:
192,192,76212,1,0,0:0:0:0:
320,192,76212,1,0,0:0:0:0:
192,192,76337,128,0,76462:0:0:0:0:
320,192,76462,128,0,76587:0:0:0:0:
64,192,76462,1,0,0:0:0:0:
448,192,76462,1,0,0:0:0:0:
64,192,76587,128,0,76712:0:0:0:0:
448,192,76712,128,0,76837:0:0:0:0:
192,192,76712,1,0,0:0:0:0:
320,192,76837,128,0,76962:0:0:0:0:
64,192,76837,1,0,0:0:0:0:
192,192,76962,128,0,77087:0:0:0:0:
64,192,76962,1,0,0:0:0:0:
448,192,76962,1,0,0:0:0:0:
448,192,77087,128,0,77212:0:0:0:0:
64,192,77212,128,0,77587:0:0:0:0:
192,192,77274,128,0,77399:0:0:0:0:
320,192,77337,128,0,77462:0:0:0:0:
448,192,77399,128,0,77524:0:0:0:0:
192,192,77462,1,0,0:0:0:0:
320,192,77587,1,0,0:0:0:0:
448,192,77587,1,0,0:0:0:0:
192,192,77649,1,0,0:0:0:0:
448,192,77712,128,0,78149:0:0:0:0:
64,192,77712,1,0,0:0:0:0:
320,192,77774,128,0,77899:0:0:0:0:
192,192,77837,128,0,77962:0:0:0:0:
64,192,77899,128,0,78024:0:0:0:0:
320,192,77962,1,0,0:0:0:0:
64,192,78087,1,0,0:0:0:0:
192,192,78087,1,0,0:0:0:0:
320,192,78149,1,0,0:0:0:0:
64,192,78212,128,0,78649:0:0:0:0:
448,192,78212,1,0,0:0:0:0:
192,192,78274,128,0,78399:0:0:0:0:
320,192,78337,128,0,78462:0:0:0:0:
448,192,78399,128,0,78524:0:0:0:0:
192,192,78462,1,0,0:0:0:0:
448,192,78587,1,0,0:0:0:0:
320,192,78587,1,0,0:0:0:0:
192,192,78649,1,0,0:0:0:0:
448,192,78712,128,0,79149:0:0:0:0:
64,192,78712,1,0,0:0:0:0:
320,192,78774,128,0,78899:0:0:0:0:
192,192,78837,128,0,78962:0:0:0:0:
64,192,78899,128,0,79024:0:0:0:0:
320,192,78962,1,0,0:0:0:0:
64,192,79087,1,0,0:0:0:0:
192,192,79087,1,0,0:0:0:0:
320,192,79149,1,0,0:0:0:0:
64,192,79212,1,0,0:0:0:0:
448,192,79212,1,0,0:0:0:0:
320,192,79337,1,0,0:0:0:0:
192,192,79337,1,0,0:0:0:0:
192,192,79462,128,0,79712:0:0:0:0:
320,192,79462,128,0,79712:0:0:0:0:
64,192,79462,1,0,0:0:0:0:
448,192,79587,1,0,0:0:0:0:
64,192,79712,1,0,0:0:0:0:
320,192,79837,1,0,0:0:0:0:
448,192,79837,1,0,0:0:0:0:
192,192,79899,1,0,0:0:0:0:
64,192,79899,1,0,0:0:0:0:
320,192,79962,1,0,0:0:0:0:
448,192,79962,1,0,0:0:0:0:
192,192,80024,1,0,0:0:0:0:
64,192,80024,1,0,0:0:0:0:
320,192,80087,1,0,0:0:0:0:
448,192,80087,1,0,0:0:0:0:
192,192,80149,1,0,0:0:0:0:
64,192,80149,1,0,0:0:0:0:
448,192,80212,1,0,0:0:0:0:
320,192,80212,1,0,0:0:0:0:
64,192,80274,1,0,0:0:0:0:
192,192,80274,1,0,0:0:0:0:
320,192,80337,1,0,0:0:0:0:
448,192,80337,1,0,0:0:0:0:
192,192,80399,1,0,0:0:0:0:
64,192,80399,1,0,0:0:0:0:
320,192,80462,1,0,0:0:0:0:
448,192,80462,1,0,0:0:0:0:
192,192,80524,1,0,0:0:0:0:
64,192,80524,1,0,0:0:0:0:
448,192,80587,1,0,0:0:0:0:
320,192,80587,1,0,0:0:0:0:
64,192,80649,1,0,0:0:0:0:
192,192,80649,1,0,0:0:0:0:
320,192,80712,1,0,0:0:0:0:
448,192,80712,1,0,0:0:0:0:
64,192,80712,1,0,0:0:0:0:
64,192,81212,1,0,0:0:0:0:
448,192,81212,128,0,81462:0:0:0:0:
192,192,81212,1,0,0:0:0:0:
320,192,81337,1,0,0:0:0:0:
192,192,81462,128,0,81712:0:0:0:0:
64,192,81462,1,0,0:0:0:0:
320,192,81587,1,0,0:0:0:0:
448,192,81712,128,0,81962:0:0:0:0:
320,192,81712,1,0,0:0:0:0:
64,192,81712,1,0,0:0:0:0:
192,192,81837,128,0,81962:0:0:0:0:
64,192,81962,128,0,82212:0:0:0:0:
320,192,81962,128,0,82087:0:0:0:0:
192,192,82087,1,0,0:0:0:0:
448,192,82212,128,0,82462:0:0:0:0:
192,192,82212,1,0,0:0:0:0:
320,192,82337,128,0,82462:0:0:0:0:
64,192,82462,128,0,82712:0:0:0:0:
192,192,82462,1,0,0:0:0:0:
448,192,82587,1,0,0:0:0:0:
320,192,82712,128,0,83212:0:0:0:0:
192,192,82712,128,0,82837:0:0:0:0:
448,192,82837,128,0,82962:0:0:0:0:
64,192,82962,128,0,83087:0:0:0:0:
192,192,83087,128,0,83212:0:0:0:0:
64,192,83212,128,0,83462:0:0:0:0:
448,192,83212,1,0,0:0:0:0:
192,192,83337,1,0,0:0:0:0:
320,192,83462,128,0,83712:0:0:0:0:
448,192,83462,1,0,0:0:0:0:
192,192,83587,1,0,0:0:0:0:
64,192,83712,128,0,83962:0:0:0:0:
448,192,83712,1,0,0:0:0:0:
192,192,83712,128,0,83837:0:0:0:0:
320,192,83837,1,0,0:0:0:0:
448,192,83962,128,0,84212:0:0:0:0:
320,192,83962,1,0,0:0:0:0:
192,192,84087,1,0,0:0:0:0:
64,192,84212,128,0,84462:0:0:0:0:
320,192,84212,1,0,0:0:0:0:
192,192,84337,128,0,84462:0:0:0:0:
448,192,84462,128,0,84712:0:0:0:0:
320,192,84462,1,0,0:0:0:0:
64,192,84587,128,0,84774:0:0:0:0:
320,192,84712,128,0,84837:0:0:0:0:
192,192,84712,128,0,85337:0:0:0:0:
448,192,84962,1,0,0:0:0:0:
64,192,85024,1,0,0:0:0:0:
320,192,85087,1,0,0:0:0:0:
448,192,85149,1,0,0:0:0:0:
320,192,85212,128,0,85337:0:0:0:0:
64,192,85212,128,0,85587:0:0:0:0:
448,192,85337,128,0,85462:0:0:0:0:
320,192,85462,128,0,85712:0:0:0:0:
192,192,85462,128,0,85587:0:0:0:0:
448,192,85587,128,0,85837:0:0:0:0:
64,192,85712,128,0,85962:0:0:0:0:
192,192,85712,128,0,85837:0:0:0:0:
320,192,85837,128,0,86087:0:0:0:0:
192,192,85962,128,0,86087:0:0:0:0:
448,192,85962,128,0,86337:0:0:0:0:
64,192,86087,128,0,86212:0:0:0:0:
192,192,86212,128,0,86462:0:0:0:0:
320,192,86212,128,0,86337:0:0:0:0:
64,192,86337,128,0,86587:0:0:0:0:
448,192,86462,128,0,86712:0:0:0:0:
320,192,86462,128,0,86587:0:0:0:0:
192,192,86587,128,0,86837:0:0:0:0:
64,192,86712,128,0,87212:0:0:0:0:
320,192,86712,128,0,86962:0:0:0:0:
448,192,86837,128,0,87087:0:0:0:0:
192,192,86962,128,0,87337:0:0:0:0:
320,192,87087,128,0,87337:0:0:0:0:
448,192,87212,128,0,87587:0:0:0:0:
64,192,87337,128,0,87462:0:0:0:0:
192,192,87462,128,0,87712:0:0:0:0:
320,192,87462,128,0,87587:0:0:0:0:
64,192,87587,128,0,87837:0:0:0:0:
448,192,87712,128,0,87962:0:0:0:0:
320,192,87712,128,0,87837:0:0:0:0:
192,192,87837,128,0,88087:0:0:0:0:
320,192,87962,128,0,88087:0:0:0:0:
64,192,87962,128,0,88212:0:0:0:0:
448,192,88087,128,0,88212:0:0:0:0:
192,192,88212,1,0,0:0:0:0:
320,192,88212,1,0,0:0:0:0:
64,192,88274,1,0,0:0:0:0:
448,192,88274,1,0,0:0:0:0:
320,192,88337,1,0,0:0:0:0:
192,192,88337,1,0,0:0:0:0:
64,192,88399,1,0,0:0:0:0:
448,192,88399,1,0,0:0:0:0:
320,192,88462,1,0,0:0:0:0:
192,192,88524,1,0,0:0:0:0:
64,192,88587,1,0,0:0:0:0:
448,192,88712,1,0,0:0:0:0:
192,192,88712,1,0,0:0:0:0:
64,192,88837,1,0,0:0:0:0:
320,192,88837,1,0,0:0:0:0:
192,192,88962,128,0,89962:0:0:0:0:
448,192,88962,128,0,89962:0:0:0:0:
320,192,88962,128,0,89712:0:0:0:0:
64,192,88962,128,0,89712:0:0:0:0:
