osu file format v14

[General]
AudioFilename: audio.mp3
AudioLeadIn: 0
PreviewTime: 55087
Countdown: 1
SampleSet: Soft
StackLeniency: 0.7
Mode: 3
LetterboxInBreaks: 0
SpecialStyle: 0
WidescreenStoryboard: 0

[Editor]
DistanceSpacing: 1.8
BeatDivisor: 4
GridSize: 32
TimelineZoom: 1.8

[Metadata]
Title:Los! Los! Los! (TV.Size)
TitleUnicode:Los! Los! Los! (TV.Size)
Artist:Tanya Degurechaff (CV: Yuki Aoi)
ArtistUnicode:ターニャ・デグレチャフ(CV:悠木碧)
Creator:Maneh
Version:LOSS?
Source:幼女戦記
Tags:Youjo Senki Saga of Tanya the Evil ED ending TV Size yuuki losloslos
BeatmapID:1613108
BeatmapSetID:767398

[Difficulty]
HPDrainRate:8
CircleSize:4
OverallDifficulty:8
ApproachRate:5
SliderMultiplier:1.4
SliderTickRate:1

[Events]
//Background and Video events
0,0,"LOSS.png",0,0
//Break Periods
//Storyboard Layer 0 (Background)
//Storyboard Layer 1 (Fail)
//Storyboard Layer 2 (Pass)
//Storyboard Layer 3 (Foreground)
//Storyboard Sound Samples

[TimingPoints]
1212,250,4,2,1,40,1,0
5212,-166.666666666667,4,2,1,40,0,0
7212,-142.857142857143,4,2,1,40,0,0
9212,-41.6666666666667,4,2,1,40,0,0
9274,-83.3333333333333,4,2,1,40,0,0
9337,-100,4,2,1,40,0,0
12712,-83.3333333333333,4,2,1,40,0,0
12774,-76.9230769230769,4,2,1,40,0,0
12837,-71.4285714285714,4,2,1,40,0,0
12899,-66.6666666666667,4,2,1,40,0,0
12962,-62.5,4,2,1,40,0,0
13024,-58.8235294117647,4,2,1,40,0,0
13087,-55.5555555555556,4,2,1,40,0,0
13149,-100,4,2,1,40,0,0
21208,-166.666666666667,4,2,1,40,0,0
22212,-142.857142857143,4,2,1,40,0,0
22462,-125,4,2,1,40,0,0
22712,-111.111111111111,4,2,1,40,0,0
22962,-100,4,2,1,40,0,0
23024,-41.6666666666667,4,2,1,40,0,0
23087,-83.3333333333333,4,2,1,40,0,0
23149,-100,4,2,1,40,0,0
24712,-142.857142857143,4,2,1,40,0,0
24774,-125,4,2,1,40,0,0
24837,-111.111111111111,4,2,1,40,0,0
24899,-100,4,2,1,40,0,0
24962,-100,4,2,1,40,0,0
24962,-90.9090909090909,4,2,1,40,0,0
25024,-83.3333333333333,4,2,1,40,0,0
25087,-76.9230769230769,4,2,1,40,0,0
25149,-71.4285714285714,4,2,1,40,0,0
25212,-100,4,2,1,40,0,0
33212,-166.666666666667,4,2,1,40,0,0
35212,-142.857142857143,4,2,1,40,0,0
36837,-41.6666666666667,4,2,1,40,0,0
36899,-83.3333333333333,4,2,1,40,0,0
36962,-100,4,2,1,40,0,0
37087,-41.6666666666667,4,2,1,40,0,0
37149,-83.3333333333333,4,2,1,40,0,0
37212,-100,4,2,1,40,0,0
41212,-166.666666666667,4,2,1,40,0,0
41462,-142.857142857143,4,2,1,40,0,0
41962,-125,4,2,1,40,0,0
42462,-111.111111111111,4,2,1,40,0,0
43215,-100,4,2,1,40,0,0
43712,-90.9090909090909,4,2,1,40,0,0
44212,-83.3333333333333,4,2,1,40,0,0
44712,-41.6666666666667,4,2,1,40,0,0
44774,-166.666666666667,4,2,1,40,0,0
44837,-100,4,2,1,40,0,0
51223,-41.6666666666667,4,2,1,40,0,0
51337,-83.3333333333333,4,2,1,40,0,0
51462,-100,4,2,1,40,0,0
51712,-41.6666666666667,4,2,1,40,0,0
51837,-83.3333333333333,4,2,1,40,0,0
51962,-100,4,2,1,40,0,0
52212,-41.6666666666667,4,2,1,40,0,0
52337,-83.3333333333333,4,2,1,40,0,0
52462,-100,4,2,1,40,0,0
52712,-41.6666666666667,4,2,1,40,0,0
52837,-100,4,2,1,40,0,0
52962,-100,4,2,1,40,0,0
53212,-41.6666666666667,4,2,1,40,0,0
53274,-43.4782608695652,4,2,1,40,0,0
53337,-45.4545454545455,4,2,1,40,0,0
53399,-47.6190476190476,4,2,1,40,0,0
53462,-50,4,2,1,40,0,0
53524,-52.6315789473684,4,2,1,40,0,0
53587,-55.5555555555556,4,2,1,40,0,0
53649,-58.8235294117647,4,2,1,40,0,0
53712,-62.5,4,2,1,40,0,0
53774,-66.6666666666667,4,2,1,40,0,0
53837,-71.4285714285714,4,2,1,40,0,0
53899,-76.9230769230769,4,2,1,40,0,0
53962,-83.3333333333333,4,2,1,40,0,0
54024,-90.9090909090909,4,2,1,40,0,0
54087,-100,4,2,1,40,0,0
54212,-41.6666666666667,4,2,1,40,0,0
54274,-166.666666666667,4,2,1,40,0,0
54337,-83.3333333333333,4,2,1,40,0,0
54399,-100,4,2,1,40,0,0
54712,-83.3333333333334,4,2,1,40,0,0
54774,-76.923076923077,4,2,1,40,0,0
54837,-71.4285714285714,4,2,1,40,0,0
54899,-66.6666666666666,4,2,1,40,0,0
54962,-62.5,4,2,1,40,0,0
55024,-58.8235294117647,4,2,1,40,0,0
55087,-55.5555555555556,4,2,1,40,0,0
55149,-100,4,2,1,40,0,0
62337,-83.3333333333333,4,2,1,40,0,0
62399,-76.9230769230769,4,2,1,40,0,0
62462,-71.4285714285714,4,2,1,40,0,0
62524,-66.6666666666667,4,2,1,40,0,0
62587,-62.5,4,2,1,40,0,0
62649,-58.8235294117647,4,2,1,40,0,0
62712,-55.5555555555556,4,2,1,40,0,0
62774,-52.6315789473684,4,2,1,40,0,0
62837,-50,4,2,1,40,0,0
62899,-47.6190476190476,4,2,1,40,0,0
62962,-100,4,2,1,40,0,0
71208,-55.5555555555556,4,2,1,40,0,0
71274,-71.4285714285714,4,2,1,40,0,0
71337,-100,4,2,1,40,0,0
71399,-111.111111111111,4,2,1,40,0,0
71462,-125,4,2,1,40,0,0
74962,-111.111111111111,4,2,1,40,0,0
75024,-100,4,2,1,40,0,0
75087,-90.9090909090909,4,2,1,40,0,0
75149,-83.3333333333333,4,2,1,40,0,0
75212,-100,4,2,1,40,0,0
79962,-166.666666666667,4,2,1,40,0,0
80024,-142.857142857143,4,2,1,40,0,0
80087,-125,4,2,1,40,0,0
80149,-111.111111111111,4,2,1,40,0,0
80212,-100,4,2,1,40,0,0
80274,-90.9090909090909,4,2,1,40,0,0
80337,-83.3333333333333,4,2,1,40,0,0
80399,-76.9230769230769,4,2,1,40,0,0
80462,-71.4285714285714,4,2,1,40,0,0
80524,-66.6666666666667,4,2,1,40,0,0
80587,-62.5,4,2,1,40,0,0
80649,-58.8235294117647,4,2,1,40,0,0
80712,-55.5555555555556,4,2,1,40,0,0
80774,-58.8235294117647,4,2,1,40,0,0
80837,-62.5,4,2,1,40,0,0
80899,-66.6666666666667,4,2,1,40,0,0
80962,-71.4285714285714,4,2,1,40,0,0
81024,-76.9230769230769,4,2,1,40,0,0
81087,-83.3333333333333,4,2,1,40,0,0
81149,-90.9090909090909,4,2,1,40,0,0
81212,-125,4,2,1,40,0,0
83212,-111.111111111111,4,2,1,40,0,0
85212,-100,4,2,1,40,0,0
87212,-90.9090909090909,4,2,1,40,0,0
88212,-83.3333333333333,4,2,1,40,0,0
88274,-76.9230769230769,4,2,1,40,0,0
88337,-71.4285714285714,4,2,1,40,0,0
88399,-66.6666666666667,4,2,1,40,0,0
88462,-62.5,4,2,1,40,0,0
88524,-58.8235294117647,4,2,1,40,0,0
88587,-55.5555555555556,4,2,1,40,0,0
88649,-100,4,2,1,40,0,0

[HitObjects]
64,192,1212,128,0,1712:0:0:0:0:
448,192,1212,1,0,0:0:0:0:
192,192,1337,1,0,0:0:0:0:
320,192,1462,1,0,0:0:0:0:
448,192,1587,1,0,0:0:0:0:
320,192,1712,128,0,1962:0:0:0:0:
192,192,1712,1,0,0:0:0:0:
448,192,1837,1,0,0:0:0:0:
192,192,1962,128,0,2212:0:0:0:0:
64,192,1962,1,0,0:0:0:0:
320,192,2087,1,0,0:0:0:0:
448,192,2212,128,0,2462:0:0:0:0:
64,192,2212,1,0,0:0:0:0:
192,192,2337,1,0,0:0:0:0:
64,192,2462,128,0,2712:0:0:0:0:
320,192,2462,1,0,0:0:0:0:
448,192,2587,1,0,0:0:0:0:
192,192,2712,128,0,2962:0:0:0:0:
320,192,2712,1,0,0:0:0:0:
64,192,2837,1,0,0:0:0:0:
448,192,2962,128,0,3212:0:0:0:0:
320,192,2962,1,0,0:0:0:0:
64,192,3212,128,0,3712:0:0:0:0:
320,192,3212,128,0,3337:0:0:0:0:
192,192,3212,1,0,0:0:0:0:
448,192,3337,1,0,0:0:0:0:
192,192,3462,1,0,0:0:0:0:
320,192,3587,1,0,0:0:0:0:
448,192,3712,128,0,3962:0:0:0:0:
192,192,3712,1,0,0:0:0:0:
320,192,3837,1,0,0:0:0:0:
64,192,3962,128,0,4212:0:0:0:0:
192,192,3962,1,0,0:0:0:0:
320,192,4087,1,0,0:0:0:0:
192,192,4212,128,0,4462:0:0:0:0:
448,192,4212,1,0,0:0:0:0:
320,192,4337,1,0,0:0:0:0:
64,192,4462,128,0,4712:0:0:0:0:
448,192,4462,1,0,0:0:0:0:
320,192,4587,1,0,0:0:0:0:
448,192,4712,128,0,4962:0:0:0:0:
192,192,4712,1,0,0:0:0:0:
64,192,4837,1,0,0:0:0:0:
320,192,4837,1,0,0:0:0:0:
64,192,4962,128,0,5212:0:0:0:0:
192,192,5212,1,0,0:0:0:0:
448,192,5212,1,0,0:0:0:0:
64,192,5462,1,0,0:0:0:0:
320,192,5462,1,0,0:0:0:0:
192,192,5712,1,0,0:0:0:0:
320,192,5712,1,0,0:0:0:0:
320,192,5837,1,0,0:0:0:0:
448,192,5837,1,0,0:0:0:0:
192,192,5962,1,0,0:0:0:0:
64,192,5962,1,0,0:0:0:0:
448,192,6212,128,0,6962:0:0:0:0:
64,192,6212,1,0,0:0:0:0:
192,192,6212,1,0,0:0:0:0:
320,192,6212,1,0,0:0:0:0:
320,192,6462,128,0,6962:0:0:0:0:
192,192,6462,1,0,0:0:0:0:
64,192,6462,1,0,0:0:0:0:
192,192,6712,128,0,6962:0:0:0:0:
64,192,6712,1,0,0:0:0:0:
64,192,6962,1,0,0:0:0:0:
64,192,7212,1,0,0:0:0:0:
320,192,7212,1,0,0:0:0:0:
192,192,7337,1,0,0:0:0:0:
320,192,7462,1,0,0:0:0:0:
448,192,7712,1,0,0:0:0:0:
64,192,7712,1,0,0:0:0:0:
320,192,7712,128,0,7962:0:0:0:0:
448,192,7962,1,0,0:0:0:0:
192,192,7962,1,0,0:0:0:0:
64,192,7962,128,0,8212:0:0:0:0:
192,192,8212,1,0,0:0:0:0:
320,192,8212,128,0,8462:0:0:0:0:
64,192,8462,1,0,0:0:0:0:
192,192,8462,1,0,0:0:0:0:
448,192,8462,128,0,8712:0:0:0:0:
320,192,8712,128,0,8962:0:0:0:0:
64,192,8712,1,0,0:0:0:0:
448,192,8837,1,0,0:0:0:0:
192,192,8962,128,0,9212:0:0:0:0:
64,192,8962,1,0,0:0:0:0:
64,192,9212,1,0,0:0:0:0:
320,192,9212,1,0,0:0:0:0:
448,192,9212,1,0,0:0:0:0:
64,192,9462,1,0,0:0:0:0:
320,192,9462,1,0,0:0:0:0:
192,192,9462,128,0,9712:0:0:0:0:
448,192,9712,1,0,0:0:0:0:
64,192,9712,128,0,9962:0:0:0:0:
320,192,9837,1,0,0:0:0:0:
192,192,9962,1,0,0:0:0:0:
320,192,9962,1,0,0:0:0:0:
448,192,9962,128,0,10212:0:0:0:0:
64,192,10212,1,0,0:0:0:0:
320,192,10212,1,0,0:0:0:0:
64,192,10462,1,0,0:0:0:0:
192,192,10462,1,0,0:0:0:0:
320,192,10712,1,0,0:0:0:0:
192,192,10712,1,0,0:0:0:0:
448,192,10712,1,0,0:0:0:0:
64,192,10962,1,0,0:0:0:0:
320,192,10962,1,0,0:0:0:0:
192,192,10962,1,0,0:0:0:0:
192,192,11212,1,0,0:0:0:0:
448,192,11212,1,0,0:0:0:0:
64,192,11212,1,0,0:0:0:0:
192,192,11337,1,0,0:0:0:0:
320,192,11337,1,0,0:0:0:0:
64,192,11462,1,0,0:0:0:0:
320,192,11462,1,0,0:0:0:0:
192,192,11587,1,0,0:0:0:0:
448,192,11587,1,0,0:0:0:0:
64,192,11712,1,0,0:0:0:0:
320,192,11712,1,0,0:0:0:0:
192,192,11837,1,0,0:0:0:0:
448,192,11837,1,0,0:0:0:0:
64,192,11962,1,0,0:0:0:0:
320,192,11962,1,0,0:0:0:0:
192,192,12087,1,0,0:0:0:0:
448,192,12087,1,0,0:0:0:0:
64,192,12212,1,0,0:0:0:0:
320,192,12212,1,0,0:0:0:0:
192,192,12337,1,0,0:0:0:0:
448,192,12337,1,0,0:0:0:0:
192,192,12462,1,0,0:0:0:0:
64,192,12462,1,0,0:0:0:0:
192,192,12587,1,0,0:0:0:0:
448,192,12587,1,0,0:0:0:0:
64,192,12712,1,0,0:0:0:0:
192,192,12774,1,0,0:0:0:0:
320,192,12837,1,0,0:0:0:0:
448,192,12899,1,0,0:0:0:0:
320,192,12962,1,0,0:0:0:0:
192,192,13024,1,0,0:0:0:0:
64,192,13087,1,0,0:0:0:0:
192,192,13149,1,0,0:0:0:0:
448,192,13212,1,0,0:0:0:0:
320,192,13212,128,0,13462:0:0:0:0:
64,192,13462,128,0,13712:0:0:0:0:
192,192,13462,1,0,0:0:0:0:
192,192,13712,1,0,0:0:0:0:
448,192,13712,128,0,13962:0:0:0:0:
320,192,13837,1,0,0:0:0:0:
64,192,13962,128,0,14212:0:0:0:0:
192,192,13962,1,0,0:0:0:0:
320,192,14087,1,0,0:0:0:0:
448,192,14212,128,0,14462:0:0:0:0:
192,192,14212,1,0,0:0:0:0:
64,192,14337,1,0,0:0:0:0:
320,192,14462,128,0,14712:0:0:0:0:
192,192,14462,1,0,0:0:0:0:
448,192,14587,1,0,0:0:0:0:
64,192,14712,128,0,14962:0:0:0:0:
192,192,14712,1,0,0:0:0:0:
320,192,14837,1,0,0:0:0:0:
448,192,14962,128,0,15212:0:0:0:0:
192,192,14962,1,0,0:0:0:0:
320,192,15087,1,0,0:0:0:0:
64,192,15212,128,0,15462:0:0:0:0:
192,192,15212,1,0,0:0:0:0:
320,192,15337,1,0,0:0:0:0:
448,192,15462,128,0,15712:0:0:0:0:
192,192,15462,1,0,0:0:0:0:
64,192,15587,1,0,0:0:0:0:
192,192,15712,128,0,15962:0:0:0:0:
320,192,15712,1,0,0:0:0:0:
448,192,15837,1,0,0:0:0:0:
320,192,15962,128,0,16212:0:0:0:0:
64,192,15962,1,0,0:0:0:0:
64,192,16212,1,0,0:0:0:0:
192,192,16212,1,0,0:0:0:0:
64,192,16462,1,0,0:0:0:0:
448,192,16462,1,0,0:0:0:0:
320,192,16587,1,0,0:0:0:0:
192,192,16837,1,0,0:0:0:0:
64,192,16962,1,0,0:0:0:0:
448,192,16962,1,0,0:0:0:0:
64,192,17212,1,0,0:0:0:0:
448,192,17212,1,0,0:0:0:0:
192,192,17337,1,0,0:0:0:0:
320,192,17337,1,0,0:0:0:0:
192,192,17462,1,0,0:0:0:0:
320,192,17462,1,0,0:0:0:0:
64,192,17587,1,0,0:0:0:0:
448,192,17587,1,0,0:0:0:0:
192,192,17712,1,0,0:0:0:0:
320,192,17712,1,0,0:0:0:0:
192,192,17837,1,0,0:0:0:0:
64,192,17837,1,0,0:0:0:0:
64,192,17962,1,0,0:0:0:0:
192,192,17962,1,0,0:0:0:0:
320,192,18087,1,0,0:0:0:0:
448,192,18087,1,0,0:0:0:0:
192,192,18212,1,0,0:0:0:0:
320,192,18212,1,0,0:0:0:0:
64,192,18337,1,0,0:0:0:0:
448,192,18337,1,0,0:0:0:0:
192,192,18462,1,0,0:0:0:0:
320,192,18462,1,0,0:0:0:0:
64,192,18587,1,0,0:0:0:0:
448,192,18587,1,0,0:0:0:0:
64,192,18712,1,0,0:0:0:0:
448,192,18712,1,0,0:0:0:0:
192,192,18837,1,0,0:0:0:0:
320,192,18837,1,0,0:0:0:0:
64,192,18962,1,0,0:0:0:0:
448,192,18962,1,0,0:0:0:0:
192,192,19087,1,0,0:0:0:0:
320,192,19087,1,0,0:0:0:0:
64,192,19212,1,0,0:0:0:0:
448,192,19212,1,0,0:0:0:0:
320,192,19337,1,0,0:0:0:0:
192,192,19337,1,0,0:0:0:0:
64,192,19462,1,0,0:0:0:0:
192,192,19587,1,0,0:0:0:0:
320,192,19587,1,0,0:0:0:0:
64,192,19712,1,0,0:0:0:0:
192,192,19712,1,0,0:0:0:0:
320,192,19837,1,0,0:0:0:0:
192,192,19837,1,0,0:0:0:0:
64,192,19962,1,0,0:0:0:0:
448,192,19962,1,0,0:0:0:0:
192,192,20087,1,0,0:0:0:0:
64,192,20087,1,0,0:0:0:0:
448,192,20212,128,0,20587:0:0:0:0:
320,192,20337,128,0,20587:0:0:0:0:
192,192,20462,128,0,20587:0:0:0:0:
64,192,20587,128,0,21087:0:0:0:0:
192,192,20712,128,0,21087:0:0:0:0:
320,192,20837,128,0,21087:0:0:0:0:
448,192,20962,128,0,21087:0:0:0:0:
64,192,21212,1,0,0:0:0:0:
448,192,21212,1,0,0:0:0:0:
192,192,21462,1,0,0:0:0:0:
320,192,21462,1,0,0:0:0:0:
192,192,21712,1,0,0:0:0:0:
320,192,21712,1,0,0:0:0:0:
64,192,21712,128,0,22212:0:0:0:0:
448,192,21837,1,0,0:0:0:0:
320,192,21962,1,0,0:0:0:0:
192,192,21962,1,0,0:0:0:0:
448,192,22212,128,0,22962:0:0:0:0:
320,192,22212,1,0,0:0:0:0:
320,192,22462,128,0,22962:0:0:0:0:
192,192,22462,1,0,0:0:0:0:
192,192,22712,128,0,22962:0:0:0:0:
64,192,22712,1,0,0:0:0:0:
64,192,22962,1,0,0:0:0:0:
448,192,23212,1,0,0:0:0:0:
64,192,23212,1,0,0:0:0:0:
320,192,23212,1,0,0:0:0:0:
192,192,23337,1,0,0:0:0:0:
320,192,23337,1,0,0:0:0:0:
192,192,23462,1,0,0:0:0:0:
448,192,23462,1,0,0:0:0:0:
64,192,23587,1,0,0:0:0:0:
320,192,23587,1,0,0:0:0:0:
192,192,23712,1,0,0:0:0:0:
448,192,23712,1,0,0:0:0:0:
64,192,23837,1,0,0:0:0:0:
320,192,23837,1,0,0:0:0:0:
192,192,23962,1,0,0:0:0:0:
448,192,23962,1,0,0:0:0:0:
64,192,24087,1,0,0:0:0:0:
320,192,24087,1,0,0:0:0:0:
192,192,24212,1,0,0:0:0:0:
448,192,24212,1,0,0:0:0:0:
64,192,24337,1,0,0:0:0:0:
320,192,24337,1,0,0:0:0:0:
448,192,24462,1,0,0:0:0:0:
320,192,24462,1,0,0:0:0:0:
64,192,24587,1,0,0:0:0:0:
320,192,24587,1,0,0:0:0:0:
448,192,24712,1,0,0:0:0:0:
320,192,24774,1,0,0:0:0:0:
192,192,24837,1,0,0:0:0:0:
64,192,24899,1,0,0:0:0:0:
192,192,24962,1,0,0:0:0:0:
320,192,25024,1,0,0:0:0:0:
448,192,25087,1,0,0:0:0:0:
320,192,25149,1,0,0:0:0:0:
192,192,25212,1,0,0:0:0:0:
64,192,25212,128,0,25462:0:0:0:0:
192,192,25462,1,0,0:0:0:0:
448,192,25462,1,0,0:0:0:0:
320,192,25587,1,0,0:0:0:0:
64,192,25712,1,0,0:0:0:0:
192,192,25712,1,0,0:0:0:0:
320,192,25837,1,0,0:0:0:0:
448,192,25962,1,0,0:0:0:0:
192,192,25962,1,0,0:0:0:0:
320,192,26087,1,0,0:0:0:0:
448,192,26212,128,0,26462:0:0:0:0:
64,192,26462,128,0,26962:0:0:0:0:
320,192,26587,128,0,26962:0:0:0:0:
448,192,26712,1,0,0:0:0:0:
192,192,26837,1,0,0:0:0:0:
192,192,26962,1,0,0:0:0:0:
448,192,26962,1,0,0:0:0:0:
64,192,27212,1,0,0:0:0:0:
192,192,27212,1,0,0:0:0:0:
64,192,27337,1,0,0:0:0:0:
192,192,27337,1,0,0:0:0:0:
64,192,27462,1,0,0:0:0:0:
448,192,27462,1,0,0:0:0:0:
192,192,27587,1,0,0:0:0:0:
320,192,27712,1,0,0:0:0:0:
448,192,27712,1,0,0:0:0:0:
320,192,27837,1,0,0:0:0:0:
448,192,27837,1,0,0:0:0:0:
64,192,27962,1,0,0:0:0:0:
448,192,27962,1,0,0:0:0:0:
192,192,28087,1,0,0:0:0:0:
64,192,28212,1,0,0:0:0:0:
448,192,28212,1,0,0:0:0:0:
192,192,28337,1,0,0:0:0:0:
320,192,28337,1,0,0:0:0:0:
64,192,28462,1,0,0:0:0:0:
448,192,28462,1,0,0:0:0:0:
320,192,28462,128,0,28587:0:0:0:0:
192,192,28587,1,0,0:0:0:0:
64,192,28587,128,0,28712:0:0:0:0:
320,192,28712,1,0,0:0:0:0:
192,192,28712,128,0,28837:0:0:0:0:
448,192,28837,1,0,0:0:0:0:
64,192,28837,128,0,28962:0:0:0:0:
320,192,28962,1,0,0:0:0:0:
64,192,29087,1,0,0:0:0:0:
448,192,29087,1,0,0:0:0:0:
192,192,29212,128,0,29462:0:0:0:0:
320,192,29337,1,0,0:0:0:0:
64,192,29462,1,0,0:0:0:0:
448,192,29462,1,0,0:0:0:0:
320,192,29587,1,0,0:0:0:0:
64,192,29712,1,0,0:0:0:0:
448,192,29712,1,0,0:0:0:0:
192,192,29837,1,0,0:0:0:0:
64,192,29837,1,0,0:0:0:0:
320,192,29962,1,0,0:0:0:0:
192,192,30087,1,0,0:0:0:0:
64,192,30212,1,0,0:0:0:0:
320,192,30212,1,0,0:0:0:0:
448,192,30212,128,0,30462:0:0:0:0:
192,192,30337,128,0,30712:0:0:0:0:
320,192,30462,128,0,30712:0:0:0:0:
64,192,30462,1,0,0:0:0:0:
448,192,30587,1,0,0:0:0:0:
64,192,30712,1,0,0:0:0:0:
192,192,30837,1,0,0:0:0:0:
320,192,30837,1,0,0:0:0:0:
64,192,30962,1,0,0:0:0:0:
448,192,30962,1,0,0:0:0:0:
320,192,31212,1,0,0:0:0:0:
448,192,31212,1,0,0:0:0:0:
320,192,31337,1,0,0:0:0:0:
448,192,31337,1,0,0:0:0:0:
64,192,31462,1,0,0:0:0:0:
320,192,31462,1,0,0:0:0:0:
448,192,31587,1,0,0:0:0:0:
64,192,31712,1,0,0:0:0:0:
192,192,31712,1,0,0:0:0:0:
64,192,31837,1,0,0:0:0:0:
192,192,31837,1,0,0:0:0:0:
192,192,31962,1,0,0:0:0:0:
448,192,31962,1,0,0:0:0:0:
320,192,32087,1,0,0:0:0:0:
448,192,32212,1,0,0:0:0:0:
64,192,32212,128,0,32337:0:0:0:0:
192,192,32337,128,0,32462:0:0:0:0:
320,192,32462,128,0,32587:0:0:0:0:
448,192,32462,1,0,0:0:0:0:
448,192,32587,128,0,32712:0:0:0:0:
192,192,32587,1,0,0:0:0:0:
320,192,32712,128,0,32837:0:0:0:0:
64,192,32712,1,0,0:0:0:0:
192,192,32837,128,0,32962:0:0:0:0:
448,192,32837,128,0,32962:0:0:0:0:
64,192,32962,128,0,33087:0:0:0:0:
320,192,32962,128,0,33087:0:0:0:0:
192,192,33212,1,0,0:0:0:0:
320,192,33212,1,0,0:0:0:0:
448,192,33337,1,0,0:0:0:0:
320,192,33462,1,0,0:0:0:0:
64,192,33462,1,0,0:0:0:0:
192,192,33462,128,0,33587:0:0:0:0:
64,192,33712,1,0,0:0:0:0:
448,192,33712,1,0,0:0:0:0:
192,192,33962,1,0,0:0:0:0:
320,192,33962,1,0,0:0:0:0:
64,192,34087,1,0,0:0:0:0:
320,192,34212,1,0,0:0:0:0:
448,192,34212,1,0,0:0:0:0:
320,192,34337,1,0,0:0:0:0:
192,192,34337,1,0,0:0:0:0:
64,192,34462,1,0,0:0:0:0:
192,192,34462,1,0,0:0:0:0:
320,192,34587,1,0,0:0:0:0:
64,192,34712,1,0,0:0:0:0:
192,192,34712,1,0,0:0:0:0:
192,192,34837,1,0,0:0:0:0:
320,192,34837,1,0,0:0:0:0:
320,192,34962,1,0,0:0:0:0:
448,192,34962,1,0,0:0:0:0:
192,192,35087,1,0,0:0:0:0:
64,192,35212,128,0,35462:0:0:0:0:
320,192,35212,1,0,0:0:0:0:
192,192,35337,1,0,0:0:0:0:
448,192,35337,1,0,0:0:0:0:
192,192,35462,1,0,0:0:0:0:
320,192,35462,1,0,0:0:0:0:
448,192,35712,128,0,35962:0:0:0:0:
64,192,35712,1,0,0:0:0:0:
192,192,35837,1,0,0:0:0:0:
64,192,35962,128,0,36212:0:0:0:0:
320,192,35962,1,0,0:0:0:0:
192,192,36087,1,0,0:0:0:0:
320,192,36212,128,0,36462:0:0:0:0:
448,192,36212,1,0,0:0:0:0:
192,192,36337,1,0,0:0:0:0:
192,192,36462,128,0,36712:0:0:0:0:
64,192,36462,1,0,0:0:0:0:
320,192,36587,1,0,0:0:0:0:
448,192,36712,1,0,0:0:0:0:
64,192,36837,1,0,0:0:0:0:
192,192,36899,1,0,0:0:0:0:
64,192,36962,1,0,0:0:0:0:
448,192,37087,1,0,0:0:0:0:
320,192,37149,1,0,0:0:0:0:
448,192,37212,1,0,0:0:0:0:
64,192,37212,128,0,37462:0:0:0:0:
192,192,37462,1,0,0:0:0:0:
448,192,37462,1,0,0:0:0:0:
192,192,37712,128,0,37837:0:0:0:0:
320,192,37837,128,0,37962:0:0:0:0:
448,192,37962,128,0,38087:0:0:0:0:
64,192,38087,128,0,38212:0:0:0:0:
320,192,38212,128,0,38337:0:0:0:0:
192,192,38337,128,0,38462:0:0:0:0:
448,192,38462,128,0,38587:0:0:0:0:
64,192,38587,128,0,38712:0:0:0:0:
192,192,38712,1,0,0:0:0:0:
320,192,38712,128,0,38837:0:0:0:0:
448,192,38837,1,0,0:0:0:0:
64,192,38962,1,0,0:0:0:0:
448,192,38962,1,0,0:0:0:0:
192,192,39087,1,0,0:0:0:0:
192,192,39212,1,0,0:0:0:0:
320,192,39212,1,0,0:0:0:0:
64,192,39212,128,0,39462:0:0:0:0:
192,192,39462,1,0,0:0:0:0:
448,192,39462,1,0,0:0:0:0:
320,192,39712,1,0,0:0:0:0:
448,192,39712,1,0,0:0:0:0:
320,192,39837,1,0,0:0:0:0:
448,192,39837,1,0,0:0:0:0:
64,192,39962,1,0,0:0:0:0:
320,192,39962,1,0,0:0:0:0:
192,192,40087,128,0,40212:0:0:0:0:
320,192,40212,128,0,40337:0:0:0:0:
64,192,40337,128,0,40462:0:0:0:0:
448,192,40462,128,0,40587:0:0:0:0:
320,192,40587,128,0,40712:0:0:0:0:
192,192,40712,128,0,40837:0:0:0:0:
64,192,40837,128,0,40962:0:0:0:0:
320,192,40837,128,0,40962:0:0:0:0:
448,192,40962,128,0,41087:0:0:0:0:
320,192,41087,128,0,41212:0:0:0:0:
192,192,41212,128,0,41337:0:0:0:0:
64,192,41212,128,0,41337:0:0:0:0:
64,192,41462,128,0,41587:0:0:0:0:
192,192,41462,128,0,41587:0:0:0:0:
448,192,41462,1,0,0:0:0:0:
64,192,41712,128,0,41837:0:0:0:0:
192,192,41712,128,0,41837:0:0:0:0:
448,192,41712,1,0,0:0:0:0:
320,192,41837,1,0,0:0:0:0:
64,192,41962,128,0,42087:0:0:0:0:
192,192,41962,128,0,42087:0:0:0:0:
448,192,41962,1,0,0:0:0:0:
64,192,42212,128,0,42337:0:0:0:0:
192,192,42212,128,0,42337:0:0:0:0:
64,192,42462,128,0,42587:0:0:0:0:
192,192,42462,128,0,42587:0:0:0:0:
448,192,42462,1,0,0:0:0:0:
320,192,42712,128,0,42837:0:0:0:0:
448,192,42962,128,0,43087:0:0:0:0:
320,192,43212,128,0,43337:0:0:0:0:
448,192,43212,128,0,43337:0:0:0:0:
64,192,43212,1,0,0:0:0:0:
320,192,43462,128,0,43587:0:0:0:0:
448,192,43462,128,0,43587:0:0:0:0:
320,192,43712,128,0,43837:0:0:0:0:
448,192,43712,128,0,43837:0:0:0:0:
64,192,43712,1,0,0:0:0:0:
192,192,43837,1,0,0:0:0:0:
320,192,43962,128,0,44087:0:0:0:0:
448,192,43962,128,0,44087:0:0:0:0:
64,192,43962,1,0,0:0:0:0:
320,192,44212,128,0,44337:0:0:0:0:
448,192,44212,128,0,44337:0:0:0:0:
64,192,44212,1,0,0:0:0:0:
320,192,44462,128,0,44587:0:0:0:0:
448,192,44462,128,0,44587:0:0:0:0:
320,192,44712,128,0,44837:0:0:0:0:
448,192,44712,128,0,44837:0:0:0:0:
64,192,44712,1,0,0:0:0:0:
64,192,44962,1,0,0:0:0:0:
448,192,44962,1,0,0:0:0:0:
192,192,45087,1,0,0:0:0:0:
320,192,45087,1,0,0:0:0:0:
64,192,45212,1,0,0:0:0:0:
192,192,45212,1,0,0:0:0:0:
448,192,45212,128,0,45587:0:0:0:0:
320,192,45337,1,0,0:0:0:0:
192,192,45462,1,0,0:0:0:0:
64,192,45587,1,0,0:0:0:0:
192,192,45587,128,0,45962:0:0:0:0:
320,192,45712,1,0,0:0:0:0:
448,192,45837,1,0,0:0:0:0:
320,192,45962,1,0,0:0:0:0:
64,192,45962,128,0,46212:0:0:0:0:
448,192,45962,1,0,0:0:0:0:
192,192,46087,1,0,0:0:0:0:
448,192,46212,1,0,0:0:0:0:
192,192,46212,1,0,0:0:0:0:
320,192,46212,128,0,46462:0:0:0:0:
192,192,46337,1,0,0:0:0:0:
64,192,46462,128,0,46587:0:0:0:0:
448,192,46462,1,0,0:0:0:0:
448,192,46587,128,0,46712:0:0:0:0:
192,192,46587,1,0,0:0:0:0:
64,192,46712,1,0,0:0:0:0:
320,192,46712,1,0,0:0:0:0:
192,192,46837,1,0,0:0:0:0:
64,192,46962,1,0,0:0:0:0:
448,192,46962,1,0,0:0:0:0:
64,192,47087,128,0,47212:0:0:0:0:
448,192,47212,128,0,47337:0:0:0:0:
192,192,47337,128,0,47462:0:0:0:0:
320,192,47337,1,0,0:0:0:0:
320,192,47462,128,0,47587:0:0:0:0:
448,192,47462,1,0,0:0:0:0:
64,192,47587,128,0,47712:0:0:0:0:
192,192,47587,1,0,0:0:0:0:
448,192,47712,128,0,47837:0:0:0:0:
320,192,47712,1,0,0:0:0:0:
192,192,47837,128,0,47962:0:0:0:0:
64,192,47837,1,0,0:0:0:0:
320,192,47962,128,0,48087:0:0:0:0:
448,192,47962,1,0,0:0:0:0:
448,192,48087,128,0,48212:0:0:0:0:
320,192,48212,1,0,0:0:0:0:
192,192,48212,1,0,0:0:0:0:
320,192,48337,1,0,0:0:0:0:
448,192,48462,1,0,0:0:0:0:
64,192,48587,1,0,0:0:0:0:
320,192,48587,1,0,0:0:0:0:
192,192,48712,1,0,0:0:0:0:
448,192,48712,1,0,0:0:0:0:
64,192,48774,1,0,0:0:0:0:
192,192,48837,1,0,0:0:0:0:
320,192,48899,1,0,0:0:0:0:
448,192,48962,1,0,0:0:0:0:
64,192,48962,1,0,0:0:0:0:
192,192,49024,1,0,0:0:0:0:
320,192,49087,1,0,0:0:0:0:
448,192,49149,1,0,0:0:0:0:
64,192,49212,128,0,49462:0:0:0:0:
192,192,49212,1,0,0:0:0:0:
320,192,49212,1,0,0:0:0:0:
320,192,49337,1,0,0:0:0:0:
192,192,49462,1,0,0:0:0:0:
448,192,49462,1,0,0:0:0:0:
320,192,49587,1,0,0:0:0:0:
64,192,49712,1,0,0:0:0:0:
320,192,49712,1,0,0:0:0:0:
448,192,49712,128,0,49962:0:0:0:0:
192,192,49837,1,0,0:0:0:0:
320,192,49962,1,0,0:0:0:0:
192,192,49962,1,0,0:0:0:0:
64,192,50087,1,0,0:0:0:0:
192,192,50212,1,0,0:0:0:0:
448,192,50212,1,0,0:0:0:0:
320,192,50212,128,0,50462:0:0:0:0:
64,192,50337,1,0,0:0:0:0:
192,192,50462,128,0,50712:0:0:0:0:
64,192,50462,1,0,0:0:0:0:
448,192,50462,1,0,0:0:0:0:
448,192,50587,1,0,0:0:0:0:
320,192,50712,1,0,0:0:0:0:
64,192,50712,1,0,0:0:0:0:
448,192,50837,1,0,0:0:0:0:
192,192,50962,1,0,0:0:0:0:
64,192,50962,1,0,0:0:0:0:
448,192,51087,1,0,0:0:0:0:
64,192,51212,128,0,51462:0:0:0:0:
192,192,51212,128,0,51462:0:0:0:0:
192,192,51712,128,0,51962:0:0:0:0:
320,192,51712,128,0,51962:0:0:0:0:
320,192,52212,128,0,52462:0:0:0:0:
448,192,52212,128,0,52462:0:0:0:0:
64,192,52712,128,0,52962:0:0:0:0:
448,192,52712,128,0,52962:0:0:0:0:
320,192,53212,128,0,53962:0:0:0:0:
192,192,53212,128,0,53962:0:0:0:0:
64,192,54212,128,0,54462:0:0:0:0:
448,192,54212,128,0,54462:0:0:0:0:
320,192,54212,128,0,54587:0:0:0:0:
192,192,54212,128,0,54587:0:0:0:0:
64,192,54712,1,0,0:0:0:0:
192,192,54774,1,0,0:0:0:0:
320,192,54837,1,0,0:0:0:0:
448,192,54899,1,0,0:0:0:0:
320,192,54962,1,0,0:0:0:0:
192,192,55024,1,0,0:0:0:0:
64,192,55087,1,0,0:0:0:0:
64,192,55212,128,0,55712:0:0:0:0:
192,192,55212,1,0,0:0:0:0:
448,192,55212,1,0,0:0:0:0:
320,192,55337,1,0,0:0:0:0:
192,192,55462,1,0,0:0:0:0:
320,192,55462,1,0,0:0:0:0:
448,192,55587,1,0,0:0:0:0:
192,192,55712,1,0,0:0:0:0:
448,192,55712,1,0,0:0:0:0:
320,192,55837,1,0,0:0:0:0:
192,192,55837,1,0,0:0:0:0:
64,192,55962,1,0,0:0:0:0:
320,192,56087,1,0,0:0:0:0:
448,192,56087,1,0,0:0:0:0:
192,192,56212,128,0,56712:0:0:0:0:
320,192,56337,1,0,0:0:0:0:
448,192,56337,1,0,0:0:0:0:
448,192,56462,1,0,0:0:0:0:
320,192,56587,1,0,0:0:0:0:
64,192,56587,1,0,0:0:0:0:
448,192,56712,1,0,0:0:0:0:
320,192,56837,1,0,0:0:0:0:
192,192,56962,1,0,0:0:0:0:
448,192,56962,1,0,0:0:0:0:
64,192,57087,1,0,0:0:0:0:
448,192,57212,128,0,57462:0:0:0:0:
192,192,57212,1,0,0:0:0:0:
64,192,57337,1,0,0:0:0:0:
320,192,57337,1,0,0:0:0:0:
320,192,57462,128,0,57712:0:0:0:0:
192,192,57462,1,0,0:0:0:0:
448,192,57587,1,0,0:0:0:0:
192,192,57712,128,0,57962:0:0:0:0:
64,192,57712,1,0,0:0:0:0:
320,192,57837,1,0,0:0:0:0:
448,192,57837,1,0,0:0:0:0:
64,192,57962,128,0,58462:0:0:0:0:
448,192,57962,1,0,0:0:0:0:
192,192,58087,1,0,0:0:0:0:
448,192,58087,1,0,0:0:0:0:
320,192,58212,1,0,0:0:0:0:
192,192,58337,1,0,0:0:0:0:
192,192,58462,1,0,0:0:0:0:
448,192,58462,1,0,0:0:0:0:
320,192,58587,1,0,0:0:0:0:
192,192,58837,1,0,0:0:0:0:
64,192,58962,1,0,0:0:0:0:
320,192,58962,1,0,0:0:0:0:
320,192,59212,1,0,0:0:0:0:
64,192,59212,1,0,0:0:0:0:
192,192,59337,1,0,0:0:0:0:
320,192,59337,1,0,0:0:0:0:
320,192,59462,1,0,0:0:0:0:
64,192,59462,1,0,0:0:0:0:
448,192,59462,1,0,0:0:0:0:
192,192,59587,1,0,0:0:0:0:
448,192,59587,1,0,0:0:0:0:
320,192,59712,1,0,0:0:0:0:
64,192,59712,1,0,0:0:0:0:
192,192,59837,1,0,0:0:0:0:
448,192,59837,1,0,0:0:0:0:
320,192,59962,1,0,0:0:0:0:
192,192,60024,1,0,0:0:0:0:
64,192,60087,1,0,0:0:0:0:
448,192,60212,1,0,0:0:0:0:
320,192,60212,1,0,0:0:0:0:
64,192,60462,1,0,0:0:0:0:
320,192,60462,1,0,0:0:0:0:
320,192,60587,1,0,0:0:0:0:
192,192,60587,1,0,0:0:0:0:
320,192,60837,1,0,0:0:0:0:
448,192,60837,1,0,0:0:0:0:
192,192,60962,1,0,0:0:0:0:
448,192,60962,1,0,0:0:0:0:
64,192,61212,128,0,61337:0:0:0:0:
320,192,61212,1,0,0:0:0:0:
448,192,61212,1,0,0:0:0:0:
192,192,61337,128,0,61462:0:0:0:0:
320,192,61337,1,0,0:0:0:0:
448,192,61337,1,0,0:0:0:0:
64,192,61462,128,0,61587:0:0:0:0:
320,192,61462,1,0,0:0:0:0:
448,192,61462,1,0,0:0:0:0:
320,192,61587,128,0,61712:0:0:0:0:
192,192,61587,1,0,0:0:0:0:
448,192,61712,128,0,61837:0:0:0:0:
64,192,61712,1,0,0:0:0:0:
192,192,61712,1,0,0:0:0:0:
192,192,61837,128,0,61962:0:0:0:0:
64,192,61837,1,0,0:0:0:0:
320,192,61837,1,0,0:0:0:0:
448,192,61962,1,0,0:0:0:0:
64,192,61962,1,0,0:0:0:0:
320,192,61962,128,0,62087:0:0:0:0:
64,192,62087,128,0,62212:0:0:0:0:
448,192,62087,1,0,0:0:0:0:
192,192,62087,1,0,0:0:0:0:
192,192,62212,1,0,0:0:0:0:
448,192,62212,1,0,0:0:0:0:
64,192,62337,1,0,0:0:0:0:
192,192,62399,1,0,0:0:0:0:
320,192,62462,1,0,0:0:0:0:
448,192,62524,1,0,0:0:0:0:
320,192,62587,1,0,0:0:0:0:
192,192,62649,1,0,0:0:0:0:
64,192,62712,1,0,0:0:0:0:
192,192,62774,1,0,0:0:0:0:
320,192,62837,1,0,0:0:0:0:
448,192,62899,1,0,0:0:0:0:
320,192,62962,1,0,0:0:0:0:
64,192,62962,128,0,63212:0:0:0:0:
192,192,63212,1,0,0:0:0:0:
448,192,63212,1,0,0:0:0:0:
320,192,63212,128,0,63462:0:0:0:0:
64,192,63462,1,0,0:0:0:0:
448,192,63462,1,0,0:0:0:0:
192,192,63524,1,0,0:0:0:0:
320,192,63587,1,0,0:0:0:0:
64,192,63712,1,0,0:0:0:0:
192,192,63712,1,0,0:0:0:0:
320,192,63837,1,0,0:0:0:0:
64,192,63837,128,0,63962:0:0:0:0:
192,192,63962,1,0,0:0:0:0:
448,192,63962,1,0,0:0:0:0:
320,192,64087,1,0,0:0:0:0:
64,192,64087,1,0,0:0:0:0:
192,192,64212,1,0,0:0:0:0:
448,192,64337,1,0,0:0:0:0:
320,192,64337,128,0,64462:0:0:0:0:
64,192,64462,1,0,0:0:0:0:
192,192,64462,128,0,64587:0:0:0:0:
448,192,64587,128,0,64712:0:0:0:0:
64,192,64712,128,0,64837:0:0:0:0:
192,192,64837,128,0,64962:0:0:0:0:
320,192,64837,128,0,64962:0:0:0:0:
64,192,64962,1,0,0:0:0:0:
448,192,64962,1,0,0:0:0:0:
192,192,65212,128,0,65587:0:0:0:0:
448,192,65337,1,0,0:0:0:0:
320,192,65399,1,0,0:0:0:0:
64,192,65462,1,0,0:0:0:0:
320,192,65587,1,0,0:0:0:0:
448,192,65587,128,0,65712:0:0:0:0:
64,192,65712,128,0,65962:0:0:0:0:
192,192,65712,1,0,0:0:0:0:
448,192,65837,1,0,0:0:0:0:
320,192,65962,128,0,66212:0:0:0:0:
192,192,65962,1,0,0:0:0:0:
64,192,66212,1,0,0:0:0:0:
192,192,66212,1,0,0:0:0:0:
64,192,66462,1,0,0:0:0:0:
448,192,66462,1,0,0:0:0:0:
192,192,66587,1,0,0:0:0:0:
320,192,66587,1,0,0:0:0:0:
192,192,66837,1,0,0:0:0:0:
320,192,66837,1,0,0:0:0:0:
64,192,66962,1,0,0:0:0:0:
448,192,66962,1,0,0:0:0:0:
64,192,67212,1,0,0:0:0:0:
448,192,67212,1,0,0:0:0:0:
192,192,67337,1,0,0:0:0:0:
320,192,67337,1,0,0:0:0:0:
64,192,67462,1,0,0:0:0:0:
192,192,67462,1,0,0:0:0:0:
320,192,67587,1,0,0:0:0:0:
448,192,67587,1,0,0:0:0:0:
192,192,67712,1,0,0:0:0:0:
64,192,67712,1,0,0:0:0:0:
320,192,67837,1,0,0:0:0:0:
192,192,67837,1,0,0:0:0:0:
448,192,67837,1,0,0:0:0:0:
192,192,67962,1,0,0:0:0:0:
64,192,67962,1,0,0:0:0:0:
448,192,67962,1,0,0:0:0:0:
320,192,67962,128,0,68212:0:0:0:0:
64,192,68212,128,0,68462:0:0:0:0:
192,192,68212,1,0,0:0:0:0:
448,192,68212,1,0,0:0:0:0:
320,192,68462,1,0,0:0:0:0:
448,192,68462,1,0,0:0:0:0:
192,192,68587,1,0,0:0:0:0:
64,192,68712,1,0,0:0:0:0:
192,192,68837,1,0,0:0:0:0:
320,192,68962,1,0,0:0:0:0:
448,192,68962,1,0,0:0:0:0:
64,192,69087,1,0,0:0:0:0:
192,192,69149,1,0,0:0:0:0:
320,192,69212,1,0,0:0:0:0:
448,192,69212,1,0,0:0:0:0:
320,192,69337,1,0,0:0:0:0:
192,192,69337,1,0,0:0:0:0:
448,192,69337,128,0,69462:0:0:0:0:
320,192,69462,1,0,0:0:0:0:
64,192,69462,1,0,0:0:0:0:
192,192,69462,128,0,69587:0:0:0:0:
320,192,69587,128,0,69712:0:0:0:0:
448,192,69712,128,0,69837:0:0:0:0:
192,192,69712,1,0,0:0:0:0:
64,192,69837,128,0,69962:0:0:0:0:
320,192,69837,1,0,0:0:0:0:
192,192,69837,1,0,0:0:0:0:
320,192,69962,128,0,70087:0:0:0:0:
448,192,69962,1,0,0:0:0:0:
192,192,70087,128,0,70212:0:0:0:0:
64,192,70087,1,0,0:0:0:0:
320,192,70212,128,0,70337:0:0:0:0:
448,192,70212,1,0,0:0:0:0:
64,192,70337,1,0,0:0:0:0:
448,192,70337,128,0,70462:0:0:0:0:
192,192,70337,1,0,0:0:0:0:
192,192,70462,128,0,70587:0:0:0:0:
64,192,70462,1,0,0:0:0:0:
320,192,70587,128,0,70712:0:0:0:0:
448,192,70587,1,0,0:0:0:0:
64,192,70712,1,0,0:0:0:0:
192,192,70712,1,0,0:0:0:0:
448,192,70712,128,0,71212:0:0:0:0:
64,192,70837,1,0,0:0:0:0:
192,192,70899,1,0,0:0:0:0:
320,192,70962,1,0,0:0:0:0:
192,192,71024,1,0,0:0:0:0:
64,192,71087,1,0,0:0:0:0:
192,192,71149,1,0,0:0:0:0:
320,192,71212,128,0,71462:0:0:0:0:
64,192,71212,128,0,71462:0:0:0:0:
192,192,71462,1,0,0:0:0:0:
448,192,71462,1,0,0:0:0:0:
320,192,71587,1,0,0:0:0:0:
192,192,71712,1,0,0:0:0:0:
64,192,71712,1,0,0:0:0:0:
448,192,71712,128,0,71962:0:0:0:0:
64,192,71962,128,0,72212:0:0:0:0:
192,192,71962,1,0,0:0:0:0:
320,192,71962,1,0,0:0:0:0:
320,192,72212,128,0,72462:0:0:0:0:
448,192,72212,1,0,0:0:0:0:
192,192,72337,1,0,0:0:0:0:
64,192,72462,1,0,0:0:0:0:
192,192,72462,1,0,0:0:0:0:
192,192,72587,1,0,0:0:0:0:
448,192,72587,1,0,0:0:0:0:
320,192,72712,1,0,0:0:0:0:
192,192,72837,1,0,0:0:0:0:
64,192,72837,1,0,0:0:0:0:
320,192,72962,1,0,0:0:0:0:
192,192,73024,1,0,0:0:0:0:
64,192,73087,1,0,0:0:0:0:
192,192,73149,1,0,0:0:0:0:
320,192,73212,128,0,73462:0:0:0:0:
64,192,73462,1,0,0:0:0:0:
192,192,73462,128,0,73712:0:0:0:0:
64,192,73712,1,0,0:0:0:0:
320,192,73712,128,0,73962:0:0:0:0:
448,192,73962,1,0,0:0:0:0:
192,192,73962,1,0,0:0:0:0:
64,192,73962,128,0,74212:0:0:0:0:
192,192,74212,1,0,0:0:0:0:
320,192,74212,1,0,0:0:0:0:
448,192,74212,128,0,74462:0:0:0:0:
320,192,74337,1,0,0:0:0:0:
192,192,74399,1,0,0:0:0:0:
64,192,74462,1,0,0:0:0:0:
320,192,74462,128,0,74712:0:0:0:0:
192,192,74524,1,0,0:0:0:0:
448,192,74587,1,0,0:0:0:0:
192,192,74649,1,0,0:0:0:0:
64,192,74712,1,0,0:0:0:0:
448,192,74712,128,0,74962:0:0:0:0:
192,192,74837,1,0,0:0:0:0:
64,192,74962,1,0,0:0:0:0:
320,192,74962,1,0,0:0:0:0:
192,192,75024,1,0,0:0:0:0:
320,192,75087,1,0,0:0:0:0:
448,192,75149,1,0,0:0:0:0:
320,192,75212,1,0,0:0:0:0:
64,192,75212,128,0,75462:0:0:0:0:
192,192,75337,1,0,0:0:0:0:
320,192,75462,1,0,0:0:0:0:
448,192,75462,1,0,0:0:0:0:
320,192,75587,1,0,0:0:0:0:
192,192,75712,1,0,0:0:0:0:
64,192,75712,1,0,0:0:0:0:
192,192,75837,1,0,0:0:0:0:
320,192,75899,1,0,0:0:0:0:
448,192,75962,128,0,76212:0:0:0:0:
64,192,76212,128,0,76462:0:0:0:0:
320,192,76212,128,0,76462:0:0:0:0:
448,192,76337,1,0,0:0:0:0:
192,192,76462,1,0,0:0:0:0:
192,192,76587,1,0,0:0:0:0:
320,192,76587,1,0,0:0:0:0:
192,192,76837,1,0,0:0:0:0:
320,192,76837,1,0,0:0:0:0:
64,192,76962,1,0,0:0:0:0:
448,192,76962,1,0,0:0:0:0:
192,192,77087,1,0,0:0:0:0:
64,192,77149,1,0,0:0:0:0:
192,192,77212,1,0,0:0:0:0:
320,192,77337,1,0,0:0:0:0:
448,192,77337,1,0,0:0:0:0:
448,192,77462,1,0,0:0:0:0:
320,192,77587,1,0,0:0:0:0:
448,192,77587,1,0,0:0:0:0:
192,192,77712,1,0,0:0:0:0:
320,192,77837,1,0,0:0:0:0:
448,192,77899,1,0,0:0:0:0:
320,192,77962,1,0,0:0:0:0:
192,192,78087,1,0,0:0:0:0:
192,192,78212,1,0,0:0:0:0:
320,192,78274,1,0,0:0:0:0:
192,192,78337,1,0,0:0:0:0:
192,192,78462,1,0,0:0:0:0:
448,192,78462,1,0,0:0:0:0:
320,192,78587,1,0,0:0:0:0:
192,192,78649,1,0,0:0:0:0:
320,192,78712,1,0,0:0:0:0:
192,192,78837,1,0,0:0:0:0:
64,192,78962,1,0,0:0:0:0:
192,192,79087,1,0,0:0:0:0:
64,192,79212,1,0,0:0:0:0:
320,192,79212,1,0,0:0:0:0:
448,192,79212,128,0,79462:0:0:0:0:
192,192,79337,1,0,0:0:0:0:
192,192,79462,1,0,0:0:0:0:
320,192,79462,128,0,79712:0:0:0:0:
64,192,79587,1,0,0:0:0:0:
192,192,79587,1,0,0:0:0:0:
192,192,79712,128,0,79962:0:0:0:0:
448,192,79712,1,0,0:0:0:0:
320,192,79837,1,0,0:0:0:0:
448,192,79899,1,0,0:0:0:0:
320,192,79962,1,0,0:0:0:0:
192,192,80024,1,0,0:0:0:0:
64,192,80087,1,0,0:0:0:0:
192,192,80149,1,0,0:0:0:0:
64,192,80212,1,0,0:0:0:0:
192,192,80274,1,0,0:0:0:0:
320,192,80337,1,0,0:0:0:0:
448,192,80399,1,0,0:0:0:0:
320,192,80462,1,0,0:0:0:0:
192,192,80524,1,0,0:0:0:0:
64,192,80587,1,0,0:0:0:0:
192,192,80649,1,0,0:0:0:0:
320,192,80712,1,0,0:0:0:0:
448,192,80712,128,0,81212:0:0:0:0:
64,192,81212,128,0,81462:0:0:0:0:
192,192,81462,1,0,0:0:0:0:
448,192,81462,1,0,0:0:0:0:
64,192,81712,1,0,0:0:0:0:
320,192,81712,1,0,0:0:0:0:
192,192,81962,1,0,0:0:0:0:
320,192,81962,1,0,0:0:0:0:
320,192,82087,1,0,0:0:0:0:
448,192,82087,1,0,0:0:0:0:
192,192,82212,1,0,0:0:0:0:
64,192,82212,1,0,0:0:0:0:
448,192,82462,128,0,83212:0:0:0:0:
64,192,82462,1,0,0:0:0:0:
192,192,82462,1,0,0:0:0:0:
320,192,82462,1,0,0:0:0:0:
320,192,82712,128,0,83212:0:0:0:0:
192,192,82712,1,0,0:0:0:0:
64,192,82712,1,0,0:0:0:0:
192,192,82962,128,0,83212:0:0:0:0:
64,192,82962,1,0,0:0:0:0:
64,192,83212,1,0,0:0:0:0:
64,192,83462,1,0,0:0:0:0:
320,192,83462,1,0,0:0:0:0:
192,192,83587,1,0,0:0:0:0:
320,192,83712,1,0,0:0:0:0:
448,192,83962,1,0,0:0:0:0:
64,192,83962,1,0,0:0:0:0:
320,192,83962,128,0,84212:0:0:0:0:
448,192,84212,1,0,0:0:0:0:
192,192,84212,1,0,0:0:0:0:
64,192,84212,128,0,84462:0:0:0:0:
192,192,84462,1,0,0:0:0:0:
320,192,84462,128,0,84712:0:0:0:0:
64,192,84712,1,0,0:0:0:0:
192,192,84712,1,0,0:0:0:0:
448,192,84712,128,0,84962:0:0:0:0:
320,192,84962,128,0,85212:0:0:0:0:
64,192,84962,1,0,0:0:0:0:
448,192,85087,1,0,0:0:0:0:
192,192,85212,128,0,85462:0:0:0:0:
64,192,85212,1,0,0:0:0:0:
64,192,85462,1,0,0:0:0:0:
320,192,85462,1,0,0:0:0:0:
448,192,85462,1,0,0:0:0:0:
64,192,85712,1,0,0:0:0:0:
320,192,85712,1,0,0:0:0:0:
192,192,85712,128,0,85962:0:0:0:0:
448,192,85962,1,0,0:0:0:0:
64,192,85962,128,0,86212:0:0:0:0:
320,192,86087,1,0,0:0:0:0:
192,192,86212,1,0,0:0:0:0:
320,192,86212,1,0,0:0:0:0:
448,192,86212,128,0,86462:0:0:0:0:
64,192,86462,1,0,0:0:0:0:
320,192,86462,1,0,0:0:0:0:
64,192,86712,1,0,0:0:0:0:
192,192,86712,1,0,0:0:0:0:
320,192,86962,1,0,0:0:0:0:
192,192,86962,1,0,0:0:0:0:
448,192,86962,1,0,0:0:0:0:
64,192,87212,1,0,0:0:0:0:
320,192,87212,1,0,0:0:0:0:
192,192,87212,1,0,0:0:0:0:
192,192,87462,1,0,0:0:0:0:
448,192,87462,1,0,0:0:0:0:
64,192,87462,1,0,0:0:0:0:
192,192,87587,1,0,0:0:0:0:
320,192,87587,1,0,0:0:0:0:
64,192,87712,1,0,0:0:0:0:
320,192,87712,1,0,0:0:0:0:
192,192,87837,1,0,0:0:0:0:
448,192,87837,1,0,0:0:0:0:
64,192,87962,1,0,0:0:0:0:
320,192,87962,1,0,0:0:0:0:
192,192,88087,1,0,0:0:0:0:
448,192,88087,1,0,0:0:0:0:
64,192,88212,1,0,0:0:0:0:
192,192,88274,1,0,0:0:0:0:
320,192,88337,1,0,0:0:0:0:
448,192,88399,1,0,0:0:0:0:
320,192,88462,1,0,0:0:0:0:
192,192,88524,1,0,0:0:0:0:
64,192,88587,1,0,0:0:0:0:
192,192,88712,1,0,0:0:0:0:
448,192,88712,1,0,0:0:0:0:
64,192,88837,1,0,0:0:0:0:
320,192,88837,1,0,0:0:0:0:
64,192,88962,128,0,89962:0:0:0:0:
192,192,88962,128,0,89712:0:0:0:0:
320,192,88962,128,0,89962:0:0:0:0:
448,192,88962,128,0,89712:0:0:0:0:
