osu file format v14

[General]
AudioFilename: audio.mp3
AudioLeadIn: 0
PreviewTime: 55213
Countdown: 0
SampleSet: Normal
StackLeniency: 0.7
Mode: 1
LetterboxInBreaks: 0
WidescreenStoryboard: 0

[Editor]
Bookmarks: 11213,21213,37213,79213
DistanceSpacing: 1.3
BeatDivisor: 4
GridSize: 8
TimelineZoom: 3.049998

[Metadata]
Title:Los! Los! Los! (TV size)
TitleUnicode:Los! Los! Los! (TV size)
Artist:Tanya Degurechaff (CV: Yuki Aoi)
ArtistUnicode:ターニャ・デグレチャフ(CV:悠木碧)
Creator:Skylish
Version:Los Inner Oni
Source:幼女戦記
Tags:Youjo Senki Saga of Tanya the Evil ED Ending TV Size Yuuki losloslos
BeatmapID:1599495
BeatmapSetID:760533

[Difficulty]
HPDrainRate:6
CircleSize:5
OverallDifficulty:7
ApproachRate:5
SliderMultiplier:1.4
SliderTickRate:1

[Events]
//Background and Video events
0,0,"798064.png",0,40
//Break Periods
//Storyboard Layer 0 (Background)
//Storyboard Layer 1 (Fail)
//Storyboard Layer 2 (Pass)
//Storyboard Layer 3 (Foreground)
//Storyboard Layer 4 (Overlay)
//Storyboard Sound Samples

[TimingPoints]
1200,250,4,1,0,85,1,0
51137,-95.2380952380952,4,1,0,85,0,0
51637,-90.9090909090909,4,1,0,85,0,0
52137,-86.9565217391304,4,1,0,85,0,0
52637,-83.3333333333333,4,1,0,85,0,0
53137,-80,4,1,0,40,0,0
54575,-111.111111111111,4,1,0,85,0,0
55200,-100,4,1,0,100,0,1
70762,-105.263157894737,4,1,0,95,0,1
70887,-111.111111111111,4,1,0,90,0,1
71200,-117.647058823529,4,1,0,85,0,0
74637,-113.636363636364,4,1,0,85,0,0
74762,-111.111111111111,4,1,0,85,0,0
74887,-107.52688172043,4,1,0,85,0,0
74981,-105.263157894737,4,1,0,85,0,0
75043,-102.040816326531,4,1,0,85,0,0
75200,-100,4,1,0,100,0,1
81200,-100,4,1,0,85,0,0

[HitObjects]
224,224,1200,5,4,0:0:0:0:
224,192,1450,1,0,0:0:0:0:
224,192,1700,1,8,0:0:0:0:
256,128,1825,1,8,0:0:0:0:
256,128,1950,1,8,0:0:0:0:
256,128,2200,1,8,0:0:0:0:
256,128,2450,1,8,0:0:0:0:
256,128,2700,1,0,0:0:0:0:
192,64,2950,1,8,0:0:0:0:
256,224,3200,1,0,0:0:0:0:
192,32,3325,1,0,0:0:0:0:
224,96,3450,1,0,0:0:0:0:
224,96,3700,1,8,0:0:0:0:
224,64,3950,1,0,0:0:0:0:
192,64,4200,1,8,0:0:0:0:
192,64,4450,1,0,0:0:0:0:
192,64,4700,1,8,0:0:0:0:
192,64,4950,1,8,0:0:0:0:
192,64,5200,5,4,0:0:0:0:
192,64,5325,1,8,0:0:0:0:
192,64,5450,1,0,0:0:0:0:
192,64,5700,1,8,0:0:0:0:
192,64,5825,1,0,0:0:0:0:
192,64,5950,1,8,0:0:0:0:
192,64,6200,1,0,0:0:0:0:
192,64,6450,1,0,0:0:0:0:
192,64,6700,1,8,0:0:0:0:
192,64,6950,1,0,0:0:0:0:
192,64,7200,1,0,0:0:0:0:
192,64,7325,1,8,0:0:0:0:
192,64,7450,1,0,0:0:0:0:
192,64,7700,1,8,0:0:0:0:
192,64,7825,1,8,0:0:0:0:
192,64,7950,1,0,0:0:0:0:
192,64,8200,1,8,0:0:0:0:
192,64,8325,1,0,0:0:0:0:
192,64,8450,1,8,0:0:0:0:
160,64,8575,1,0,0:0:0:0:
160,64,8700,1,8,0:0:0:0:
160,64,8762,1,8,0:0:0:0:
160,64,8825,1,0,0:0:0:0:
160,64,8950,1,8,0:0:0:0:
160,128,9200,5,4,0:0:0:0:
224,160,9325,1,0,0:0:0:0:
192,192,9450,1,8,0:0:0:0:
224,160,9700,1,0,0:0:0:0:
224,160,9825,1,8,0:0:0:0:
224,160,9950,1,0,0:0:0:0:
224,128,10012,1,0,0:0:0:0:
224,128,10075,1,0,0:0:0:0:
224,160,10200,1,8,0:0:0:0:
192,160,10450,1,0,0:0:0:0:
224,160,10700,1,8,0:0:0:0:
192,64,10825,1,0,0:0:0:0:
224,160,10950,1,8,0:0:0:0:
256,224,11200,5,0,0:0:0:0:
224,128,11325,1,0,0:0:0:0:
224,128,11450,1,8,0:0:0:0:
224,128,11575,1,0,0:0:0:0:
256,224,11700,1,8,0:0:0:0:
224,96,11762,1,0,0:0:0:0:
192,96,11825,1,8,0:0:0:0:
192,96,11950,1,8,0:0:0:0:
192,96,12075,1,0,0:0:0:0:
256,224,12200,1,8,0:0:0:0:
192,96,12262,1,8,0:0:0:0:
192,96,12325,1,0,0:0:0:0:
192,96,12450,1,8,0:0:0:0:
192,96,12575,1,0,0:0:0:0:
256,224,12700,1,8,0:0:0:0:
192,160,12762,1,8,0:0:0:0:
192,160,12825,1,8,0:0:0:0:
192,160,12887,1,8,0:0:0:0:
192,160,12950,1,0,0:0:0:0:
192,160,13012,1,0,0:0:0:0:
192,160,13075,1,0,0:0:0:0:
256,224,13200,5,4,0:0:0:0:
192,160,13325,1,0,0:0:0:0:
192,160,13450,1,8,0:0:0:0:
224,160,13575,1,0,0:0:0:0:
224,160,13700,1,8,0:0:0:0:
224,160,13762,1,0,0:0:0:0:
224,160,13825,1,8,0:0:0:0:
224,160,13950,1,0,0:0:0:0:
224,160,14075,1,8,0:0:0:0:
224,128,14200,1,0,0:0:0:0:
224,128,14262,1,0,0:0:0:0:
224,128,14325,1,0,0:0:0:0:
224,128,14450,1,8,0:0:0:0:
224,128,14575,1,0,0:0:0:0:
224,128,14700,1,8,0:0:0:0:
224,128,14762,1,8,0:0:0:0:
224,128,14825,1,0,0:0:0:0:
224,128,14950,1,8,0:0:0:0:
224,96,15075,1,8,0:0:0:0:
224,128,15200,1,0,0:0:0:0:
224,96,15325,1,8,0:0:0:0:
224,96,15387,1,8,0:0:0:0:
224,96,15450,1,0,0:0:0:0:
224,96,15575,1,0,0:0:0:0:
224,96,15700,1,8,0:0:0:0:
224,96,15762,1,0,0:0:0:0:
224,96,15825,1,8,0:0:0:0:
224,96,15950,1,0,0:0:0:0:
224,96,16075,1,0,0:0:0:0:
224,96,16200,1,8,0:0:0:0:
224,96,16450,1,8,0:0:0:0:
192,64,16575,1,0,0:0:0:0:
192,64,16700,1,8,0:0:0:0:
224,64,16762,1,0,0:0:0:0:
192,64,16825,1,0,0:0:0:0:
192,64,16950,1,8,0:0:0:0:
192,64,17075,1,0,0:0:0:0:
192,64,17200,5,12,0:0:0:0:
216,96,17325,1,0,0:0:0:0:
216,112,17387,1,0,0:0:0:0:
216,112,17450,1,0,0:0:0:0:
208,88,17575,1,8,0:0:0:0:
192,88,17700,1,0,0:0:0:0:
192,104,17825,1,0,0:0:0:0:
208,88,17950,1,8,0:0:0:0:
200,104,18012,1,8,0:0:0:0:
192,104,18075,1,0,0:0:0:0:
224,128,18200,1,0,0:0:0:0:
208,88,18325,1,8,0:0:0:0:
224,96,18450,1,0,0:0:0:0:
224,96,18512,1,8,0:0:0:0:
224,96,18575,1,0,0:0:0:0:
200,96,18700,1,8,0:0:0:0:
200,96,18762,1,0,0:0:0:0:
200,96,18825,1,8,0:0:0:0:
200,96,18887,1,8,0:0:0:0:
200,96,18950,1,0,0:0:0:0:
200,96,19075,1,0,0:0:0:0:
232,128,19200,5,8,0:0:0:0:
192,88,19262,1,8,0:0:0:0:
232,128,19325,1,0,0:0:0:0:
208,104,19450,1,8,0:0:0:0:
208,104,19575,1,0,0:0:0:0:
192,96,19637,1,0,0:0:0:0:
208,104,19700,1,8,0:0:0:0:
192,112,19762,1,0,0:0:0:0:
192,112,19825,1,8,0:0:0:0:
192,112,19950,1,0,0:0:0:0:
200,112,20075,1,0,0:0:0:0:
200,112,20200,1,8,0:0:0:0:
208,112,20262,1,0,0:0:0:0:
200,120,20325,1,8,0:0:0:0:
192,104,20450,1,0,0:0:0:0:
192,104,20575,1,0,0:0:0:0:
192,104,20637,1,0,0:0:0:0:
192,104,20700,1,8,0:0:0:0:
192,104,20762,1,8,0:0:0:0:
192,104,20825,1,0,0:0:0:0:
200,120,20950,1,8,0:0:0:0:
200,120,21075,1,0,0:0:0:0:
200,120,21200,5,12,0:0:0:0:
208,128,21450,1,8,0:0:0:0:
192,136,21700,1,0,0:0:0:0:
192,136,21825,1,0,0:0:0:0:
192,136,21950,1,8,0:0:0:0:
192,136,22200,1,8,0:0:0:0:
192,136,22450,1,0,0:0:0:0:
192,136,22700,1,8,0:0:0:0:
192,96,23200,1,12,0:0:0:0:
192,96,23325,1,12,0:0:0:0:
192,96,23450,1,0,0:0:0:0:
200,88,23512,1,0,0:0:0:0:
200,88,23575,1,0,0:0:0:0:
208,88,23700,1,8,0:0:0:0:
232,104,23825,1,8,0:0:0:0:
208,96,23950,1,0,0:0:0:0:
200,80,24012,1,0,0:0:0:0:
208,96,24075,1,8,0:0:0:0:
208,96,24200,1,0,0:0:0:0:
208,96,24325,1,8,0:0:0:0:
208,96,24450,1,0,0:0:0:0:
208,96,24700,1,8,0:0:0:0:
184,88,24762,1,8,0:0:0:0:
208,96,24825,1,0,0:0:0:0:
208,96,24950,1,8,0:0:0:0:
176,64,25075,1,8,0:0:0:0:
176,64,25137,1,8,0:0:0:0:
192,88,25200,5,0,0:0:0:0:
296,176,25450,1,0,0:0:0:0:
208,72,25700,1,8,0:0:0:0:
208,72,25825,1,0,0:0:0:0:
208,72,25950,1,8,0:0:0:0:
208,72,26075,1,0,0:0:0:0:
208,72,26200,1,8,0:0:0:0:
200,72,26450,1,0,0:0:0:0:
200,72,26575,1,8,0:0:0:0:
200,72,26825,1,0,0:0:0:0:
176,56,26950,1,8,0:0:0:0:
176,64,27075,1,8,0:0:0:0:
176,64,27200,1,0,0:0:0:0:
192,80,27450,1,0,0:0:0:0:
184,96,27700,1,8,0:0:0:0:
184,96,27825,1,0,0:0:0:0:
184,96,27950,1,0,0:0:0:0:
168,80,28200,1,8,0:0:0:0:
176,80,28450,1,0,0:0:0:0:
176,80,28575,1,8,0:0:0:0:
176,80,28825,1,0,0:0:0:0:
176,88,28950,1,8,0:0:0:0:
176,88,29200,5,0,0:0:0:0:
176,88,29450,1,8,0:0:0:0:
176,88,29575,1,0,0:0:0:0:
232,144,29700,1,8,0:0:0:0:
232,144,29950,1,0,0:0:0:0:
184,80,30200,1,8,0:0:0:0:
184,80,30325,1,0,0:0:0:0:
184,80,30575,1,8,0:0:0:0:
176,96,30825,1,0,0:0:0:0:
176,96,30950,1,8,0:0:0:0:
192,96,31200,1,0,0:0:0:0:
192,96,31450,1,8,0:0:0:0:
184,96,31575,1,8,0:0:0:0:
184,96,31700,1,0,0:0:0:0:
192,96,31950,1,0,0:0:0:0:
184,96,32200,1,8,0:0:0:0:
176,80,32325,1,8,0:0:0:0:
184,96,32450,1,0,0:0:0:0:
176,96,32575,1,8,0:0:0:0:
200,96,32825,1,0,0:0:0:0:
200,96,32950,1,0,0:0:0:0:
256,168,33200,5,0,0:0:0:0:
248,176,33325,1,8,0:0:0:0:
240,128,33387,1,8,0:0:0:0:
248,176,33450,1,0,0:0:0:0:
248,176,33575,1,0,0:0:0:0:
248,176,33700,1,8,0:0:0:0:
192,80,33825,1,8,0:0:0:0:
192,80,33950,1,0,0:0:0:0:
216,128,34200,1,8,0:0:0:0:
216,128,34262,1,8,0:0:0:0:
216,128,34325,1,8,0:0:0:0:
216,128,34387,1,8,0:0:0:0:
216,128,34450,1,0,0:0:0:0:
208,104,34575,1,0,0:0:0:0:
216,112,34700,1,8,0:0:0:0:
160,80,34825,1,0,0:0:0:0:
216,112,34950,1,8,0:0:0:0:
184,96,35200,1,0,0:0:0:0:
168,80,35262,1,8,0:0:0:0:
184,96,35325,1,0,0:0:0:0:
184,88,35450,1,8,0:0:0:0:
192,80,35575,1,0,0:0:0:0:
224,80,35700,1,8,0:0:0:0:
216,80,35825,1,8,0:0:0:0:
216,80,35950,1,0,0:0:0:0:
216,80,36200,1,8,0:0:0:0:
240,104,36262,1,8,0:0:0:0:
240,104,36325,1,8,0:0:0:0:
240,104,36387,1,8,0:0:0:0:
240,104,36450,1,0,0:0:0:0:
256,72,36575,1,0,0:0:0:0:
240,104,36700,1,8,0:0:0:0:
240,104,36825,1,0,0:0:0:0:
240,104,36887,1,0,0:0:0:0:
240,104,36950,1,8,0:0:0:0:
240,104,37075,1,8,0:0:0:0:
240,104,37200,5,4,0:0:0:0:
216,80,37450,1,8,0:0:0:0:
208,80,37575,1,0,0:0:0:0:
216,88,37700,1,8,0:0:0:0:
208,64,37762,1,8,0:0:0:0:
168,64,37825,1,0,0:0:0:0:
168,64,37950,1,8,0:0:0:0:
168,64,38075,1,8,0:0:0:0:
176,64,38200,1,0,0:0:0:0:
168,48,38262,1,0,0:0:0:0:
176,64,38325,1,8,0:0:0:0:
168,64,38450,1,0,0:0:0:0:
168,48,38575,1,0,0:0:0:0:
192,56,38700,1,8,0:0:0:0:
200,72,38762,1,8,0:0:0:0:
208,72,38825,1,0,0:0:0:0:
208,72,38950,1,8,0:0:0:0:
176,56,39200,1,8,0:0:0:0:
176,56,39262,1,0,0:0:0:0:
176,56,39325,1,8,0:0:0:0:
192,48,39450,1,0,0:0:0:0:
216,96,39575,1,0,0:0:0:0:
216,96,39637,1,0,0:0:0:0:
216,96,39700,1,8,0:0:0:0:
216,96,39825,1,0,0:0:0:0:
200,72,39950,1,8,0:0:0:0:
200,80,40075,1,0,0:0:0:0:
200,80,40200,1,8,0:0:0:0:
200,80,40262,1,8,0:0:0:0:
200,80,40325,1,0,0:0:0:0:
184,72,40450,1,8,0:0:0:0:
184,72,40575,1,0,0:0:0:0:
200,72,40700,1,8,0:0:0:0:
208,56,40762,1,0,0:0:0:0:
200,72,40825,1,8,0:0:0:0:
200,72,40950,1,0,0:0:0:0:
200,72,41012,1,0,0:0:0:0:
200,72,41075,1,0,0:0:0:0:
200,80,41137,1,0,0:0:0:0:
240,104,41200,5,8,0:0:0:0:
200,88,41325,1,0,0:0:0:0:
216,80,41450,1,8,0:0:0:0:
208,64,41512,1,8,0:0:0:0:
208,80,41575,1,0,0:0:0:0:
216,88,41700,1,8,0:0:0:0:
168,64,41825,1,0,0:0:0:0:
168,64,41950,1,8,0:0:0:0:
176,32,42012,1,0,0:0:0:0:
168,64,42075,1,8,0:0:0:0:
176,64,42200,1,8,0:0:0:0:
176,64,42325,1,0,0:0:0:0:
168,64,42450,1,8,0:0:0:0:
208,56,42512,1,8,0:0:0:0:
168,48,42575,1,0,0:0:0:0:
192,56,42700,1,8,0:0:0:0:
200,72,42762,1,8,0:0:0:0:
208,72,42825,1,0,0:0:0:0:
168,24,42887,1,0,0:0:0:0:
208,72,42950,1,8,0:0:0:0:
168,48,43075,1,8,0:0:0:0:
176,56,43200,5,0,0:0:0:0:
176,56,43325,1,8,0:0:0:0:
192,48,43450,1,0,0:0:0:0:
216,96,43512,1,8,0:0:0:0:
216,96,43575,1,0,0:0:0:0:
200,64,43637,1,0,0:0:0:0:
216,96,43700,1,8,0:0:0:0:
216,96,43825,1,0,0:0:0:0:
200,72,43950,1,8,0:0:0:0:
200,72,44012,1,0,0:0:0:0:
200,80,44075,5,0,0:0:0:0:
200,80,44200,1,8,0:0:0:0:
184,64,44262,1,8,0:0:0:0:
184,64,44325,1,0,0:0:0:0:
192,64,44387,1,8,0:0:0:0:
184,72,44450,1,0,0:0:0:0:
184,72,44575,1,0,0:0:0:0:
208,72,44700,1,8,0:0:0:0:
208,72,44762,1,0,0:0:0:0:
200,72,44825,1,0,0:0:0:0:
200,56,44887,1,0,0:0:0:0:
200,72,44950,1,8,0:0:0:0:
200,80,45075,1,8,0:0:0:0:
200,72,45200,5,4,0:0:0:0:
192,64,45325,1,0,0:0:0:0:
192,64,45450,1,8,0:0:0:0:
256,64,45700,1,8,0:0:0:0:
232,104,45825,1,0,0:0:0:0:
232,104,45950,1,8,0:0:0:0:
216,80,46075,1,8,0:0:0:0:
256,64,46200,1,0,0:0:0:0:
216,56,46262,1,0,0:0:0:0:
216,56,46325,1,0,0:0:0:0:
192,56,46450,1,8,0:0:0:0:
256,64,46575,1,0,0:0:0:0:
224,64,46825,1,8,0:0:0:0:
256,64,46950,1,0,0:0:0:0:
208,80,47075,1,0,0:0:0:0:
208,56,47200,1,8,0:0:0:0:
192,64,47325,1,8,0:0:0:0:
184,64,47450,1,0,0:0:0:0:
256,64,47700,1,8,0:0:0:0:
176,56,47825,1,0,0:0:0:0:
176,56,47950,1,8,0:0:0:0:
168,56,48075,1,8,0:0:0:0:
256,64,48200,1,0,0:0:0:0:
192,64,48262,1,0,0:0:0:0:
256,64,48325,1,0,0:0:0:0:
192,64,48450,1,8,0:0:0:0:
184,48,48575,1,0,0:0:0:0:
208,48,48700,1,8,0:0:0:0:
200,72,48762,1,8,0:0:0:0:
200,72,48825,1,0,0:0:0:0:
256,64,48950,1,8,0:0:0:0:
256,64,49200,5,0,0:0:0:0:
200,64,49450,1,8,0:0:0:0:
200,80,49575,1,8,0:0:0:0:
256,64,49700,1,0,0:0:0:0:
200,64,49825,1,8,0:0:0:0:
196,72,50075,1,8,0:0:0:0:
256,64,50200,1,0,0:0:0:0:
200,72,50450,1,0,0:0:0:0:
200,72,50575,1,8,0:0:0:0:
256,64,50700,1,0,0:0:0:0:
256,64,50950,1,0,0:0:0:0:
256,64,51200,5,12,0:0:0:0:
256,72,51450,1,0,0:0:0:0:
256,72,51512,1,0,0:0:0:0:
256,72,51575,1,0,0:0:0:0:
256,64,51700,1,12,0:0:0:0:
256,64,51950,1,8,0:0:0:0:
248,64,52012,1,0,0:0:0:0:
248,64,52075,1,0,0:0:0:0:
256,64,52200,1,12,0:0:0:0:
248,64,52450,1,8,0:0:0:0:
248,64,52512,1,8,0:0:0:0:
248,64,52575,1,0,0:0:0:0:
256,64,52700,1,12,0:0:0:0:
248,64,52950,1,0,0:0:0:0:
248,64,53012,1,0,0:0:0:0:
248,64,53075,1,8,0:0:0:0:
256,192,53200,12,0,54200,0:0:0:0:
256,160,54700,5,0,0:0:0:0:
256,160,54762,1,0,0:0:0:0:
192,96,54825,1,8,0:0:0:0:
192,96,54887,1,8,0:0:0:0:
192,96,54950,1,0,0:0:0:0:
192,96,55012,1,0,0:0:0:0:
192,96,55075,1,8,0:0:0:0:
256,64,55200,5,4,0:0:0:0:
224,96,55325,1,8,0:0:0:0:
224,96,55387,1,8,0:0:0:0:
256,64,55450,1,0,0:0:0:0:
192,64,55512,1,8,0:0:0:0:
224,96,55575,1,0,0:0:0:0:
256,64,55700,1,8,0:0:0:0:
224,96,55825,1,0,0:0:0:0:
256,96,55887,1,0,0:0:0:0:
256,64,55950,1,8,0:0:0:0:
224,64,56075,1,0,0:0:0:0:
256,64,56200,1,8,0:0:0:0:
256,64,56325,1,8,0:0:0:0:
256,64,56387,1,0,0:0:0:0:
256,64,56450,1,8,0:0:0:0:
256,64,56512,1,0,0:0:0:0:
256,64,56575,1,0,0:0:0:0:
256,64,56700,1,8,0:0:0:0:
256,64,56825,1,0,0:0:0:0:
224,96,56887,1,0,0:0:0:0:
256,64,56950,1,8,0:0:0:0:
224,96,57075,1,0,0:0:0:0:
256,64,57200,1,0,0:0:0:0:
224,96,57262,1,8,0:0:0:0:
224,96,57325,1,0,0:0:0:0:
224,96,57387,1,0,0:0:0:0:
224,96,57450,1,8,0:0:0:0:
224,96,57575,1,0,0:0:0:0:
224,96,57700,1,8,0:0:0:0:
224,64,57762,1,8,0:0:0:0:
224,64,57825,1,0,0:0:0:0:
224,64,57887,1,8,0:0:0:0:
256,64,57950,1,8,0:0:0:0:
192,64,58012,1,0,0:0:0:0:
224,64,58075,1,0,0:0:0:0:
224,64,58137,1,0,0:0:0:0:
256,64,58200,1,8,0:0:0:0:
224,64,58450,1,8,0:0:0:0:
224,64,58512,1,0,0:0:0:0:
224,64,58575,1,0,0:0:0:0:
224,64,58637,1,0,0:0:0:0:
224,64,58700,1,8,0:0:0:0:
256,96,58825,1,8,0:0:0:0:
256,64,58950,1,0,0:0:0:0:
224,96,59012,1,0,0:0:0:0:
224,96,59075,1,0,0:0:0:0:
256,64,59200,5,12,0:0:0:0:
224,96,59325,1,0,0:0:0:0:
224,96,59387,1,0,0:0:0:0:
256,64,59450,1,8,0:0:0:0:
224,96,59575,1,0,0:0:0:0:
256,64,59700,1,8,0:0:0:0:
224,96,59762,1,8,0:0:0:0:
224,96,59825,1,0,0:0:0:0:
224,96,59887,1,0,0:0:0:0:
256,64,59950,1,8,0:0:0:0:
224,96,60012,1,0,0:0:0:0:
224,96,60075,1,8,0:0:0:0:
256,64,60200,1,0,0:0:0:0:
224,96,60262,1,0,0:0:0:0:
256,128,60325,1,0,0:0:0:0:
256,128,60450,1,8,0:0:0:0:
256,64,60700,1,8,0:0:0:0:
224,128,60762,1,8,0:0:0:0:
224,128,60825,1,0,0:0:0:0:
256,64,60950,1,8,0:0:0:0:
224,64,61075,1,0,0:0:0:0:
256,64,61200,1,8,0:0:0:0:
256,96,61262,1,8,0:0:0:0:
256,96,61325,1,8,0:0:0:0:
256,96,61387,1,0,0:0:0:0:
256,64,61450,1,8,0:0:0:0:
224,96,61512,1,8,0:0:0:0:
224,96,61575,1,0,0:0:0:0:
224,96,61637,1,0,0:0:0:0:
256,64,61700,1,0,0:0:0:0:
192,64,61762,1,8,0:0:0:0:
192,64,61825,1,0,0:0:0:0:
192,64,61887,1,0,0:0:0:0:
256,64,61950,1,8,0:0:0:0:
224,64,62075,1,0,0:0:0:0:
256,64,62200,1,8,0:0:0:0:
224,128,62262,1,8,0:0:0:0:
224,128,62325,1,0,0:0:0:0:
224,128,62387,1,0,0:0:0:0:
224,128,62450,1,8,0:0:0:0:
224,128,62512,1,0,0:0:0:0:
224,128,62575,1,8,0:0:0:0:
224,128,62637,1,8,0:0:0:0:
256,64,62700,1,0,0:0:0:0:
224,128,62762,1,8,0:0:0:0:
224,128,62825,1,8,0:0:0:0:
224,128,62887,1,8,0:0:0:0:
224,128,62950,1,0,0:0:0:0:
224,128,63012,1,0,0:0:0:0:
224,128,63075,1,8,0:0:0:0:
256,64,63200,5,4,0:0:0:0:
224,96,63325,1,8,0:0:0:0:
224,96,63387,1,8,0:0:0:0:
256,64,63450,1,0,0:0:0:0:
224,96,63575,1,0,0:0:0:0:
192,64,63637,1,0,0:0:0:0:
256,64,63700,1,8,0:0:0:0:
256,96,63762,1,0,0:0:0:0:
224,96,63825,1,8,0:0:0:0:
256,64,63950,1,8,0:0:0:0:
224,64,64075,1,0,0:0:0:0:
256,64,64137,1,0,0:0:0:0:
256,64,64200,1,8,0:0:0:0:
256,64,64325,1,8,0:0:0:0:
256,64,64387,1,0,0:0:0:0:
256,64,64450,1,8,0:0:0:0:
256,64,64575,1,0,0:0:0:0:
256,64,64637,1,0,0:0:0:0:
256,64,64700,1,8,0:0:0:0:
256,64,64762,1,8,0:0:0:0:
224,96,64825,1,0,0:0:0:0:
256,64,64950,1,8,0:0:0:0:
224,96,65075,1,0,0:0:0:0:
256,64,65200,1,0,0:0:0:0:
224,96,65262,1,8,0:0:0:0:
224,96,65325,1,0,0:0:0:0:
224,96,65450,1,8,0:0:0:0:
224,96,65512,1,0,0:0:0:0:
224,96,65637,1,0,0:0:0:0:
224,96,65700,1,8,0:0:0:0:
224,64,65762,1,8,0:0:0:0:
224,64,65825,1,0,0:0:0:0:
256,64,65950,1,8,0:0:0:0:
192,64,66012,1,8,0:0:0:0:
224,64,66075,1,0,0:0:0:0:
224,64,66137,1,0,0:0:0:0:
256,64,66200,1,8,0:0:0:0:
224,64,66450,1,8,0:0:0:0:
224,64,66512,1,0,0:0:0:0:
224,64,66575,1,0,0:0:0:0:
224,64,66637,1,0,0:0:0:0:
224,64,66700,1,8,0:0:0:0:
256,96,66825,1,8,0:0:0:0:
256,64,66950,1,0,0:0:0:0:
224,96,67012,1,0,0:0:0:0:
224,96,67075,1,0,0:0:0:0:
256,64,67200,5,12,0:0:0:0:
224,96,67325,1,0,0:0:0:0:
224,96,67387,1,0,0:0:0:0:
256,64,67450,1,8,0:0:0:0:
224,96,67575,1,0,0:0:0:0:
256,64,67700,1,8,0:0:0:0:
224,96,67762,1,8,0:0:0:0:
224,96,67825,1,0,0:0:0:0:
224,96,67887,1,0,0:0:0:0:
256,64,67950,1,8,0:0:0:0:
224,96,68012,1,0,0:0:0:0:
224,96,68075,1,8,0:0:0:0:
256,64,68200,1,0,0:0:0:0:
224,96,68262,1,0,0:0:0:0:
256,128,68325,1,0,0:0:0:0:
256,128,68450,1,8,0:0:0:0:
256,64,68700,1,8,0:0:0:0:
256,128,68762,1,8,0:0:0:0:
256,128,68825,1,0,0:0:0:0:
256,128,68950,1,8,0:0:0:0:
256,128,69075,1,0,0:0:0:0:
256,96,69200,1,8,0:0:0:0:
192,64,69262,1,8,0:0:0:0:
224,96,69325,1,0,0:0:0:0:
224,96,69387,1,0,0:0:0:0:
224,96,69450,1,8,0:0:0:0:
224,64,69512,1,0,0:0:0:0:
224,64,69575,1,0,0:0:0:0:
224,64,69637,1,8,0:0:0:0:
224,64,69700,1,0,0:0:0:0:
192,64,69762,1,8,0:0:0:0:
192,64,69825,1,8,0:0:0:0:
192,64,69887,1,0,0:0:0:0:
192,64,69950,1,8,0:0:0:0:
192,64,70075,1,0,0:0:0:0:
224,96,70200,1,8,0:0:0:0:
192,64,70262,1,0,0:0:0:0:
192,64,70325,1,0,0:0:0:0:
192,64,70387,1,0,0:0:0:0:
224,64,70450,1,8,0:0:0:0:
224,64,70512,1,8,0:0:0:0:
224,64,70575,1,0,0:0:0:0:
224,64,70637,1,0,0:0:0:0:
224,128,70700,1,8,0:0:0:0:
256,160,70825,1,0,0:0:0:0:
256,96,70950,1,0,0:0:0:0:
256,160,71200,5,12,0:0:0:0:
224,128,71700,1,0,0:0:0:0:
224,128,71950,1,0,0:0:0:0:
224,96,72200,1,8,0:0:0:0:
224,96,72325,1,8,0:0:0:0:
224,96,72450,1,0,0:0:0:0:
224,96,72700,1,8,0:0:0:0:
224,96,72950,1,0,0:0:0:0:
224,96,73200,1,12,0:0:0:0:
224,64,73450,1,0,0:0:0:0:
224,64,73700,1,8,0:0:0:0:
224,64,73950,1,8,0:0:0:0:
192,64,74200,1,0,0:0:0:0:
192,64,74325,1,8,0:0:0:0:
192,64,74450,1,0,0:0:0:0:
192,64,74575,1,0,0:0:0:0:
192,64,74700,1,8,0:0:0:0:
192,64,74825,1,0,0:0:0:0:
192,64,74950,1,8,0:0:0:0:
192,64,75012,1,8,0:0:0:0:
192,64,75075,1,0,0:0:0:0:
256,192,75200,5,12,0:0:0:0:
224,128,75325,1,0,0:0:0:0:
256,160,75387,1,0,0:0:0:0:
224,128,75450,1,8,0:0:0:0:
192,128,75512,1,8,0:0:0:0:
192,128,75575,1,0,0:0:0:0:
224,96,75700,1,8,0:0:0:0:
224,96,75762,1,0,0:0:0:0:
224,96,75825,1,0,0:0:0:0:
224,96,75950,1,8,0:0:0:0:
224,96,76075,1,0,0:0:0:0:
224,96,76200,1,8,0:0:0:0:
192,64,76262,1,0,0:0:0:0:
224,96,76325,1,0,0:0:0:0:
224,96,76387,1,0,0:0:0:0:
224,96,76450,1,8,0:0:0:0:
224,96,76575,1,0,0:0:0:0:
224,96,76700,1,8,0:0:0:0:
224,96,76762,1,8,0:0:0:0:
224,96,76825,1,0,0:0:0:0:
224,96,76950,1,8,0:0:0:0:
224,96,77075,1,0,0:0:0:0:
192,96,77200,5,0,0:0:0:0:
224,96,77262,1,0,0:0:0:0:
192,96,77325,1,8,0:0:0:0:
192,96,77387,1,8,0:0:0:0:
192,96,77450,1,0,0:0:0:0:
192,96,77575,1,0,0:0:0:0:
192,96,77700,1,8,0:0:0:0:
192,96,77762,1,8,0:0:0:0:
192,96,77825,1,0,0:0:0:0:
192,96,77887,1,0,0:0:0:0:
192,96,77950,1,8,0:0:0:0:
192,96,78075,1,0,0:0:0:0:
192,96,78200,5,8,0:0:0:0:
192,96,78262,1,0,0:0:0:0:
192,96,78325,1,8,0:0:0:0:
192,96,78387,1,8,0:0:0:0:
192,96,78450,1,0,0:0:0:0:
192,96,78575,1,8,0:0:0:0:
192,96,78700,1,0,0:0:0:0:
192,96,78762,1,8,0:0:0:0:
192,96,78825,1,0,0:0:0:0:
192,96,78887,1,0,0:0:0:0:
192,64,78950,1,8,0:0:0:0:
192,64,79075,1,8,0:0:0:0:
192,96,79200,1,0,0:0:0:0:
192,64,79262,1,0,0:0:0:0:
192,64,79325,1,0,0:0:0:0:
192,64,79450,1,12,0:0:0:0:
192,96,79575,1,8,0:0:0:0:
192,96,79637,1,0,0:0:0:0:
192,64,79700,1,8,0:0:0:0:
192,64,79762,1,0,0:0:0:0:
192,64,79825,1,0,0:0:0:0:
192,64,79887,1,8,0:0:0:0:
192,64,79950,1,8,0:0:0:0:
192,64,80012,1,8,0:0:0:0:
192,64,80075,1,0,0:0:0:0:
192,64,80137,1,8,0:0:0:0:
192,64,80200,1,0,0:0:0:0:
192,64,80262,1,0,0:0:0:0:
192,64,80325,1,8,0:0:0:0:
192,64,80387,1,0,0:0:0:0:
192,64,80450,1,0,0:0:0:0:
192,64,80512,1,8,0:0:0:0:
192,64,80575,1,8,0:0:0:0:
192,64,80637,1,0,0:0:0:0:
192,96,80700,1,8,0:0:0:0:
240,104,81200,5,4,0:0:0:0:
216,80,81450,1,8,0:0:0:0:
208,64,81512,1,8,0:0:0:0:
208,80,81575,1,0,0:0:0:0:
216,88,81700,1,8,0:0:0:0:
168,64,81825,1,0,0:0:0:0:
200,40,81887,1,0,0:0:0:0:
168,64,81950,1,8,0:0:0:0:
176,32,82012,1,0,0:0:0:0:
168,64,82075,1,8,0:0:0:0:
176,64,82200,1,8,0:0:0:0:
176,64,82325,1,0,0:0:0:0:
168,64,82450,1,8,0:0:0:0:
208,56,82512,1,8,0:0:0:0:
168,48,82575,1,0,0:0:0:0:
192,56,82700,1,8,0:0:0:0:
200,72,82762,1,8,0:0:0:0:
208,72,82825,1,0,0:0:0:0:
168,24,82887,1,0,0:0:0:0:
208,72,82950,1,8,0:0:0:0:
168,48,83075,1,8,0:0:0:0:
176,56,83200,5,0,0:0:0:0:
176,56,83325,1,8,0:0:0:0:
192,48,83450,1,0,0:0:0:0:
216,96,83512,1,8,0:0:0:0:
216,96,83575,1,0,0:0:0:0:
200,64,83637,1,0,0:0:0:0:
216,96,83700,1,8,0:0:0:0:
216,96,83825,1,0,0:0:0:0:
200,72,83950,1,8,0:0:0:0:
200,72,84012,1,0,0:0:0:0:
200,80,84075,5,0,0:0:0:0:
200,80,84200,1,8,0:0:0:0:
184,64,84262,1,8,0:0:0:0:
184,64,84325,1,0,0:0:0:0:
192,64,84387,1,8,0:0:0:0:
184,72,84450,1,0,0:0:0:0:
184,72,84575,1,0,0:0:0:0:
208,72,84700,1,8,0:0:0:0:
208,72,84762,1,0,0:0:0:0:
200,72,84825,1,0,0:0:0:0:
200,56,84887,1,0,0:0:0:0:
200,72,84950,1,8,0:0:0:0:
200,80,85075,1,8,0:0:0:0:
200,72,85200,5,4,0:0:0:0:
216,80,85450,1,8,0:0:0:0:
216,88,85700,1,8,0:0:0:0:
208,64,85762,1,8,0:0:0:0:
168,64,85825,1,0,0:0:0:0:
168,64,85950,1,8,0:0:0:0:
168,64,86075,1,0,0:0:0:0:
176,64,86200,1,8,0:0:0:0:
168,48,86262,1,0,0:0:0:0:
176,64,86325,1,8,0:0:0:0:
168,64,86450,1,0,0:0:0:0:
168,48,86575,1,0,0:0:0:0:
192,56,86700,1,8,0:0:0:0:
200,72,86762,1,8,0:0:0:0:
208,72,86825,1,0,0:0:0:0:
176,72,86887,1,0,0:0:0:0:
208,72,86950,1,8,0:0:0:0:
176,56,87200,1,8,0:0:0:0:
176,56,87262,1,0,0:0:0:0:
176,56,87325,1,8,0:0:0:0:
192,48,87450,1,0,0:0:0:0:
216,96,87575,1,0,0:0:0:0:
216,96,87637,1,0,0:0:0:0:
216,96,87700,1,8,0:0:0:0:
216,96,87825,1,0,0:0:0:0:
200,72,87950,1,8,0:0:0:0:
200,80,88075,1,0,0:0:0:0:
200,80,88200,1,8,0:0:0:0:
200,80,88262,1,8,0:0:0:0:
200,80,88325,1,0,0:0:0:0:
208,80,88387,1,0,0:0:0:0:
184,72,88450,1,8,0:0:0:0:
184,72,88575,1,0,0:0:0:0:
200,72,88700,1,8,0:0:0:0:
208,56,88762,1,0,0:0:0:0:
200,72,88825,1,8,0:0:0:0:
208,72,88887,1,8,0:0:0:0:
152,32,88950,1,0,0:0:0:0:
216,64,89075,1,0,0:0:0:0:
