osu file format v14

[General]
AudioFilename: audio.mp3
AudioLeadIn: 0
PreviewTime: 55213
Countdown: 0
SampleSet: Normal
StackLeniency: 0.7
Mode: 1
LetterboxInBreaks: 0
WidescreenStoryboard: 0

[Editor]
Bookmarks: 11213,21213,37213,79213
DistanceSpacing: 1.3
BeatDivisor: 1
GridSize: 8
TimelineZoom: 1.449999

[Metadata]
Title:Los! Los! Los! (TV size)
TitleUnicode:Los! Los! Los! (TV size)
Artist:Tanya Degurechaff (CV: Yuki Aoi)
ArtistUnicode:ターニャ・デグレチャフ(CV:悠木碧)
Creator:Skylish
Version:Kantan
Source:幼女戦記
Tags:Youjo Senki Saga of Tanya the Evil ED Ending TV Size Yuuki losloslos
BeatmapID:1608426
BeatmapSetID:760533

[Difficulty]
HPDrainRate:7
CircleSize:5
OverallDifficulty:3
ApproachRate:5
SliderMultiplier:1.2
SliderTickRate:1

[Events]
//Background and Video events
0,0,"798064.png",0,40
//Break Periods
//Storyboard Layer 0 (Background)
//Storyboard Layer 1 (Fail)
//Storyboard Layer 2 (Pass)
//Storyboard Layer 3 (Foreground)
//Storyboard Layer 4 (Overlay)
//Storyboard Sound Samples

[TimingPoints]
1200,250,4,1,0,85,1,0
53137,-100,4,1,0,40,0,0
55200,-100,4,1,0,100,0,1
71200,-100,4,1,0,85,0,0
75200,-100,4,1,0,100,0,1
81200,-100,4,1,0,85,0,0

[HitObjects]
208,192,1200,5,4,0:0:0:0:
192,160,3200,1,4,0:0:0:0:
192,160,5200,5,4,0:0:0:0:
192,160,6200,1,0,0:0:0:0:
192,160,6700,1,8,0:0:0:0:
192,160,7200,1,0,0:0:0:0:
192,160,8200,1,8,0:0:0:0:
192,160,8700,1,8,0:0:0:0:
168,160,9200,5,4,0:0:0:0:
192,168,10200,1,0,0:0:0:0:
192,168,10700,1,8,0:0:0:0:
192,168,11200,1,0,0:0:0:0:
192,168,12200,1,8,0:0:0:0:
192,168,12700,1,8,0:0:0:0:
192,168,13200,5,4,0:0:0:0:
176,144,14200,1,0,0:0:0:0:
176,144,14700,1,8,0:0:0:0:
176,144,15200,1,0,0:0:0:0:
176,144,15700,1,0,0:0:0:0:
176,144,16200,1,8,0:0:0:0:
176,144,17200,1,12,0:0:0:0:
176,144,18200,1,8,0:0:0:0:
176,144,18700,1,0,0:0:0:0:
176,144,18950,1,0,0:0:0:0:
176,144,19200,1,8,0:0:0:0:
184,120,19700,1,0,0:0:0:0:
176,144,20200,1,8,0:0:0:0:
176,144,20700,1,8,0:0:0:0:
176,144,21200,1,0,0:0:0:0:
192,136,22200,1,0,0:0:0:0:
192,136,22700,1,8,0:0:0:0:
192,136,23200,1,0,0:0:0:0:
192,136,23700,1,0,0:0:0:0:
192,136,24200,1,8,0:0:0:0:
192,136,24450,1,0,0:0:0:0:
192,136,24700,1,8,0:0:0:0:
192,136,25200,5,0,0:0:0:0:
192,136,26200,1,0,0:0:0:0:
192,136,26575,1,0,0:0:0:0:
192,136,27200,1,0,0:0:0:0:
192,136,28200,1,8,0:0:0:0:
192,136,28575,1,8,0:0:0:0:
192,136,29200,1,0,0:0:0:0:
192,112,30200,1,8,0:0:0:0:
192,112,30575,1,8,0:0:0:0:
192,112,31200,1,0,0:0:0:0:
192,112,31700,1,0,0:0:0:0:
192,112,32200,1,8,0:0:0:0:
192,112,32575,1,8,0:0:0:0:
192,112,33200,1,0,0:0:0:0:
208,128,34200,1,8,0:0:0:0:
208,128,34700,1,8,0:0:0:0:
208,128,35200,1,0,0:0:0:0:
208,128,36200,1,8,0:0:0:0:
208,128,36700,1,8,0:0:0:0:
208,128,37200,5,4,0:0:0:0:
208,128,37700,1,0,0:0:0:0:
208,128,38200,1,8,0:0:0:0:
208,128,38450,1,0,0:0:0:0:
200,96,38700,1,8,0:0:0:0:
200,96,39200,1,0,0:0:0:0:
200,96,39700,1,0,0:0:0:0:
200,96,40200,1,8,0:0:0:0:
200,96,40450,1,8,0:0:0:0:
200,96,40700,1,8,0:0:0:0:
240,184,41200,5,0,0:0:0:0:
240,184,41700,1,8,0:0:0:0:
240,184,42200,1,8,0:0:0:0:
136,64,42450,1,0,0:0:0:0:
240,184,42700,1,8,0:0:0:0:
240,184,43200,1,0,0:0:0:0:
240,184,43700,1,8,0:0:0:0:
240,184,44200,1,0,0:0:0:0:
240,184,44450,1,0,0:0:0:0:
240,184,44700,1,8,0:0:0:0:
216,160,45200,5,4,0:0:0:0:
216,160,46200,1,0,0:0:0:0:
216,160,46700,1,8,0:0:0:0:
216,160,47200,1,0,0:0:0:0:
216,160,48200,1,8,0:0:0:0:
216,160,48700,1,0,0:0:0:0:
216,160,48950,1,0,0:0:0:0:
216,160,49200,1,8,0:0:0:0:
216,160,49700,1,0,0:0:0:0:
216,160,50200,1,8,0:0:0:0:
216,160,50700,1,8,0:0:0:0:
216,160,51200,1,4,0:0:0:0:
216,160,51700,1,4,0:0:0:0:
216,160,52200,1,4,0:0:0:0:
216,160,52700,1,4,0:0:0:0:
256,192,53200,12,0,54200,0:0:0:0:
216,168,55200,5,4,0:0:0:0:
296,176,55700,1,0,0:0:0:0:
296,176,56200,1,8,0:0:0:0:
160,216,56450,1,0,0:0:0:0:
296,176,56700,1,8,0:0:0:0:
296,176,57200,1,0,0:0:0:0:
8,152,57700,1,0,0:0:0:0:
296,176,58200,1,8,0:0:0:0:
296,176,59200,1,8,0:0:0:0:
296,176,59700,1,8,0:0:0:0:
296,176,59950,1,8,0:0:0:0:
136,24,60200,1,0,0:0:0:0:
296,176,60700,1,8,0:0:0:0:
296,176,61200,1,0,0:0:0:0:
48,32,61700,1,0,0:0:0:0:
208,88,61950,1,0,0:0:0:0:
296,176,62200,1,8,0:0:0:0:
296,176,62700,1,8,0:0:0:0:
216,168,63200,5,4,0:0:0:0:
296,176,63700,1,0,0:0:0:0:
296,176,64200,1,8,0:0:0:0:
160,216,64450,1,0,0:0:0:0:
296,176,64700,1,8,0:0:0:0:
296,176,65200,1,0,0:0:0:0:
216,48,65700,1,8,0:0:0:0:
296,176,66200,1,8,0:0:0:0:
296,176,67200,1,8,0:0:0:0:
296,176,67700,1,8,0:0:0:0:
296,176,67950,1,8,0:0:0:0:
136,24,68200,1,0,0:0:0:0:
296,176,68700,1,0,0:0:0:0:
296,176,69200,1,8,0:0:0:0:
296,176,69700,1,0,0:0:0:0:
208,88,69950,1,0,0:0:0:0:
296,176,70200,1,8,0:0:0:0:
296,176,70700,1,0,0:0:0:0:
224,104,71200,5,12,0:0:0:0:
224,104,71700,1,8,0:0:0:0:
224,128,72200,1,0,0:0:0:0:
224,128,73200,1,8,0:0:0:0:
224,128,73700,1,0,0:0:0:0:
224,128,74200,1,8,0:0:0:0:
224,128,74700,1,0,0:0:0:0:
224,128,75200,5,12,0:0:0:0:
224,128,76200,1,8,0:0:0:0:
224,128,76700,1,8,0:0:0:0:
224,128,77200,1,0,0:0:0:0:
224,128,77700,1,8,0:0:0:0:
224,128,78200,1,0,0:0:0:0:
224,128,78700,1,8,0:0:0:0:
224,128,79200,1,0,0:0:0:0:
256,192,79450,12,0,80700,0:0:0:0:
208,128,81200,5,4,0:0:0:0:
208,128,81700,1,0,0:0:0:0:
208,128,82200,1,8,0:0:0:0:
208,128,82450,1,0,0:0:0:0:
200,96,82700,1,8,0:0:0:0:
200,96,83200,1,0,0:0:0:0:
200,96,83700,1,0,0:0:0:0:
200,96,84200,1,8,0:0:0:0:
200,96,84450,1,8,0:0:0:0:
200,96,84700,1,8,0:0:0:0:
240,184,85200,5,0,0:0:0:0:
240,184,85700,1,8,0:0:0:0:
240,184,86200,1,8,0:0:0:0:
136,64,86450,1,0,0:0:0:0:
240,184,86700,1,8,0:0:0:0:
240,184,87200,1,0,0:0:0:0:
240,184,87700,1,8,0:0:0:0:
240,184,88200,1,8,0:0:0:0:
240,184,88450,1,8,0:0:0:0:
240,184,88700,1,0,0:0:0:0:
240,184,88950,1,0,0:0:0:0:
