osu file format v14

[General]
AudioFilename: audio.mp3
AudioLeadIn: 0
PreviewTime: 55087
Countdown: 0
SampleSet: Normal
StackLeniency: 0.7
Mode: 0
LetterboxInBreaks: 0
WidescreenStoryboard: 1

[Editor]
Bookmarks: 1212,5212,13212,21212,25212,33212,37212,45212,49212,55212,63212,71149,75212,81212,85212,88962
DistanceSpacing: 1.35
BeatDivisor: 4
GridSize: 32
TimelineZoom: 2.799999

[Metadata]
Title:Los! Los! Los!
TitleUnicode:Los! Los! Los!
Artist:Tanya Degurechaff (CV: Yuki Aoi)
ArtistUnicode:ターニャ・デグレチャフ(CV:悠木碧)
Creator:Milan-
Version:Hard
Source:幼女戦記
Tags:appleeaterx pishifat Youjo Senki Saga of Tanya the Evil ED ending TV Size yuuki losloslos
BeatmapID:1324812
BeatmapSetID:625302

[Difficulty]
HPDrainRate:4
CircleSize:3.4
OverallDifficulty:5
ApproachRate:7.5
SliderMultiplier:1.3
SliderTickRate:1

[Events]
//Background and Video events
0,0,"bhg.jpg",0,0
//Break Periods
//Storyboard Layer 0 (Background)
//Storyboard Layer 1 (Fail)
//Storyboard Layer 2 (Pass)
//Storyboard Layer 3 (Foreground)
//Storyboard Sound Samples

[TimingPoints]
1212,250,4,2,1,40,1,0
1212,-125,4,2,1,40,0,0
4837,-100,4,2,1,60,0,0
5212,-100,4,1,1,50,0,0
5312,-166.666666666667,4,1,1,50,0,0
7212,-100,4,1,1,50,0,0
7312,-166.666666666667,4,1,1,50,0,0
9212,-100,4,1,1,60,0,0
9312,-166.666666666667,4,1,1,60,0,0
11212,-125,4,1,1,40,0,0
11462,-125,4,1,1,45,0,0
11712,-125,4,1,1,50,0,0
11962,-125,4,1,1,55,0,0
12212,-125,4,1,1,60,0,0
12462,-125,4,1,1,65,0,0
12712,-125,4,1,1,70,0,0
13024,-125,4,1,1,60,0,0
13087,-125,4,1,1,50,0,0
13212,-100,4,1,1,75,0,0
17462,-100,4,1,1,55,0,0
17587,-100,4,1,1,75,0,0
17774,-100,4,1,1,55,0,0
17899,-100,4,1,1,75,0,0
18024,-100,4,1,1,55,0,0
18149,-100,4,1,1,75,0,0
18524,-100,4,1,1,55,0,0
18649,-100,4,1,1,75,0,0
18774,-100,4,1,1,55,0,0
18899,-100,4,1,1,75,0,0
19024,-100,4,1,1,55,0,0
19149,-100,4,1,1,75,0,0
19587,-100,4,1,1,90,0,0
19712,-100,4,1,1,75,0,0
20587,-100,4,1,1,90,0,0
20712,-100,4,1,1,75,0,0
21212,-100,4,1,1,60,0,0
21274,-166.666666666667,4,1,1,60,0,0
23212,-125,4,1,1,60,0,0
25212,-166.666666666667,4,1,1,60,0,0
33212,-200,4,1,1,60,0,0
36587,-200,4,1,1,45,0,0
36712,-125,4,1,1,60,0,0
37212,-100,4,1,1,70,0,0
41212,-125,4,1,1,70,0,0
45212,-100,4,1,1,70,0,0
49212,-125,4,1,1,70,0,0
54712,-100,4,2,1,40,0,0
54962,-100,4,2,1,50,0,0
55212,-90.9090909090909,4,1,1,80,0,1
57087,-90.9090909090909,4,1,1,60,0,1
57212,-90.9090909090909,4,1,1,80,0,1
58837,-90.9090909090909,4,1,1,60,0,1
58962,-90.9090909090909,4,1,1,80,0,1
62274,-90.9090909090909,4,1,1,60,0,1
62462,-90.9090909090909,4,1,1,80,0,1
62524,-90.9090909090909,4,1,1,60,0,1
62712,-90.9090909090909,4,1,1,80,0,1
62774,-90.9090909090909,4,1,1,60,0,1
62962,-90.9090909090909,4,1,1,80,0,1
63024,-90.9090909090909,4,1,1,60,0,1
63087,-90.9090909090909,4,1,1,80,0,1
63149,-90.9090909090909,4,1,1,60,0,0
63212,-90.9090909090909,4,1,1,80,0,1
65087,-90.9090909090909,4,1,1,60,0,1
65212,-90.9090909090909,4,1,1,80,0,1
66837,-90.9090909090909,4,1,1,60,0,1
66962,-90.9090909090909,4,1,1,80,0,1
71212,-125,4,1,1,80,0,0
74962,-100,4,1,1,60,0,0
75212,-100,4,1,1,80,0,1
77024,-100,4,1,1,50,0,1
77212,-100,4,1,1,80,0,1
79212,-100,4,1,1,70,0,1
80024,-100,4,1,1,50,0,1
80212,-100,4,1,1,70,0,1
80274,-100,4,1,1,50,0,1
80462,-100,4,1,1,70,0,1
80524,-100,4,1,1,50,0,1
80712,-100,4,1,1,60,0,1
81149,-100,4,1,1,5,0,1
81212,-100,4,1,1,80,0,0
85212,-125,4,1,1,80,0,0
88712,-100,4,1,1,80,0,0
89024,-100,4,1,1,5,0,0

[Colours]
Combo1 : 217,213,253
Combo2 : 112,146,186
Combo3 : 167,243,236
Combo4 : 198,151,104

[HitObjects]
316,150,1212,6,0,L|430:156,2,104,4|0|2,0:3|0:0|0:0,0:0:0:0:
316,150,1962,1,2,0:0:0:0:
184,0,2212,2,0,P|211:71|209:105,1,104,0|0,0:0|0:0,0:0:0:0:
193,308,2712,2,0,P|196:256|219:210,1,104,2|2,0:0|0:0,0:0:0:0:
219,210,3212,6,0,L|105:216,2,104,4|0|2,0:3|0:0|0:0,0:0:0:0:
34,171,3962,1,2,0:0:0:0:
302,287,4212,1,2,0:0:0:0:
302,287,4462,1,2,0:0:0:0:
114,123,4712,1,2,0:0:0:0:
114,123,4962,1,2,0:0:0:0:
375,358,5212,6,0,B|398:297|398:297|382:234,1,130,4|0,0:3|0:0,0:0:0:0:
365,48,5712,2,0,L|389:137,1,77.999997619629,2|2,0:2|0:2,0:0:0:0:
302,287,6212,2,0,L|281:211,1,77.999997619629,0|0,0:0|0:0,0:0:0:0:
136,92,6712,2,0,L|160:181,1,77.999997619629,2|2,0:2|0:2,0:0:0:0:
156,167,7212,6,0,B|92:157|92:157|14:185,1,130,4|0,0:3|0:0,0:0:0:0:
230,318,7712,2,0,L|310:283,1,77.999997619629,2|2,0:2|0:2,0:0:0:0:
84,255,8212,2,0,L|12:286,1,77.999997619629,0|0,0:0|0:0,0:0:0:0:
333,202,8712,2,0,P|382:229|397:255,1,77.999997619629,2|2,0:2|0:3,0:0:0:0:
393,246,9212,6,0,B|385:182|385:182|415:111,1,130,12|8,0:0|0:0,0:0:0:0:
205,25,9712,1,8,0:0:0:0:
205,25,9962,1,8,0:0:0:0:
412,18,10212,5,8,0:0:0:0:
412,18,10462,1,8,0:0:0:0:
242,138,10712,1,8,0:0:0:0:
242,138,10962,1,8,0:0:0:0:
35,137,11212,6,0,L|68:254,1,104,8|8,0:0|0:0,0:0:0:0:
133,310,11587,1,8,0:0:0:0:
133,310,11712,2,0,L|161:209,1,104,8|8,0:0|0:0,0:0:0:0:
238,290,12087,1,8,0:0:0:0:
238,290,12212,2,0,L|258:360,1,52,8|8,0:0|0:0,0:0:0:0:
330,287,12462,2,0,L|344:237,1,52,8|8,0:0|0:0,0:0:0:0:
423,287,12712,6,0,P|471:282|509:224,1,104,12|8,0:0|0:0,0:0:0:0:
404,41,13212,6,0,B|387:83|387:83|416:166,2,130,4|8|4,0:0|0:0|0:3,0:0:0:0:
313,2,13837,1,0,0:0:0:0:
313,2,13962,2,0,L|278:65,1,65,8|0,0:0|0:0,0:0:0:0:
188,151,14212,6,0,B|231:138|231:138|336:165,1,130,4|8,0:3|0:0,0:0:0:0:
365,241,14587,2,0,B|322:254|322:254|217:227,1,130,0|0,0:0|0:0,0:0:0:0:
237,320,14962,1,8,0:0:0:0:
68,194,15212,6,0,L|94:48,2,130,4|8|4,0:3|0:0|0:3,0:0:0:0:
57,289,15837,1,0,0:0:0:0:
57,289,15962,2,0,L|68:358,1,65,8|0,0:0|0:0,0:0:0:0:
164,368,16212,6,0,P|230:372|291:328,1,130,4|8,0:3|0:0,0:0:0:0:
340,268,16587,2,0,P|406:264|467:308,1,130,0|0,0:3|0:0,0:0:0:0:
384,348,16962,1,8,0:0:0:0:
304,169,17212,5,4,0:0:0:0:
304,169,17337,2,0,L|157:157,1,130,0|8,0:0|0:0,0:0:0:0:
77,152,17712,2,0,L|94:218,1,65,8|4,1:0|0:3,0:0:0:0:
179,259,17962,1,8,1:0:0:0:
132,67,18212,5,4,0:3:0:0:
132,67,18337,2,0,L|279:55,1,130,12|4,0:0|0:3,0:0:0:0:
359,57,18712,2,0,L|338:121,1,65,8|4,0:0|0:3,0:0:0:0:
436,122,18962,2,0,L|415:186,1,65,8|4,0:0|0:3,0:0:0:0:
350,255,19212,6,0,P|406:236|481:267,1,130,8|8,0:0|0:3,0:0:0:0:
409,333,19587,2,0,P|353:352|278:321,1,130,12|4,0:3|0:3,0:0:0:0:
248,240,19962,2,0,L|246:165,1,65,4|0,0:3|0:0,0:0:0:0:
184,99,20212,6,0,P|128:80|53:111,1,130,8|8,0:0|0:3,0:0:0:0:
125,177,20587,2,0,P|181:196|256:165,1,130,12|4,0:3|0:3,0:0:0:0:
286,84,20962,2,0,L|288:9,1,65,4|0,0:3|0:0,0:0:0:0:
376,120,21212,6,0,B|408:144|408:144|517:118,1,130,4|0,0:3|0:2,0:0:0:0:
391,239,21712,2,0,L|467:222,1,77.999997619629,0|0,0:0|0:0,0:0:0:0:
323,335,22212,2,0,L|399:351,1,77.999997619629,0|0,0:2|0:2,0:0:0:0:
218,261,22712,2,0,L|294:244,1,77.999997619629
118,293,23212,5,4,0:0:0:0:
118,293,23337,2,0,L|127:186,1,104,0|0,0:0|0:0,0:0:0:0:
38,221,23712,2,0,L|47:114,1,104,8|8,0:0|0:0,0:0:0:0:
159,25,24212,6,0,L|269:13,1,104,4|4,0:3|0:3,0:0:0:0:
236,157,24712,2,0,L|346:145,1,104,8|8,0:0|0:0,0:0:0:0:
445,310,25212,6,0,P|449:272|439:229,2,77.999997619629,4|8|4,0:2|0:0|0:3,0:0:0:0:
365,343,25837,2,0,L|279:332,1,77.999997619629,8|0,0:0|0:0,0:0:0:0:
216,384,26212,2,0,P|205:332|231:270,2,116.999996429443,8|4|8,0:0|0:3|0:0,0:0:0:0:
247,183,27212,6,0,P|251:145|241:102,2,77.999997619629,4|8|4,0:3|0:0|0:3,0:0:0:0:
167,216,27837,2,0,L|81:205,1,77.999997619629,8|0,0:0|0:0,0:0:0:0:
10,240,28212,2,0,P|6:202|16:159,1,77.999997619629,8|0,0:0|0:0,0:0:0:0:
38,81,28587,2,0,L|159:70,1,116.999996429443,8|4,0:0|0:2,0:0:0:0:
353,21,29212,6,0,P|315:13|267:25,2,77.999997619629,4|8|4,0:3|0:0|0:3,0:0:0:0:
439,17,29837,2,0,L|453:103,1,77.999997619629,8|0,0:0|0:0,0:0:0:0:
367,108,30212,2,0,L|356:240,2,116.999996429443,8|8|8,0:0|0:0|0:0,0:0:0:0:
182,171,31212,6,0,P|220:163|268:175,2,77.999997619629,4|8|4,0:3|0:0|0:3,0:0:0:0:
96,167,31837,2,0,L|82:253,1,77.999997619629,8|0,0:0|0:0,0:0:0:0:
168,258,32212,2,0,L|179:390,1,116.999996429443,8|8,0:0|0:3,0:0:0:0:
357,224,32837,2,0,L|351:263,2,38.9999988098145,8|8|4,0:3|0:3|0:3,0:0:0:0:
420,162,33212,6,0,L|279:174,1,130,4|8,0:2|0:0,0:0:0:0:
472,84,33962,1,4,0:3:0:0:
214,228,34212,2,0,P|204:203|197:157,1,65,8|4,0:3|0:3,0:0:0:0:
106,152,34587,1,0,0:3:0:0:
106,152,34712,2,0,P|116:127|144:89,1,65,8|4,0:0|0:3,0:0:0:0:
54,304,35212,6,0,L|195:316,1,130,8|8,0:3|0:0,0:0:0:0:
2,226,35962,1,8,0:3:0:0:
260,370,36212,2,0,P|270:345|277:299,1,65,4|8,0:3|0:3,0:0:0:0:
368,294,36587,1,8,0:0:0:0:
368,294,36712,2,0,P|354:257|291:218,1,104,8|8,0:0|0:0,0:0:0:0:
397,168,37087,1,8,0:0:0:0:
397,168,37212,6,0,P|413:122|427:102,1,65,4|0,0:0|0:0,0:0:0:0:
376,28,37462,2,0,L|505:22,2,130,8|4|8,0:0|0:3|0:0,0:0:0:0:
293,66,38087,1,0,0:0:0:0:
293,66,38212,6,0,L|163:60,1,130,4|8,0:3|0:0,0:0:0:0:
80,97,38587,1,0,0:0:0:0:
80,97,38712,2,0,P|72:59|76:25,2,65,4|0|8,0:3|0:0|0:0,0:0:0:0:
189,318,39212,6,0,P|197:280|193:246,1,65,4|0,0:3|0:0,0:0:0:0:
267,199,39462,2,0,L|137:193,2,130,8|4|8,0:0|0:3|0:0,0:0:0:0:
353,171,40087,1,0,0:0:0:0:
425,226,40212,6,0,P|451:280|441:377,1,130,4|4,0:3|0:3,0:0:0:0:
267,199,40712,2,0,L|264:130,1,65,8|8,0:0|0:0,0:0:0:0:
340,85,40962,2,0,L|343:16,1,65,8|8,0:0|0:0,0:0:0:0:
426,113,41212,6,0,L|430:226,2,104,4|8|4,0:2|0:0|0:3,0:0:0:0:
195,81,41962,1,8,0:0:0:0:
334,275,42212,2,0,L|338:162,2,104,4|8|0,0:2|0:0|0:0,0:0:0:0:
114,120,42962,1,8,0:0:0:0:
254,323,43212,6,0,L|141:314,1,104,4|8,0:2|0:0,0:0:0:0:
10,128,43712,2,0,L|113:119,1,104,4|8,0:3|0:0,0:0:0:0:
67,373,44212,6,0,P|53:307|68:265,2,104,4|8|0,0:2|0:0|0:0,0:0:0:0:
274,109,44962,2,0,L|217:114,1,52,8|8,0:0|0:0,0:0:0:0:
233,202,45212,6,0,L|308:194,2,65,4|0|8,0:2|0:0|0:0,0:0:0:0:
329,25,45712,2,0,L|254:17,2,65,4|0|8,0:3|0:0|0:0,0:0:0:0:
338,275,46212,6,0,L|413:267,1,65,4|0,0:3|0:0,0:0:0:0:
496,250,46462,1,8,0:0:0:0:
496,250,46587,2,0,L|488:400,1,130,2|0,0:2|0:0,0:0:0:0:
401,352,46962,1,8,0:0:0:0:
207,180,47212,6,0,L|282:188,2,65,4|0|8,0:3|0:0|0:0,0:0:0:0:
303,357,47712,2,0,L|228:365,2,65,4|0|8,0:3|0:0|0:0,0:0:0:0:
136,115,48212,6,0,P|111:195|126:241,1,130,4|8,0:2|0:0,0:0:0:0:
208,270,48587,1,8,0:0:0:0:
208,270,48712,2,0,B|288:256,1,65,8|8,0:3|0:3,0:0:0:0:
361,238,48962,2,0,B|441:224,1,65,4|4,0:3|0:3,0:0:0:0:
441,129,49212,5,8,0:0:0:0:
441,129,49337,2,0,L|325:142,1,104,0|0,0:0|0:0,0:0:0:0:
358,54,49712,1,8,0:0:0:0:
358,54,49837,2,0,L|242:67,1,104,0|0,0:0|0:0,0:0:0:0:
192,128,50212,5,8,0:0:0:0:
192,128,50337,2,0,L|76:115,1,104,0|4,0:0|0:3,0:0:0:0:
109,203,50712,1,8,0:0:0:0:
109,203,50837,2,0,L|-7:190,1,104,0|0,0:0|0:0,0:0:0:0:
14,279,51212,5,8,0:0:0:0:
249,203,51712,5,8,0:0:0:0:
105,293,52212,5,8,0:0:0:0:
240,345,52712,5,8,0:0:0:0:
256,192,53212,12,8,54212,0:0:0:0:
108,343,54712,6,0,L|61:331,5,43.3333333333333,2|0|0|2|0|0,0:0|0:0|0:0|0:0|0:0|0:0,0:0:0:0:
108,343,55212,6,0,B|125:301|125:301|93:209,2,143.000004364014,4|8|4,0:0|0:0|0:3,0:0:0:0:
199,382,55837,1,4,0:3:0:0:
199,382,55962,2,0,L|233:315,1,71.5000021820069,8|0,0:0|0:0,0:0:0:0:
324,233,56212,6,0,B|281:246|281:246|174:218,1,143.000004364014,4|8,0:3|0:0,0:0:0:0:
144,134,56587,2,0,B|187:121|187:121|294:149,1,143.000004364014,4|4,0:3|0:3,0:0:0:0:
264,50,56962,1,8,0:0:0:0:
447,184,57212,6,0,L|471:325,2,143.000004364014,4|8|4,0:2|0:0|0:3,0:0:0:0:
460,95,57837,1,4,0:3:0:0:
460,95,57962,2,0,L|446:22,1,71.5000021820069,8|0,0:0|0:0,0:0:0:0:
354,7,58212,6,0,P|294:6|211:62,1,143.000004364014,4|8,0:2|0:0,0:0:0:0:
169,127,58587,2,0,P|109:128|36:82,1,143.000004364014,0|8,0:0|0:0,0:0:0:0:
125,40,58962,1,8,0:0:0:0:
208,215,59212,6,0,L|356:227,1,143.000004364014,4|8,0:0|0:0,0:0:0:0:
350,226,59712,2,0,P|316:266|311:298,1,71.5000021820069,4|4,0:3|0:3,0:0:0:0:
380,352,59962,2,0,P|418:353|472:339,1,71.5000021820069,8|0,0:0|0:0,0:0:0:0:
288,373,60212,6,0,P|226:347|142:339,1,143.000004364014,4|8,0:3|0:0,0:0:0:0:
151,338,60712,2,0,P|165:310|173:254,1,71.5000021820069,4|4,0:3|0:3,0:0:0:0:
76,278,60962,2,0,P|62:250|54:194,1,71.5000021820069,8|0,0:0|0:0,0:0:0:0:
140,143,61212,6,0,P|84:162|1:113,1,143.000004364014,4|8,0:0|0:0,0:0:0:0:
83,63,61587,2,0,P|139:44|222:93,1,143.000004364014,8|4,0:0|0:3,0:0:0:0:
233,172,61962,2,0,P|262:167|299:148,1,71.5000021820069,8|8,0:0|0:0,0:0:0:0:
369,81,62212,6,0,L|365:25,7,35.7500010910034,8|8|8|8|8|8|8|8,0:3|0:3|0:3|0:3|0:3|0:3|0:3|0:3,0:0:0:0:
409,79,62712,2,0,B|389:137|389:137|403:162|403:162|386:231,1,143.000004364014,4|8,0:3|0:3,0:0:0:0:
174,250,63212,6,0,B|191:292|191:292|159:384,2,143.000004364014,4|8|4,0:0|0:0|0:3,0:0:0:0:
85,289,63837,1,4,0:3:0:0:
85,289,63962,2,0,L|10:281,1,71.5000021820069,8|0,0:0|0:0,0:0:0:0:
43,188,64212,6,0,B|95:193|95:193|185:151,1,143.000004364014,4|8,0:3|0:0,0:0:0:0:
143,63,64587,2,0,B|176:103|176:103|269:137,1,143.000004364014,4|4,0:3|0:3,0:0:0:0:
354,105,64962,1,8,0:0:0:0:
353,334,65212,6,0,L|332:166,2,143.000004364014,4|8|4,0:2|0:0|0:3,0:0:0:0:
448,317,65837,1,4,0:3:0:0:
448,317,65962,2,0,L|437:243,1,71.5000021820069,8|0,0:0|0:0,0:0:0:0:
353,334,66212,6,0,P|293:335|210:279,1,143.000004364014,4|8,0:2|0:0,0:0:0:0:
141,240,66587,2,0,P|81:239|8:285,1,143.000004364014,0|8,0:0|0:0,0:0:0:0:
99,336,66962,1,8,0:0:0:0:
210,158,67212,6,0,L|197:8,1,143.000004364014,4|8,0:0|0:0,0:0:0:0:
197,15,67712,2,0,P|229:50|252:58,1,71.5000021820069,4|4,0:3|0:3,0:0:0:0:
342,24,67962,2,0,P|380:22|434:37,1,71.5000021820069,8|0,0:0|0:0,0:0:0:0:
507,109,68212,6,0,P|446:117|366:168,1,143.000004364014,4|8,0:3|0:0,0:0:0:0:
376,157,68712,2,0,P|390:185|398:241,1,71.5000021820069,4|4,0:3|0:3,0:0:0:0:
301,217,68962,2,0,P|287:245|279:301,1,71.5000021820069,8|8,0:0|0:0,0:0:0:0:
365,352,69212,6,0,P|309:333|226:382,1,143.000004364014,4|8,0:0|0:3,0:0:0:0:
175,291,69587,2,0,P|113:324|46:305,1,143.000004364014,8|4,0:3|0:3,0:0:0:0:
108,227,69962,2,0,P|119:167|91:72,1,143.000004364014,4|8,0:3|0:0,0:0:0:0:
214,32,70337,6,0,P|195:100|206:170,1,143.000004364014,4|4,0:3|0:3,0:0:0:0:
294,106,70712,2,0,L|369:92,1,71.5000021820069,8|4,0:3|0:3,0:0:0:0:
380,185,70962,2,0,L|450:195,1,71.5000021820069,4|0,0:3|0:0,0:0:0:0:
501,113,71212,5,4,0:2:0:0:
441,378,71712,1,8,0:0:0:0:
441,378,71962,1,4,0:3:0:0:
441,378,72212,5,4,0:3:0:0:
348,340,72337,2,0,P|309:333|198:390,1,156,8|8,0:0|0:0,0:0:0:0:
94,256,72962,1,0,0:0:0:0:
194,123,73212,5,4,0:2:0:0:
509,282,73712,1,8,0:0:0:0:
509,282,73962,1,4,0:3:0:0:
509,282,74212,1,4,0:3:0:0:
429,225,74337,2,0,P|418:184|443:105,1,104,8|0,0:0|0:0,0:0:0:0:
447,36,74712,2,0,L|384:45,1,52,8|0,0:0|0:0,0:0:0:0:
303,26,74962,2,0,L|263:34,3,32.5,8|8|8|8,0:0|0:0|0:0|0:0,0:0:0:0:
260,56,75212,6,0,P|227:37|119:43,2,130,4|8|4,0:0|0:0|0:3,0:0:0:0:
189,123,75837,1,4,0:3:0:0:
189,123,75962,2,0,P|187:156|195:211,1,65,8|0,0:0|0:0,0:0:0:0:
259,255,76212,6,0,P|292:236|400:242,1,130,4|8,0:3|0:0,0:0:0:0:
332,318,76587,2,0,P|390:344|454:338,1,130,0|4,0:0|0:3,0:0:0:0:
481,245,76962,1,8,0:3:0:0:
309,72,77212,6,0,L|297:156,2,65,12|0|8,0:0|0:0|0:0,0:0:0:0:
207,85,77587,1,0,0:0:0:0:
207,85,77712,2,0,L|217:169,2,65,8|0|8,0:0|0:0|0:0,0:0:0:0:
109,77,78087,6,0,L|97:-7,2,65,0|8|0,0:0|0:0|0:0,0:0:0:0:
7,64,78462,1,8,0:0:0:0:
7,64,78587,2,0,L|17:-20,2,65,0|8|0,0:0|0:0|0:0,0:0:0:0:
38,156,78962,2,0,L|30:220,1,65,8|0,0:0|0:0,0:0:0:0:
24,311,79212,6,0,B|68:295|68:295|163:307,1,130,4|8,0:2|0:0,0:0:0:0:
229,381,79587,2,0,B|248:338|248:338|314:287,1,130,4|8,0:3|0:0,0:0:0:0:
414,311,79962,2,0,L|415:246,1,65,8|8,0:0|0:0,0:0:0:0:
444,159,80212,6,0,L|430:108,7,32.5,8|8|8|8|4|4|4|4,0:3|0:3|0:3|0:3|0:3|0:3|0:3|0:3,0:0:0:0:
439,105,80712,1,8,0:0:0:0:
42,61,81212,6,0,L|171:42,2,130,4|8|4,0:0|0:0|0:3,0:0:0:0:
243,109,81962,1,8,0:0:0:0:
23,178,82212,1,4,0:3:0:0:
243,109,82462,1,8,0:0:0:0:
23,178,82712,2,0,P|22:216|28:260,1,65,4|2,0:3|0:2,0:0:0:0:
112,266,82962,2,0,P|113:228|107:184,1,65,8|2,0:0|0:2,0:0:0:0:
200,209,83212,6,0,L|328:189,2,130,4|8|4,0:3|0:0|0:3,0:0:0:0:
396,119,83962,1,8,0:0:0:0:
197,304,84212,1,4,0:3:0:0:
396,119,84462,1,8,0:0:0:0:
197,304,84712,2,0,B|208:333|208:333|214:374,1,65,8|8,0:3|0:3,0:0:0:0:
302,384,84962,2,0,B|306:350|306:350|317:321,1,65,8|4,0:3|0:3,0:0:0:0:
389,246,85212,5,4,0:0:0:0:
389,246,85337,2,0,P|320:226|273:237,1,104,0|0,0:0|0:0,0:0:0:0:
251,150,85712,1,8,0:0:0:0:
251,150,85837,2,0,P|182:170|135:159,1,104,0|0,0:0|0:0,0:0:0:0:
123,248,86212,5,4,0:3:0:0:
123,248,86337,2,0,P|54:228|7:239,1,104,8|0,0:0|0:0,0:0:0:0:
17,144,86712,2,0,P|56:103|76:44,1,104,8|0,0:0|0:0,0:0:0:0:
215,278,87212,5,8,0:0:0:0:
215,278,87337,2,0,P|235:325|271:362,1,104,0|0,0:0|0:0,0:0:0:0:
305,280,87712,2,0,P|352:299|404:299,1,104,8|4,0:0|0:3,0:0:0:0:
465,109,88212,6,0,L|427:127,7,26,8|4|8|4|8|4|8|4,0:0|0:3|0:0|0:3|0:0|0:3|0:0|0:3,0:0:0:0:
421,131,88712,6,0,B|378:142|378:142|276:114,1,130,4|12,0:0|0:0,0:0:0:0:
