osu file format v14

[General]
AudioFilename: audio.mp3
AudioLeadIn: 0
PreviewTime: 55087
Countdown: 0
SampleSet: Normal
StackLeniency: 0.4
Mode: 0
LetterboxInBreaks: 0
WidescreenStoryboard: 1

[Editor]
Bookmarks: 1212,5212,13212,21212,25212,33212,37212,45212,49212,55212,63212,71149,75212,81212,85212,88962
DistanceSpacing: 1.2
BeatDivisor: 4
GridSize: 32
TimelineZoom: 4.399998

[Metadata]
Title:Los! Los! Los!
TitleUnicode:Los! Los! Los!
Artist:Tanya Degurechaff (CV: Yuki Aoi)
ArtistUnicode:ターニャ・デグレチャフ(CV:悠木碧)
Creator:Milan-
Version:Extra
Source:幼女戦記
Tags:appleeaterx pishifat Youjo Senki Saga of Tanya the Evil ED ending TV Size yuuki losloslos
BeatmapID:1321492
BeatmapSetID:625302

[Difficulty]
HPDrainRate:6
CircleSize:4.1
OverallDifficulty:8.5
ApproachRate:9.5
SliderMultiplier:1.8
SliderTickRate:1

[Events]
//Background and Video events
0,0,"bhg.jpg",0,0
//Break Periods
//Storyboard Layer 0 (Background)
//Storyboard Layer 1 (Fail)
//Storyboard Layer 2 (Pass)
//Storyboard Layer 3 (Foreground)
//Storyboard Sound Samples

[TimingPoints]
1212,250,4,2,1,40,1,0
1712,-111.111111111111,4,2,1,40,0,0
1962,-125,4,2,1,40,0,0
2212,-142.857142857143,4,2,1,40,0,0
3212,-100,4,2,1,40,0,0
3712,-111.111111111111,4,2,1,40,0,0
3962,-125,4,2,1,40,0,0
4212,-111.111111111111,4,2,1,40,0,0
4462,-125,4,2,1,40,0,0
4712,-111.111111111111,4,2,1,40,0,0
4837,-125,4,2,1,60,0,0
5212,-83.3333333333333,4,1,1,50,0,0
5462,-125,4,1,1,50,0,0
7212,-83.3333333333333,4,1,1,50,0,0
7312,-125,4,1,1,50,0,0
8712,-83.3333333333333,4,1,1,50,0,0
8962,-66.6666666666667,4,1,1,50,0,0
9212,-83.3333333333333,4,1,1,60,0,0
9462,-125,4,1,1,60,0,0
11212,-111.111111111111,4,1,1,40,0,0
11462,-111.111111111111,4,1,1,45,0,0
11712,-100,4,1,1,50,0,0
11962,-100,4,1,1,55,0,0
12212,-100,4,1,1,60,0,0
12462,-100,4,1,1,65,0,0
12712,-83.3333333333333,4,1,1,70,0,0
12962,-66.6666666666667,4,1,1,70,0,0
13024,-66.6666666666667,4,1,1,60,0,0
13087,-66.6666666666667,4,1,1,50,0,0
13212,-71.4285714285714,4,1,1,75,0,0
13274,-83.3333333333333,4,1,1,75,0,0
14212,-71.4285714285714,4,1,1,75,0,0
14312,-83.3333333333333,4,1,1,75,0,0
15212,-71.4285714285714,4,1,1,75,0,0
15312,-83.3333333333333,4,1,1,75,0,0
17462,-83.3333333333333,4,1,1,55,0,0
17587,-83.3333333333333,4,1,1,75,0,0
17774,-83.3333333333333,4,1,1,55,0,0
17899,-83.3333333333333,4,1,1,75,0,0
18024,-83.3333333333333,4,1,1,55,0,0
18149,-83.3333333333333,4,1,1,75,0,0
18524,-83.3333333333333,4,1,1,55,0,0
18649,-83.3333333333333,4,1,1,75,0,0
18774,-83.3333333333333,4,1,1,55,0,0
18899,-83.3333333333333,4,1,1,75,0,0
19024,-83.3333333333333,4,1,1,55,0,0
19149,-83.3333333333333,4,1,1,75,0,0
19587,-83.3333333333333,4,1,1,90,0,0
19712,-83.3333333333333,4,1,1,75,0,0
20587,-83.3333333333333,4,1,1,90,0,0
20712,-83.3333333333333,4,1,1,75,0,0
21212,-83.3333333333333,4,1,1,60,0,0
21312,-125,4,1,1,60,0,0
23212,-100,4,1,1,60,0,0
24962,-125,4,1,1,60,0,0
25212,-166.666666666667,4,1,1,60,0,0
26212,-125,4,1,1,60,0,0
26587,-142.857142857143,4,1,1,60,0,0
27212,-166.666666666667,4,1,1,60,0,0
28337,-142.857142857143,4,1,1,60,0,0
28587,-125,4,1,1,60,0,0
28962,-111.111111111111,4,1,1,60,0,0
29212,-166.666666666667,4,1,1,60,0,0
30212,-125,4,1,1,60,0,0
30587,-142.857142857143,4,1,1,60,0,0
31212,-166.666666666667,4,1,1,60,0,0
32337,-142.857142857143,4,1,1,60,0,0
32587,-125,4,1,1,60,0,0
32962,-142.857142857143,4,1,1,60,0,0
33212,-200,4,1,1,60,0,0
36587,-200,4,1,1,45,0,0
36712,-200,4,1,1,60,0,0
37212,-100,4,1,1,70,0,0
41212,-100,4,1,1,70,0,0
41462,-125,4,1,1,70,0,0
43212,-100,4,1,1,70,0,0
43462,-125,4,1,1,70,0,0
45212,-100,4,1,1,70,0,0
49212,-111.111111111111,4,1,1,70,0,0
54712,-66.6666666666667,4,2,1,40,0,0
54962,-50,4,2,1,50,0,0
55212,-66.6666666666667,4,1,1,80,0,1
55462,-74.0740740740741,4,1,1,80,0,1
56212,-66.6666666666667,4,1,1,80,0,1
56462,-74.0740740740741,4,1,1,80,0,1
57087,-74.0740740740741,4,1,1,60,0,1
57212,-66.6666666666667,4,1,1,80,0,1
57462,-74.0740740740741,4,1,1,80,0,1
58837,-74.0740740740741,4,1,1,60,0,1
58962,-74.0740740740741,4,1,1,80,0,1
62212,-66.6666666666667,4,1,1,80,0,1
62274,-66.6666666666667,4,1,1,60,0,1
62462,-66.6666666666667,4,1,1,80,0,1
62524,-66.6666666666667,4,1,1,60,0,1
62712,-66.6666666666667,4,1,1,80,0,1
62774,-66.6666666666667,4,1,1,60,0,1
62962,-50,4,1,1,80,0,1
63024,-50,4,1,1,60,0,1
63087,-50,4,1,1,80,0,1
63149,-50,4,1,1,60,0,1
63212,-66.6666666666667,4,1,1,80,0,1
63312,-74.0740740740741,4,1,1,80,0,1
64212,-66.6666666666667,4,1,1,80,0,1
64312,-74.0740740740741,4,1,1,80,0,1
65087,-74.0740740740741,4,1,1,60,0,1
65212,-66.6666666666667,4,1,1,80,0,1
65312,-74.0740740740741,4,1,1,80,0,1
66837,-74.0740740740741,4,1,1,60,0,1
66962,-74.0740740740741,4,1,1,80,0,1
71212,-125,4,1,1,80,0,0
74962,-125,4,1,1,60,0,0
75212,-100,4,1,1,80,0,1
77024,-100,4,1,1,50,0,1
77212,-83.3333333333333,4,1,1,80,0,1
79212,-83.3333333333333,4,1,1,70,0,1
80024,-83.3333333333333,4,1,1,50,0,1
80087,-66.6666666666667,4,1,1,50,0,1
80212,-66.6666666666667,4,1,1,70,0,1
80274,-66.6666666666667,4,1,1,50,0,1
80462,-66.6666666666667,4,1,1,70,0,1
80524,-66.6666666666667,4,1,1,50,0,1
80712,-66.6666666666667,4,1,1,60,0,1
81149,-66.6666666666667,4,1,1,5,0,1
81212,-83.3333333333333,4,1,1,80,0,0
81312,-100,4,1,1,80,0,0
82212,-83.3333333333333,4,1,1,80,0,0
82312,-100,4,1,1,80,0,0
83212,-83.3333333333333,4,1,1,80,0,0
83312,-100,4,1,1,80,0,0
84212,-83.3333333333333,4,1,1,80,0,0
84312,-100,4,1,1,80,0,0
85212,-125,4,1,1,80,0,0
86712,-83.3333333333333,4,1,1,80,0,0
87212,-100,4,1,1,80,0,0
87712,-83.3333333333333,4,1,1,80,0,0
88212,-66.6666666666667,4,1,1,80,0,0
88462,-66.6666666666667,4,1,1,80,0,0
88712,-50,4,1,1,80,0,0
89024,-50,4,1,1,5,0,0

[Colours]
Combo1 : 217,213,253
Combo2 : 112,146,186
Combo3 : 167,243,236
Combo4 : 198,151,104

[HitObjects]
432,68,1212,6,0,L|421:177,2,90,4|0|0,0:3|0:0|0:0,0:0:0:0:
512,125,1587,1,0,0:0:0:0:
420,70,1712,2,0,L|409:179,1,80.9999975280762,2|0,0:0|0:0,0:0:0:0:
410,72,1962,2,0,L|401:153,1,72,2|0,0:0|0:0,0:0:0:0:
330,226,2212,2,0,L|336:288,1,62.9999980773926,0|0,0:0|0:0,0:0:0:0:
342,231,2462,2,0,L|348:293,1,62.9999980773926,0|0,0:0|0:0,0:0:0:0:
408,377,2712,1,2,0:0:0:0:
408,377,2962,1,2,0:0:0:0:
82,376,3212,6,0,L|93:267,2,90,4|0|0,0:3|0:0|0:0,0:0:0:0:
2,319,3587,1,0,0:0:0:0:
94,374,3712,2,0,L|105:265,1,80.9999975280762,2|0,0:0|0:0,0:0:0:0:
104,372,3962,2,0,L|112:290,1,72,2|0,0:0|0:0,0:0:0:0:
192,222,4212,2,0,L|181:113,1,80.9999975280762,2|0,0:0|0:0,0:0:0:0:
182,220,4462,2,0,L|174:138,1,72,2|0,0:0|0:0,0:0:0:0:
88,80,4712,2,0,L|99:-29,1,80.9999975280762,2|0,0:0|0:0,0:0:0:0:
98,78,4962,2,0,L|106:-4,1,72,2|0,0:0|0:0,0:0:0:0:
407,56,5212,6,0,P|338:96|260:82,1,161.999995056152,4|0,0:3|2:0,0:0:0:0:
260,82,5462,2,0,P|285:107|296:141,1,72,0|0,0:0|2:0,0:0:0:0:
322,0,5712,1,2,0:2:0:0:
322,0,5962,1,2,0:2:0:0:
197,162,6212,5,0,0:0:0:0:
396,189,6462,1,0,0:0:0:0:
322,0,6712,1,2,0:2:0:0:
112,218,6962,1,2,0:2:0:0:
112,218,7212,6,0,P|181:258|259:244,1,161.999995056152,4|0,0:3|2:0,0:0:0:0:
259,244,7462,2,0,P|234:269|223:303,1,72,0|0,0:0|2:0,0:0:0:0:
197,162,7712,1,2,0:2:0:0:
197,162,7962,1,2,0:2:0:0:
322,324,8212,5,0,0:0:0:0:
123,351,8462,1,0,0:0:0:0:
197,162,8712,2,0,L|186:98,3,53.9999983520508,2|0|0|0,0:2|0:0|0:0|0:0,0:0:0:0:
281,94,8962,6,0,L|272:131,6,33.7500012874604,2|0|0|0|0|0|0,0:3|0:0|0:0|0:0|0:0|0:0|0:0,0:0:0:0:
356,142,9212,6,0,B|400:182|474:148|474:148|451:108,1,161.999995056153,12|0,0:0|2:0,0:0:0:0:
456,116,9462,2,0,P|445:145|444:201,1,72,8|0,0:0|2:0,0:0:0:0:
385,48,9712,1,8,0:0:0:0:
383,245,9962,1,8,0:0:0:0:
233,57,10212,5,8,0:0:0:0:
311,291,10462,1,8,0:0:0:0:
75,161,10712,1,8,0:0:0:0:
265,360,10962,2,0,P|239:327|242:245,1,108,8|0,0:0|2:0,0:0:0:0:
374,244,11212,6,0,P|346:273|310:291,1,80.9999975280763,8|8,0:0|0:0,0:0:0:0:
155,246,11462,2,0,P|143:207|146:167,1,80.9999975280763,8|8,0:0|0:0,0:0:0:0:
450,199,11712,6,0,P|461:237|453:290,1,90,8|8,0:0|0:0,0:0:0:0:
68,128,11962,2,0,P|96:97|142:79,1,90,8|8,0:0|0:0,0:0:0:0:
372,157,12212,5,8,0:0:0:0:
155,246,12337,1,8,0:0:0:0:
222,67,12462,1,8,0:0:0:0:
310,347,12587,1,8,0:0:0:0:
264,204,12712,6,0,L|275:275,1,53.9999983520508,12|2,0:0|0:2,0:0:0:0:
330,374,12837,2,0,L|338:320,1,53.9999983520508,8|2,0:0|0:2,0:0:0:0:
230,189,12962,6,0,L|225:151,6,33.7500012874604,8|0|2|0|2|0|2,0:0|0:0|0:2|0:0|0:2|0:0|0:2,0:0:0:0:
155,246,13212,6,0,B|81:298|15:231|15:231|51:192,1,188.999994232178,4|0,0:0|2:0,0:0:0:0:
121,131,13462,2,0,P|133:184|136:238,1,107.999996704102,8|0,0:0|0:0,0:0:0:0:
234,26,13712,1,4,0:3:0:0:
28,107,13837,1,0,0:0:0:0:
234,26,13962,2,0,P|222:78|219:132,1,107.999996704102,8|0,0:0|0:0,0:0:0:0:
452,74,14212,6,0,B|378:22|312:89|312:89|348:128,1,188.999994232178,4|0,0:3|2:0,0:0:0:0:
418,189,14462,2,0,P|430:136|433:82,1,107.999996704102,8|0,0:0|0:0,0:0:0:0:
304,300,14712,1,4,0:3:0:0:
512,232,14837,1,0,0:0:0:0:
304,300,14962,2,0,P|300:246|288:193,1,107.999996704102,8|0,0:0|0:0,0:0:0:0:
49,248,15212,6,0,P|127:294|208:252,1,188.999994232178,4|0,0:3|2:0,0:0:0:0:
185,170,15462,2,0,P|140:163|61:161,1,107.999996704102,8|0,0:0|0:0,0:0:0:0:
229,85,15712,1,4,0:3:0:0:
49,248,15837,1,0,0:0:0:0:
229,85,15962,2,0,P|274:78|353:76,1,107.999996704102,8|0,0:0|0:0,0:0:0:0:
506,147,16212,6,0,B|477:150|446:150|446:150|414:168|376:193|376:193|352:190|291:188,1,215.999993408203,4|8,0:3|0:0,0:0:0:0:
302,188,16587,1,0,0:0:0:0:
476,262,16712,1,8,0:0:0:0:
476,262,16837,1,0,0:0:0:0:
336,75,16962,1,8,0:0:0:0:
336,75,17087,1,0,0:0:0:0:
178,249,17212,5,4,0:0:0:0:
182,56,17337,2,0,P|204:106|214:159,1,107.999996704102,0|4,0:0|0:3,0:0:0:0:
87,38,17587,1,8,0:0:0:0:
311,165,17712,2,0,P|318:219|314:273,1,107.999996704102,8|4,1:0|0:3,0:0:0:0:
182,56,17962,2,0,P|204:106|213:159,1,107.999996704102,8|4,1:0|0:3,0:0:0:0:
104,339,18212,5,4,0:3:0:0:
99,146,18337,2,0,P|77:195|67:248,1,107.999996704102,12|0,0:0|0:0,0:0:0:0:
5,90,18587,1,4,0:3:0:0:
185,268,18712,2,0,P|206:317|216:370,1,107.999996704102,8|4,0:0|0:3,0:0:0:0:
99,146,18962,2,0,P|77:195|67:248,1,107.999996704102,8|4,0:0|0:3,0:0:0:0:
316,172,19212,6,0,B|268:155|268:155|212:158,1,107.999996704102,8|4,0:0|0:3,0:0:0:0:
393,264,19462,2,0,B|448:267|448:267|497:249,1,107.999996704102,8|12,0:3|0:3,0:0:0:0:
410,168,19712,1,8,0:3:0:0:
294,267,19837,1,4,0:3:0:0:
316,172,19962,1,4,0:3:0:0:
393,264,20087,1,0,0:0:0:0:
253,78,20212,6,0,L|131:87,1,107.999996704102,8|4,0:0|0:3,0:0:0:0:
356,31,20462,1,8,0:3:0:0:
316,172,20587,1,12,0:3:0:0:
253,78,20712,1,8,0:3:0:0:
420,126,20837,1,4,0:3:0:0:
320,157,20962,1,4,0:3:0:0:
352,45,21087,1,0,0:0:0:0:
363,261,21212,6,0,P|292:267|217:198,1,161.999995056153,4|0,0:3|2:0,0:0:0:0:
223,213,21462,2,0,P|240:258|236:307,1,72,0|0,0:2|2:0,0:0:0:0:
320,157,21712,1,0,0:0:0:0:
320,157,21962,1,0,0:0:0:0:
150,266,22212,5,0,0:2:0:0:
363,261,22462,1,0,0:2:0:0:
78,211,22712,1,0,0:0:0:0:
318,337,22962,1,0,0:0:0:0:
167,61,23212,5,4,0:0:0:0:
78,211,23337,1,0,0:0:0:0:
302,142,23462,2,0,B|258:129|258:129|213:135,1,90,4|0,0:3|0:0,0:0:0:0:
129,292,23712,2,0,B|161:260|161:260|178:219,1,90,8|0,0:0|0:0,0:0:0:0:
85,66,23962,2,0,B|96:109|96:109|123:145,1,90,8|0,0:0|0:0,0:0:0:0:
361,65,24212,5,4,0:3:0:0:
361,65,24337,1,0,0:0:0:0:
270,231,24462,1,4,0:3:0:0:
270,231,24587,1,0,0:0:0:0:
471,205,24712,5,8,0:0:0:0:
251,114,24837,1,0,0:0:0:0:
392,289,24962,2,0,B|404:241|371:237|384:183,1,108,8|0,0:0|2:0,0:0:0:0:
385,183,25212,6,0,P|368:211|361:248,1,53.9999983520508,4|0,0:2|0:0,0:0:0:0:
290,333,25462,2,0,P|283:280|249:238,1,107.999996704102,8|4,0:0|0:3,0:0:0:0:
100,277,25837,2,0,P|153:282|195:315,1,107.999996704102,8|0,0:0|0:0,0:0:0:0:
170,122,26212,6,0,L|162:223,1,72,8|0,0:0|0:0,0:0:0:0:
244,65,26462,1,4,0:3:0:0:
156,206,26587,2,0,L|151:68,1,125.999996154785,4|0,0:3|0:0,0:0:0:0:
339,54,26962,1,8,0:0:0:0:
339,54,27212,6,0,P|363:92|370:113,1,53.9999983520508,4|0,0:3|0:0,0:0:0:0:
490,143,27462,2,0,P|440:162|407:204,1,107.999996704102,8|4,0:0|0:3,0:0:0:0:
298,146,27837,1,8,0:0:0:0:
352,273,27962,2,0,P|328:235|321:214,1,53.9999983520508,4|0,0:3|0:0,0:0:0:0:
442,289,28212,5,8,0:0:0:0:
320,369,28337,2,0,L|398:359,1,62.9999980773926,2|0,0:2|0:0,0:0:0:0:
260,301,28587,2,0,B|223:318|223:318|122:299,1,144,8|4,0:0|0:3,0:0:0:0:
201,139,28962,2,0,L|212:223,1,80.9999975280763,4|0,0:2|0:0,0:0:0:0:
24,304,29212,6,0,P|28:277|36:251,1,53.9999983520508,4|0,0:3|0:0,0:0:0:0:
96,108,29462,2,0,P|118:157|123:211,1,107.999996704102,8|4,0:0|0:3,0:0:0:0:
32,20,29837,2,0,P|10:69|5:122,1,107.999996704102,8|0,0:0|0:0,0:0:0:0:
212,27,30212,6,0,L|132:21,1,72,8|2,0:0|0:2,0:0:0:0:
278,109,30462,1,0,0:0:0:0:
135,41,30587,2,0,L|270:29,1,125.999996154785,8|4,0:0|0:3,0:0:0:0:
343,186,30962,1,8,0:0:0:0:
343,186,31212,6,0,P|382:170|404:167,1,53.9999983520508,4|0,0:3|0:0,0:0:0:0:
508,285,31462,2,0,P|472:264|391:264,1,107.999996704102,8|4,0:0|0:3,0:0:0:0:
298,326,31837,2,0,P|314:287|317:265,1,53.9999983520508,8|4,0:0|0:3,0:0:0:0:
215,347,32086,1,0,0:0:0:0:
384,341,32212,5,8,0:0:0:0:
227,194,32337,2,0,L|232:256,1,62.9999980773926,8|0,0:0|0:0,0:0:0:0:
82,368,32587,2,0,B|115:337|115:337|225:347,1,144,8|8,0:3|0:3,0:0:0:0:
130,211,32962,2,0,L|56:222,1,62.9999980773926,8|4,0:3|0:3,0:0:0:0:
245,101,33212,6,0,P|276:111|307:129,1,67.5,4|0,0:2|2:0,0:0:0:0:
315,137,33462,2,0,L|375:129,1,45,4|4,0:3|0:3,0:0:0:0:
390,46,33712,2,0,L|438:83,1,45,8|0,0:0|0:0,0:0:0:0:
505,32,33962,2,0,L|512:92,1,45,4|4,0:3|0:3,0:0:0:0:
467,155,34212,5,8,0:3:0:0:
510,233,34337,1,4,0:3:0:0:
436,284,34462,1,4,0:3:0:0:
479,362,34587,2,0,L|471:400,2,22.5,0|0|8,0:3|0:3|0:0,0:0:0:0:
424,272,34837,1,8,0:3:0:0:
331,319,34962,1,4,0:3:0:0:
251,252,35087,1,4,0:3:0:0:
167,312,35212,6,0,L|174:366,2,45,8|8|4,0:3|0:0|0:3,0:0:0:0:
75,263,35587,1,0,0:0:0:0:
75,263,35712,2,0,L|102:227,1,45,8|0,0:0|0:0,0:0:0:0:
74,126,35962,2,0,L|118:120,1,45,8|8,0:3|0:3,0:0:0:0:
206,33,36212,6,0,L|162:27,1,45,4|8,0:3|0:3,0:0:0:0:
329,41,36461,2,0,L|302:5,1,45,8|8,0:3|0:0,0:0:0:0:
439,93,36712,5,8,0:0:0:0:
273,126,36837,1,8,0:0:0:0:
273,126,36899,1,8,0:0:0:0:
273,126,36962,1,8,0:0:0:0:
418,0,37087,1,8,0:0:0:0:
496,175,37212,6,0,P|432:192|372:163,1,135,4|0,0:0|2:0,0:0:0:0:
372,164,37462,2,0,L|388:261,1,90,8|0,0:0|0:0,0:0:0:0:
298,384,37712,2,0,L|307:295,2,90,4|0|8,0:3|0:0|0:0,0:0:0:0:
386,252,38087,1,0,0:0:0:0:
219,282,38212,6,0,P|148:287|99:246,1,135,4|0,0:3|2:0,0:0:0:0:
101,249,38462,2,0,L|90:357,1,90,8|0,0:0|0:0,0:0:0:0:
177,201,38712,1,4,0:3:0:0:
24,202,38837,1,0,0:0:0:0:
163,113,38962,1,8,0:0:0:0:
101,249,39087,1,0,0:0:0:0:
266,204,39212,6,0,L|374:197,1,90,4|0,0:3|0:0,0:0:0:0:
322,30,39462,2,0,P|301:69|298:114,1,90,8|0,0:0|0:0,0:0:0:0:
455,223,39712,2,0,P|452:178|431:138,2,90,4|0|8,0:3|0:0|0:0,0:0:0:0:
287,313,40087,1,0,0:0:0:0:
287,313,40149,1,0,0:0:0:0:
287,313,40212,6,0,B|331:315|331:315|385:293,1,90,4|8,0:3|0:3,0:0:0:0:
159,145,40462,2,0,B|157:189|157:189|178:243,1,90,4|4,0:3|0:3,0:0:0:0:
341,115,40712,1,8,0:0:0:0:
189,322,40837,1,8,0:0:0:0:
341,115,40962,1,8,0:0:0:0:
189,322,41087,1,8,0:0:0:0:
352,218,41212,6,0,P|281:199|246:141,1,135,4|0,0:2|2:0,0:0:0:0:
248,150,41462,2,0,P|253:111|256:63,1,72,8|0,0:0|0:0,0:0:0:0:
140,130,41712,2,0,P|154:93|170:47,1,72,4|0,0:3|0:0,0:0:0:0:
40,83,41962,2,0,P|63:51|90:11,1,72,8|0,0:0|0:0,0:0:0:0:
72,217,42212,6,0,P|37:217|1:216,1,72,4|0,0:2|0:0,0:0:0:0:
161,251,42462,1,8,0:0:0:0:
88,310,42587,2,0,P|52:311|16:311,2,72,4|0|0,0:2|0:0|0:0,0:0:0:0:
249,213,42962,2,0,P|251:246|253:309,1,72,8|0,0:0|0:0,0:0:0:0:
480,316,43212,6,0,P|424:334|345:287,1,135,4|0,0:2|2:0,0:0:0:0:
357,303,43462,2,0,P|358:267|361:231,1,72,8|0,0:0|0:0,0:0:0:0:
249,213,43712,2,0,P|259:178|271:144,1,72,4|0,0:3|0:0,0:0:0:0:
160,115,43962,2,0,P|179:84|199:54,1,72,8|0,0:0|0:0,0:0:0:0:
385,42,44212,6,0,P|352:47|294:53,1,72,4|0,0:2|0:0,0:0:0:0:
479,56,44462,1,8,0:0:0:0:
369,138,44587,2,0,P|402:143|460:149,1,72,4|0,0:2|0:2,0:0:0:0:
334,230,44837,5,0,0:0:0:0:
507,281,44962,1,8,0:0:0:0:
369,138,45087,1,8,0:0:0:0:
416,335,45212,6,0,B|373:344|373:344|290:331,1,90,4|0,0:2|0:0,0:0:0:0:
143,276,45462,2,0,P|201:292|219:381,1,135,8|0,0:0|2:0,0:0:0:0:
226,357,45712,2,0,B|237:318|237:318|226:253,1,90,4|0,0:3|0:0,0:0:0:0:
53,188,45962,2,0,P|118:196|170:156,1,135,8|0,0:0|2:0,0:0:0:0:
170,156,46212,6,0,B|159:116|159:116|170:51,1,90,4|0,0:3|0:0,0:0:0:0:
323,39,46462,1,8,0:0:0:0:
251,107,46587,2,0,P|357:131|411:87,1,180,2|0,0:2|0:0,0:0:0:0:
512,234,46962,2,0,P|471:213|427:208,1,90,8|0,0:0|0:0,0:0:0:0:
277,299,47212,5,4,0:3:0:0:
323,217,47337,1,0,0:0:0:0:
234,379,47462,2,0,P|287:345|385:375,1,135,8|0,0:0|2:0,0:0:0:0:
355,352,47712,2,0,B|399:355|399:355|447:337,1,90,4|0,0:3|0:0,0:0:0:0:
172,291,47962,2,0,B|128:288|128:288|80:306,1,90,8|0,0:0|0:0,0:0:0:0:
307,204,48212,6,0,P|311:164|288:90,1,90,4|0,0:2|0:0,0:0:0:0:
113,139,48462,1,8,0:0:0:0:
113,139,48524,1,8,0:0:0:0:
113,139,48587,1,8,0:0:0:0:
217,164,48712,1,8,0:3:0:0:
52,231,48837,5,8,0:3:0:0:
217,164,48962,1,4,0:3:0:0:
197,342,49087,1,4,0:3:0:0:
52,231,49212,5,8,0:0:0:0:
47,328,49337,2,0,P|120:298|147:225,1,161.999995056153
312,141,49712,1,8,0:0:0:0:
344,232,49837,2,0,P|260:223|213:140,1,161.999995056153
147,54,50212,5,8,0:0:0:0:
120,149,50337,2,0,P|165:84|243:73,1,161.999995056153,0|4,0:0|0:3,0:0:0:0:
435,0,50712,2,0,P|442:35|445:84,1,80.9999975280763,8|0,0:0|0:0,0:0:0:0:
334,143,50962,2,0,P|336:102|344:62,1,80.9999975280763,4|0,0:3|0:0,0:0:0:0:
512,158,51212,5,8,0:0:0:0:
341,249,51712,5,8,0:0:0:0:
202,164,52212,5,8,0:0:0:0:
94,215,52712,5,8,0:0:0:0:
256,192,53212,12,8,54212,0:0:0:0:
120,150,54712,6,0,L|47:168,5,45.0000017166138,2|0|0|0|0|0,0:0|0:0|0:0|0:0|0:0|0:0,0:0:0:0:
17,238,54962,2,0,L|78:251,5,60,2|0|0|0|0|0,0:0|0:0|0:0|0:0|0:0|0:0,0:0:0:0:
127,314,55212,6,0,B|92:331|92:331|173:385|248:326,1,202.500007724762,4|0,0:0|2:0,0:0:0:0:
340,243,55462,2,0,P|285:269|245:314,1,121.500000463486,8|0,0:0|0:0,0:0:0:0:
386,152,55712,1,4,0:3:0:0:
342,345,55837,1,4,0:3:0:0:
386,152,55962,2,0,P|386:114|350:24,1,121.500000463486,8|0,0:0|0:0,0:0:0:0:
139,128,56212,6,0,B|217:168|292:107|292:107|254:89,1,202.500007724762,4|0,0:3|2:0,0:0:0:0:
179,1,56462,2,0,P|155:56|151:116,1,121.500000463486,8|4,0:0|0:3,0:0:0:0:
340,243,56712,1,4,0:3:0:0:
271,0,56837,1,4,0:3:0:0:
340,243,56962,2,0,P|287:229|210:238,1,121.500000463486,8|0,0:0|0:0,0:0:0:0:
55,154,57212,6,0,P|141:246|102:332,1,202.500007724762,4|0,0:2|2:0,0:0:0:0:
45,325,57462,2,0,P|13:276|-1:208,1,121.500000463486,8|0,0:0|0:3,0:0:0:0:
215,336,57712,1,4,0:3:0:0:
0,215,57837,1,4,0:3:0:0:
215,336,57962,2,0,P|268:322|345:331,1,121.500000463486,8|0,0:0|0:0,0:0:0:0:
470,177,58212,6,0,B|441:174|410:174|410:174|378:156|318:132|318:132|287:138|237:137,1,243.000000926971,4|8,0:2|0:0,0:0:0:0:
236,136,58587,1,0,0:0:0:0:
415,65,58712,1,4,0:3:0:0:
298,234,58837,1,8,0:0:0:0:
298,234,58899,1,8,0:0:0:0:
298,234,58962,2,0,P|237:240|179:225,1,121.500000463486,8|0,0:0|0:0,0:0:0:0:
0,296,59212,6,0,P|117:295|195:384,1,243.000000926971,4|8,0:0|0:0,0:0:0:0:
194,384,59587,1,0,0:0:0:0:
388,163,59712,2,0,P|333:185|297:233,1,121.500000463486,4|4,0:3|0:3,0:0:0:0:
49,59,59962,2,0,P|105:81|142:129,1,121.500000463486,8|0,0:0|0:0,0:0:0:0:
512,130,60212,6,0,P|394:130|316:41,1,243.000000926971,4|8,0:3|0:0,0:0:0:0:
316,41,60587,1,0,0:0:0:0:
255,317,60712,2,0,P|220:267|213:207,1,121.500000463486,4|4,0:3|0:3,0:0:0:0:
0,262,60962,2,0,P|10:202|48:155,1,121.500000463486,8|0,0:0|0:0,0:0:0:0:
332,237,61212,5,4,0:0:0:0:
112,241,61337,1,4,0:3:0:0:
218,71,61462,1,8,0:0:0:0:
317,240,61587,5,8,0:0:0:0:
121,199,61712,1,4,0:3:0:0:
247,68,61837,1,4,0:3:0:0:
301,240,61962,5,8,0:0:0:0:
219,161,62087,1,8,0:0:0:0:
219,161,62149,1,8,0:0:0:0:
219,161,62212,6,0,L|288:147,7,67.5000025749208,8|8|8|8|8|8|8|8,0:3|0:3|0:3|0:3|0:3|0:3|0:3|0:3,0:0:0:0:
120,198,62712,6,0,L|99:263,1,67.5000025749208,4|4,0:3|0:3,0:0:0:0:
141,107,62837,6,0,L|94:54,1,67.5000025749208,4|4,0:3|0:3,0:0:0:0:
199,253,62962,6,0,L|243:261,6,45,8|0|8|0|8|0|8,0:3|0:0|0:3|0:0|0:3|0:0|0:3,0:0:0:0:
143,350,63212,6,0,B|198:273|299:328|299:328|262:358,1,202.500007724762,4|0,0:0|2:0,0:0:0:0:
388,362,63462,2,0,P|383:302|347:254,1,121.500000463486,8|0,0:0|0:0,0:0:0:0:
478,106,63712,1,4,0:3:0:0:
278,344,63837,1,4,0:3:0:0:
478,106,63962,2,0,P|441:153|437:213,1,121.500000463486,8|0,0:0|0:0,0:0:0:0:
202,125,64212,6,0,B|181:141|181:141|282:196|337:119,1,202.500007724762,4|0,0:3|2:0,0:0:0:0:
405,51,64462,2,0,P|347:28|270:50,1,121.500000463486,8|4,0:0|0:3,0:0:0:0:
124,231,64712,1,4,0:3:0:0:
207,2,64837,1,4,0:3:0:0:
124,231,64962,2,0,P|87:183|83:123,1,121.500000463486,8|8,0:0|0:0,0:0:0:0:
339,220,65212,6,0,P|245:214|194:316,1,202.500007724762,4|0,0:2|2:0,0:0:0:0:
256,363,65462,2,0,P|321:341|367:300,1,121.500000463486,8|0,0:0|0:0,0:0:0:0:
124,231,65712,1,4,0:3:0:0:
360,307,65837,1,4,0:3:0:0:
253,98,65962,2,0,P|238:167|243:234,1,121.500000463486,8|0,0:0|0:0,0:0:0:0:
445,383,66212,6,0,B|450:342|461:300|461:300|443:253|418:221|418:221|429:185|433:121,1,243.000000926971,4|8,0:2|0:0,0:0:0:0:
430,154,66587,1,0,0:0:0:0:
512,24,66712,2,0,P|435:26|385:-3,1,121.500000463486,4|8,0:3|0:0,0:0:0:0:
304,17,66899,1,8,0:0:0:0:
304,17,66962,2,0,P|227:15|177:44,1,121.500000463486,8|0,0:0|0:0,0:0:0:0:
58,187,67212,6,0,P|175:188|253:99,1,243.000000926971,4|8,0:0|0:0,0:0:0:0:
252,99,67587,1,0,0:0:0:0:
425,324,67712,2,0,P|370:302|334:254,1,121.500000463486,4|4,0:3|0:3,0:0:0:0:
63,384,67962,2,0,P|119:362|156:314,1,121.500000463486,8|0,0:0|0:0,0:0:0:0:
475,113,68212,6,0,P|402:217|438:341,1,243.000000926971,4|8,0:3|0:0,0:0:0:0:
424,323,68587,1,0,0:0:0:0:
249,194,68712,2,0,P|242:264|267:327,1,121.500000463486,4|4,0:3|0:3,0:0:0:0:
172,44,68962,2,0,P|117:88|93:153,1,121.500000463486,8|8,0:0|0:0,0:0:0:0:
188,132,69149,1,8,0:0:0:0:
188,132,69212,6,0,P|240:102|310:109,1,121.500000463486,4|8,0:0|0:0,0:0:0:0:
477,205,69462,1,8,0:3:0:0:
477,205,69587,1,8,0:3:0:0:
387,27,69712,1,4,0:3:0:0:
387,27,69837,1,4,0:3:0:0:
264,193,69962,2,0,B|327:197|327:197|384:162,1,121.500000463486,4|4,0:3|0:3,0:0:0:0:
482,86,70212,5,8,0:0:0:0:
299,104,70337,1,4,0:3:0:0:
469,102,70462,1,8,0:3:0:0:
315,90,70587,1,4,0:3:0:0:
477,205,70712,5,8,0:3:0:0:
376,166,70837,1,4,0:3:0:0:
414,280,70962,1,4,0:3:0:0:
491,190,71087,1,0,0:0:0:0:
338,384,71212,6,0,B|358:314|305:324|333:244,1,144,4|0,0:2|0:0,0:0:0:0:
254,348,71587,1,0,0:0:0:0:
254,348,71649,1,0,0:0:0:0:
254,348,71712,2,0,P|214:348|159:338,1,72,8|0,0:0|0:0,0:0:0:0:
48,285,71962,2,0,P|84:280|120:281,1,72,4|0,0:3|0:0,0:0:0:0:
265,195,72212,5,4,0:3:0:0:
208,256,72337,2,0,P|184:193|224:121,1,144,8|0,0:0|0:0,0:0:0:0:
229,123,72649,1,0,0:0:0:0:
243,120,72712,2,0,P|252:84|251:38,1,72,8|0,0:0|0:0,0:0:0:0:
368,0,72962,2,0,P|359:34|358:70,1,72,0|0,0:0|0:0,0:0:0:0:
505,167,73212,6,0,P|438:145|370:173,1,144,4|0,0:2|0:0,0:0:0:0:
459,306,73587,1,0,0:0:0:0:
459,306,73649,1,0,0:0:0:0:
459,306,73712,2,0,P|453:267|439:220,1,72,8|0,0:0|0:0,0:0:0:0:
292,272,73962,2,0,P|328:272|363:264,1,72,4|0,0:3|0:0,0:0:0:0:
213,119,74212,5,4,0:3:0:0:
299,111,74337,2,0,P|274:176|209:202,1,144,8|0,0:0|0:0,0:0:0:0:
256,35,74712,2,0,P|286:26|351:31,1,72,8|0,0:0|0:0,0:0:0:0:
213,119,74962,1,8,0:0:0:0:
184,115,75024,1,8,0:0:0:0:
155,111,75087,1,8,0:0:0:0:
126,107,75149,1,8,0:0:0:0:
97,101,75212,6,0,L|109:239,1,135,4|0,0:0|2:0,0:0:0:0:
108,235,75462,2,0,P|67:230|16:208,1,90,8|0,0:0|0:0,0:0:0:0:
179,322,75712,2,0,P|138:326|87:349,1,90,4|4,0:3|0:3,0:0:0:0:
268,257,75962,2,0,P|309:261|360:284,1,90,8|0,0:0|0:0,0:0:0:0:
512,158,76212,6,0,P|437:193|366:170,1,135,4|0,0:3|2:0,0:0:0:0:
388,183,76462,2,0,P|389:143|414:77,1,90,8|0,0:0|0:0,0:0:0:0:
263,62,76712,2,0,P|306:52|346:31,1,90,4|4,0:3|0:3,0:0:0:0:
307,204,76962,2,0,P|277:171|239:148,1,90,8|8,0:3|0:3,0:0:0:0:
191,89,77149,1,8,0:3:0:0:
119,102,77212,6,0,B|79:112|79:112|-11:85,1,107.999996704102,12|0,0:0|0:0,0:0:0:0:
159,188,77462,1,8,0:0:0:0:
79,17,77587,1,0,0:0:0:0:
159,188,77712,6,0,B|122:208|122:208|29:205,1,107.999996704102,8|0,0:0|0:0,0:0:0:0:
219,260,77962,1,8,0:0:0:0:
175,36,78087,1,0,0:0:0:0:
219,260,78212,6,0,B|189:288|189:288|97:310,1,107.999996704102,8|0,0:0|0:0,0:0:0:0:
295,314,78462,1,8,0:0:0:0:
274,63,78587,1,0,0:0:0:0:
295,314,78712,6,0,B|273:349|273:349|191:393,1,107.999996704102,8|0,0:0|0:0,0:0:0:0:
382,346,78962,1,8,0:0:0:0:
374,91,79087,1,0,0:0:0:0:
382,346,79212,6,0,B|386:300|386:300|364:243,1,107.999996704102,4|4,0:2|0:3,0:0:0:0:
452,32,79462,1,8,0:0:0:0:
296,160,79587,1,4,0:3:0:0:
485,230,79712,1,4,0:3:0:0:
274,63,79837,1,8,0:0:0:0:
263,63,79899,1,8,0:0:0:0:
252,61,79962,1,8,0:0:0:0:
241,59,80024,1,8,0:0:0:0:
230,56,80087,6,0,P|199:62|140:78,1,67.5000025749208,8|8,0:0|0:0,0:0:0:0:
13,129,80212,2,0,P|44:135|103:151,1,67.5000025749208,8|8,0:3|0:3,0:0:0:0:
247,188,80337,6,0,P|216:194|157:210,1,67.5000025749208,8|8,0:3|0:3,0:0:0:0:
0,252,80462,2,0,P|31:258|90:274,1,67.5000025749208,4|4,0:3|0:3,0:0:0:0:
276,320,80587,6,0,P|245:326|186:342,1,67.5000025749208,4|4,0:3|0:3,0:0:0:0:
0,371,80712,1,8,0:0:0:0:
370,274,81212,6,0,P|314:231|209:250,1,161.999995056153,4|0,0:0|2:0,0:0:0:0:
227,238,81462,2,0,P|243:209|245:136,1,90,8|0,0:0|0:0,0:0:0:0:
211,35,81712,2,0,P|259:30|303:17,1,90,4|4,0:3|0:3,0:0:0:0:
134,134,81962,1,8,0:0:0:0:
134,134,82212,6,0,P|101:92|-14:85,1,161.999995056153,4|0,0:3|2:0,0:0:0:0:
0,78,82462,2,0,P|2:135|29:180,1,90,8|0,0:0|0:0,0:0:0:0:
145,258,82712,1,4,0:3:0:0:
145,258,82837,1,2,0:2:0:0:
231,101,82962,1,8,0:0:0:0:
231,101,83087,1,2,0:2:0:0:
387,278,83212,6,0,P|308:278|251:222,1,161.999995056153,4|0,0:3|2:0,0:0:0:0:
251,222,83462,2,0,P|265:265|260:309,1,90,8|0,0:0|0:0,0:0:0:0:
173,175,83712,2,0,P|129:166|93:139,1,90,4|4,0:3|0:3,0:0:0:0:
253,129,83962,2,0,P|282:95|323:77,1,90,8|0,0:0|0:0,0:0:0:0:
494,199,84212,6,0,B|466:120|523:129|492:41,1,161.999995056153,4|0,0:3|2:0,0:0:0:0:
492,41,84462,2,0,P|462:74|421:92,1,90,8|0,0:0|0:0,0:0:0:0:
243,17,84712,1,8,0:3:0:0:
323,77,84837,1,8,0:3:0:0:
245,139,84962,1,8,0:3:0:0:
161,85,85087,1,4,0:3:0:0:
161,85,85149,1,4,0:3:0:0:
161,85,85212,5,4,0:0:0:0:
27,191,85337,2,0,P|95:210|159:180,1,144,0|0,0:0|0:0,0:0:0:0:
245,139,85712,5,8,0:0:0:0:
225,308,85837,2,0,P|286:272|309:206,1,144,0|0,0:0|0:0,0:0:0:0:
357,125,86212,5,4,0:3:0:0:
462,258,86337,2,0,P|480:189|450:126,1,144,8|0,0:0|0:0,0:0:0:0:
417,53,86649,1,0,0:0:0:0:
417,53,86712,6,0,B|440:32|440:32|343:-8|264:54,1,215.999993408203,8|0,0:0|0:0,0:0:0:0:
265,52,87087,1,0,0:0:0:0:
95,4,87212,6,0,P|130:67|133:106,1,90,8|0,0:0|0:0,0:0:0:0:
357,125,87462,2,0,P|322:188|319:227,1,90,4|0,0:3|0:0,0:0:0:0:
62,140,87712,2,0,P|106:187|126:249,1,107.999996704102,8|0,0:0|0:0,0:0:0:0:
390,261,87962,2,0,P|346:308|326:370,1,107.999996704102,4|0,0:3|0:0,0:0:0:0:
88,359,88212,6,0,P|80:327|65:297,1,67.5000025749208,8|4,0:0|0:3,0:0:0:0:
319,204,88337,2,0,P|327:171|342:141,1,67.5000025749208,8|4,0:0|0:3,0:0:0:0:
122,226,88462,6,0,P|100:177|71:148,1,67.5000025749208,8|4,0:0|0:3,0:0:0:0:
285,71,88587,2,0,P|307:22|336:-7,1,67.5000025749208,8|4,0:0|0:3,0:0:0:0:
95,4,88712,6,0,P|145:44|217:253,1,270,4|0,0:0|2:0,0:0:0:0:
201,380,88962,5,12,0:0:0:0:
