osu file format v14

[General]
AudioFilename: audio.mp3
AudioLeadIn: 0
PreviewTime: 55087
Countdown: 0
SampleSet: Normal
StackLeniency: 0.7
Mode: 0
LetterboxInBreaks: 0
WidescreenStoryboard: 1

[Editor]
Bookmarks: 1212,5212,13212,21212,25212,33212,37212,45212,49212,55212,63212,71149,75212,81212,85212,88962
DistanceSpacing: 1.5
BeatDivisor: 4
GridSize: 32
TimelineZoom: 2.799999

[Metadata]
Title:Los! Los! Los!
TitleUnicode:Los! Los! Los!
Artist:Tanya Degurechaff (CV: Yuki Aoi)
ArtistUnicode:ターニャ・デグレチャフ(CV:悠木碧)
Creator:Milan-
Version:Advanced
Source:幼女戦記
Tags:appleeaterx pishifat Youjo Senki Saga of Tanya the Evil ED ending TV Size yuuki losloslos
BeatmapID:1324811
BeatmapSetID:625302

[Difficulty]
HPDrainRate:3
CircleSize:3
OverallDifficulty:4
ApproachRate:6
SliderMultiplier:1.1
SliderTickRate:1

[Events]
//Background and Video events
0,0,"bhg.jpg",0,0
//Break Periods
//Storyboard Layer 0 (Background)
//Storyboard Layer 1 (Fail)
//Storyboard Layer 2 (Pass)
//Storyboard Layer 3 (Foreground)
//Storyboard Sound Samples

[TimingPoints]
1212,250,4,2,1,40,1,0
4837,-100,4,2,1,60,0,0
4899,-100,4,2,1,5,0,0
5212,-166.666666666667,4,1,1,50,0,0
9212,-166.666666666667,4,1,1,60,0,0
11212,-125,4,1,1,40,0,0
11462,-125,4,1,1,45,0,0
11712,-125,4,1,1,50,0,0
11962,-125,4,1,1,55,0,0
12212,-125,4,1,1,60,0,0
12462,-125,4,1,1,65,0,0
12712,-125,4,1,1,70,0,0
13024,-125,4,1,1,60,0,0
13087,-125,4,1,1,50,0,0
13212,-100,4,1,1,75,0,0
17462,-100,4,1,1,55,0,0
17587,-100,4,1,1,75,0,0
17774,-100,4,1,1,55,0,0
17899,-100,4,1,1,75,0,0
18024,-100,4,1,1,55,0,0
18149,-100,4,1,1,75,0,0
18524,-100,4,1,1,55,0,0
18649,-100,4,1,1,75,0,0
18774,-100,4,1,1,55,0,0
18899,-100,4,1,1,75,0,0
19024,-100,4,1,1,55,0,0
19149,-100,4,1,1,75,0,0
19587,-100,4,1,1,90,0,0
19712,-100,4,1,1,75,0,0
20587,-100,4,1,1,90,0,0
20712,-100,4,1,1,75,0,0
21212,-166.666666666667,4,1,1,60,0,0
23212,-125,4,1,1,60,0,0
25212,-166.666666666667,4,1,1,60,0,0
33212,-200,4,1,1,60,0,0
36587,-200,4,1,1,45,0,0
36712,-200,4,1,1,60,0,0
37212,-100,4,1,1,70,0,0
41212,-125,4,1,1,70,0,0
45212,-100,4,1,1,70,0,0
49212,-125,4,1,1,70,0,0
54712,-111.111111111111,4,2,1,40,0,0
54962,-111.111111111111,4,2,1,50,0,0
55212,-100,4,1,1,80,0,1
57087,-100,4,1,1,60,0,1
57212,-100,4,1,1,80,0,1
58837,-100,4,1,1,60,0,1
58962,-100,4,1,1,80,0,1
62274,-100,4,1,1,60,0,1
62462,-100,4,1,1,80,0,1
62524,-100,4,1,1,60,0,1
62712,-100,4,1,1,80,0,1
62774,-100,4,1,1,60,0,1
62962,-100,4,1,1,80,0,1
63024,-100,4,1,1,60,0,1
63087,-100,4,1,1,80,0,1
63149,-100,4,1,1,60,0,0
63212,-100,4,1,1,80,0,1
65087,-100,4,1,1,60,0,1
65212,-100,4,1,1,80,0,1
66837,-100,4,1,1,60,0,1
66962,-100,4,1,1,80,0,1
71212,-125,4,1,1,80,0,0
74962,-100,4,1,1,60,0,0
75212,-100,4,1,1,80,0,1
77024,-100,4,1,1,50,0,1
77212,-100,4,1,1,80,0,1
79212,-100,4,1,1,70,0,1
80024,-100,4,1,1,50,0,1
80212,-100,4,1,1,70,0,1
80274,-100,4,1,1,50,0,1
80462,-100,4,1,1,70,0,1
80524,-100,4,1,1,50,0,1
80712,-100,4,1,1,60,0,1
81149,-100,4,1,1,5,0,1
81212,-100,4,1,1,80,0,0
85212,-125,4,1,1,80,0,0
88712,-100,4,1,1,80,0,0
89024,-100,4,1,1,5,0,0

[Colours]
Combo1 : 217,213,253
Combo2 : 112,146,186
Combo3 : 167,243,236
Combo4 : 198,151,104

[HitObjects]
256,192,1212,12,2,2962,0:0:0:0:
256,192,3212,12,8,4837,0:3:0:0:
414,211,5212,5,4,0:3:0:0:
334,270,5462,1,0,0:0:0:0:
244,228,5712,1,2,0:2:0:0:
324,170,5962,1,2,0:2:0:0:
414,211,6212,2,0,L|436:286,1,65.9999979858399,0|0,0:0|0:0,0:0:0:0:
334,270,6712,2,0,L|352:333,1,65.9999979858399,2|2,0:2|0:2,0:0:0:0:
253,323,7212,5,4,0:3:0:0:
155,305,7462,1,0,0:0:0:0:
58,283,7712,1,2,0:2:0:0:
124,210,7962,1,2,0:2:0:0:
59,135,8212,2,0,L|51:63,1,65.9999979858399,0|0,0:0|0:0,0:0:0:0:
149,85,8712,2,0,L|157:13,1,65.9999979858399,2|2,0:2|0:3,0:0:0:0:
246,60,9212,5,12,0:0:0:0:
221,156,9462,1,8,0:0:0:0:
316,131,9712,1,8,0:0:0:0:
291,227,9962,1,8,0:0:0:0:
195,252,10212,5,8,0:0:0:0:
221,156,10462,1,8,0:0:0:0:
246,60,10712,1,8,0:0:0:0:
151,88,10962,1,8,0:0:0:0:
125,181,11212,6,0,P|93:186|41:220,1,88,8|8,0:0|0:0,0:0:0:0:
33,310,11712,2,0,P|65:305|117:271,1,88,8|8,0:0|0:0,0:0:0:0:
208,284,12212,6,0,P|213:316|247:368,1,88,8|8,0:0|0:0,0:0:0:0:
338,370,12712,2,0,P|333:338|299:286,1,88,12|8,0:0|0:0,0:0:0:0:
262,176,13212,6,0,L|382:149,1,110,4|8,0:0|0:0,0:0:0:0:
418,41,13712,2,0,L|310:65,1,110,4|8,0:3|0:0,0:0:0:0:
189,63,14212,6,0,L|81:87,1,110,4|8,0:3|0:0,0:0:0:0:
23,146,14587,2,0,P|11:183|29:255,1,110,0|0,0:0|0:0,0:0:0:0:
93,295,14962,1,8,0:0:0:0:
186,218,15212,6,0,L|293:193,1,110,4|8,0:3|0:0,0:0:0:0:
405,238,15712,2,0,P|407:270|400:318,1,55,4|0,0:3|0:0,0:0:0:0:
333,334,15962,1,8,0:0:0:0:
210,321,16212,6,0,P|189:284|191:202,1,110,4|8,0:3|0:0,0:0:0:0:
155,140,16587,2,0,P|176:103|174:21,1,110,0|0,0:0|0:0,0:0:0:0:
258,12,16962,1,8,0:0:0:0:
268,132,17212,6,0,L|440:117,1,165,4|8,0:0|0:0,0:0:0:0:
418,201,17712,2,0,L|309:211,1,110,8|8,1:0|1:0,0:0:0:0:
189,189,18212,6,0,L|17:174,1,165,4|4,0:3|0:3,0:0:0:0:
39,258,18712,2,0,L|148:268,1,110,8|8,0:0|0:0,0:0:0:0:
269,265,19212,6,0,P|344:294|364:329,1,110,8|8,0:0|0:3,0:0:0:0:
416,257,19587,2,0,P|491:228|511:193,1,110,12|4,0:3|0:3,0:0:0:0:
428,174,19962,1,4,0:3:0:0:
320,117,20212,6,0,P|245:146|225:181,1,110,8|8,0:0|0:3,0:0:0:0:
173,109,20587,2,0,P|98:80|78:45,1,110,12|4,0:3|0:3,0:0:0:0:
161,26,20962,1,4,0:3:0:0:
280,0,21212,5,4,0:3:0:0:
400,27,21462,1,0,0:2:0:0:
365,120,21712,1,0,0:0:0:0:
463,112,21962,1,0,0:0:0:0:
423,202,22212,2,0,L|416:278,1,65.9999979858399,0|0,0:2|0:2,0:0:0:0:
324,227,22712,2,0,L|317:303,1,65.9999979858399,0|0,0:0|0:0,0:0:0:0:
224,247,23212,6,0,P|191:275|149:286,1,88,4|4,0:0|0:3,0:0:0:0:
148,187,23712,2,0,P|114:158|73:148,1,88,8|8,0:0|0:0,0:0:0:0:
112,59,24212,6,0,P|145:30|187:20,1,88,4|4,0:3|0:3,0:0:0:0:
226,108,24712,2,0,P|259:136|301:146,1,88,8|8,0:0|0:0,0:0:0:0:
388,96,25212,6,0,L|378:30,2,65.9999979858399,4|8|4,0:2|0:0|0:3,0:0:0:0:
388,96,25837,1,8,0:0:0:0:
381,234,26212,2,0,L|394:335,2,98.9999969787599,8|4|8,0:0|0:3|0:0,0:0:0:0:
290,253,27212,6,0,L|300:319,2,65.9999979858399,4|8|4,0:3|0:0|0:3,0:0:0:0:
290,253,27837,1,8,0:0:0:0:
280,119,28212,2,0,L|268:42,1,65.9999979858399,8|0,0:0|0:0,0:0:0:0:
269,53,28587,2,0,P|220:71|165:65,1,98.9999969787599,8|4,0:0|0:2,0:0:0:0:
136,152,29212,6,0,L|69:162,2,65.9999979858399,4|8|4,0:3|0:0|0:3,0:0:0:0:
136,152,29837,1,8,0:0:0:0:
264,203,30212,2,0,L|365:190,2,98.9999969787599,8|8|8,0:0|0:0|0:0,0:0:0:0:
300,288,31212,6,0,L|366:277,2,65.9999979858399,4|8|4,0:3|0:0|0:3,0:0:0:0:
300,288,31837,1,8,0:0:0:0:
228,178,32212,2,0,P|228:134|247:77,2,98.9999969787599,8|8|8,0:0|0:3|0:3,0:0:0:0:
151,290,33212,6,0,L|30:276,1,110,4|8,0:2|0:0,0:0:0:0:
20,197,33962,1,4,0:3:0:0:
56,122,34212,2,0,B|96:121|118:116|118:116|132:125|132:125|157:91|213:79,1,165,8|4,0:3|0:3,0:0:0:0:
275,39,35212,6,0,L|299:156,1,110,8|8,0:3|0:0,0:0:0:0:
377,166,35962,1,8,0:3:0:0:
359,247,36212,2,0,L|335:364,1,110,4|8,0:3|0:0,0:0:0:0:
240,293,36962,1,8,0:0:0:0:
154,369,37212,6,0,P|99:374|49:352,1,110,4|8,0:0|0:0,0:0:0:0:
47,231,37712,2,0,P|96:209|151:213,1,110,4|8,0:3|0:0,0:0:0:0:
271,201,38212,6,0,P|325:205|375:183,1,110,4|8,0:3|0:0,0:0:0:0:
405,65,38712,2,0,P|355:43|300:47,1,110,4|8,0:3|0:0,0:0:0:0:
197,108,39212,6,0,L|190:53,2,55,4|0|8,0:3|0:0|0:0,0:0:0:0:
271,201,39712,2,0,L|256:316,1,110,4|8,0:3|0:0,0:0:0:0:
181,338,40087,1,0,0:0:0:0:
181,338,40212,6,0,P|128:360|64:346,1,110,4|4,0:3|0:3,0:0:0:0:
33,234,40712,2,0,L|21:305,2,55,8|8|8,0:0|0:0|0:0,0:0:0:0:
77,163,41087,1,8,0:0:0:0:
77,163,41212,6,0,L|174:152,1,88,4|8,0:2|0:0,0:0:0:0:
204,28,41712,2,0,L|301:39,1,88,4|8,0:3|0:0,0:0:0:0:
282,171,42212,2,0,L|379:160,1,88,4|8,0:2|0:0,0:0:0:0:
411,56,42712,2,0,L|508:67,1,88,0|8,0:0|0:0,0:0:0:0:
468,174,43212,6,0,P|479:220|471:266,1,88,4|8,0:2|0:0,0:0:0:0:
376,262,43712,2,0,P|365:308|373:354,1,88,4|8,0:3|0:0,0:0:0:0:
276,369,44212,2,0,P|281:325|271:282,1,88,4|8,0:2|0:0,0:0:0:0:
187,333,44713,2,0,P|176:290|181:247,1,88,0|8,0:0|0:0,0:0:0:0:
180,247,45087,1,8,0:0:0:0:
180,247,45212,6,0,L|208:195,2,55,4|0|8,0:2|0:0|0:0,0:0:0:0:
100,155,45712,2,0,L|34:148,2,55,4|0|8,0:3|0:0|0:0,0:0:0:0:
174,58,46212,2,0,L|299:66,1,110,4|8,0:3|0:0,0:0:0:0:
306,145,46587,2,0,L|431:153,1,110,2|0,0:2|0:0,0:0:0:0:
455,80,46962,1,8,0:0:0:0:
501,191,47212,6,0,L|497:245,2,55,4|0|8,0:3|0:0|0:0,0:0:0:0:
402,261,47712,2,0,L|405:315,2,55,4|0|8,0:3|0:0|0:0,0:0:0:0:
286,299,48212,6,0,P|213:318|144:259,1,165,4|8,0:2|0:0,0:0:0:0:
227,236,48712,1,8,0:3:0:0:
284,51,49212,6,0,P|307:87|291:187,1,132,8|0,0:0|0:0,0:0:0:0:
226,122,49712,2,0,P|197:63|209:0,1,132,8|0,0:0|0:0,0:0:0:0:
284,51,50212,6,0,P|320:28|420:44,1,132,8|4,0:0|0:3,0:0:0:0:
490,28,50712,2,0,P|436:64|415:125,1,132,8|0,0:0|0:0,0:0:0:0:
471,188,51212,5,8,0:0:0:0:
287,250,51712,5,8,0:0:0:0:
122,240,52212,5,8,0:0:0:0:
25,110,52712,5,8,0:0:0:0:
256,192,53212,12,8,54212,0:0:0:0:
283,224,55212,6,0,L|163:251,1,110,4|8,0:0|0:0,0:0:0:0:
122,356,55712,2,0,L|230:332,1,110,4|8,0:3|0:0,0:0:0:0:
349,316,56212,2,0,L|457:292,1,110,4|8,0:3|0:0,0:0:0:0:
499,222,56587,2,0,P|511:185|493:113,1,110,4|4,0:3|0:3,0:0:0:0:
412,119,56962,1,8,0:0:0:0:
311,185,57212,6,0,L|204:210,1,110,4|8,0:2|0:0,0:0:0:0:
100,178,57712,2,0,P|98:146|105:98,1,55,4|4,0:3|0:3,0:0:0:0:
148,57,57962,1,8,0:0:0:0:
256,2,58212,6,0,P|277:39|275:121,1,110,4|8,0:2|0:0,0:0:0:0:
311,185,58587,2,0,P|290:222|292:304,1,110,0|8,0:0|0:0,0:0:0:0:
233,350,58962,1,8,0:0:0:0:
353,352,59212,6,0,L|484:364,1,110,4|8,0:0|0:0,0:0:0:0:
414,250,59712,2,0,L|469:255,2,55,4|4|8,0:3|0:3|0:0,0:0:0:0:
311,185,60212,6,0,L|180:197,1,110,4|8,0:3|0:0,0:0:0:0:
133,145,60587,2,0,P|118:204|147:268,1,110,0|4,0:0|0:3,0:0:0:0:
211,279,60962,1,8,0:0:0:0:
139,376,61212,6,0,L|260:364,1,110,4|8,0:0|0:0,0:0:0:0:
296,297,61587,2,0,L|417:309,1,110,8|4,0:0|0:3,0:0:0:0:
492,333,61962,1,8,0:0:0:0:
439,223,62212,6,0,B|444:190|440:160|440:160|462:146|486:136|486:136|478:123|467:81,1,165,8|8,0:3|0:3,0:0:0:0:
476,3,62712,2,0,B|426:21|426:21|360:8,1,110,4|8,0:3|0:3,0:0:0:0:
267,73,63212,6,0,P|234:46|147:46,1,110,4|8,0:0|0:0,0:0:0:0:
91,131,63712,2,0,P|131:168|185:176,1,110,4|8,0:3|0:0,0:0:0:0:
284,244,64212,6,0,P|338:240|382:209,1,110,4|8,0:3|0:0,0:0:0:0:
446,155,64587,2,0,L|424:41,1,110,4|4,0:3|0:3,0:0:0:0:
346,21,64962,1,8,0:0:0:0:
253,98,65212,6,0,L|136:82,1,110,4|8,0:2|0:0,0:0:0:0:
116,200,65712,2,0,P|148:202|196:195,1,55,4|4,0:3|0:3,0:0:0:0:
248,228,65962,1,8,0:0:0:0:
320,324,66212,6,0,P|341:287|339:205,1,110,4|8,0:2|0:0,0:0:0:0:
405,163,66587,2,0,P|384:126|386:44,1,110,0|8,0:0|0:0,0:0:0:0:
308,19,66962,1,8,0:0:0:0:
204,81,67212,6,0,L|73:69,1,110,4|8,0:0|0:0,0:0:0:0:
98,192,67712,2,0,L|44:188,2,55,4|4|8,0:3|0:3|0:0,0:0:0:0:
218,210,68212,6,0,L|349:198,1,110,4|8,0:3|0:0,0:0:0:0:
395,152,68587,2,0,P|409:204|394:256,1,110,0|4,0:0|0:3,0:0:0:0:
316,287,68962,1,8,0:0:0:0:
408,365,69212,6,0,L|287:377,1,110,4|8,0:0|0:3,0:0:0:0:
234,322,69587,2,0,L|113:310,1,110,8|4,0:3|0:3,0:0:0:0:
49,346,69962,1,4,0:3:0:0:
95,234,70212,6,0,B|90:201|94:171|94:171|72:157|48:147|48:147|56:134|67:92,1,165,8|4,0:0|0:3,0:0:0:0:
12,35,70712,2,0,B|62:17|62:17|119:28|119:28|177:14,1,165,8|0,0:3|0:0,0:0:0:0:
248,47,71212,5,4,0:2:0:0:
415,144,71712,2,0,L|413:243,2,88,8|4|4,0:0|0:3|0:3,0:0:0:0:
415,144,72337,2,0,P|365:171|285:161,1,132,8|8,0:0|0:0,0:0:0:0:
194,161,72962,1,0,0:0:0:0:
141,242,73212,5,4,0:2:0:0:
333,356,73712,2,0,L|332:269,2,88,8|4|4,0:0|0:3|0:3,0:0:0:0:
333,356,74337,2,0,P|288:342|192:360,1,132,8|8,0:0|0:0,0:0:0:0:
84,349,74962,1,8,0:0:0:0:
141,242,75212,6,0,L|121:133,1,110,4|8,0:0|0:0,0:0:0:0:
239,157,75712,2,0,L|259:48,1,110,4|8,0:3|0:0,0:0:0:0:
342,136,76212,6,0,P|391:155|461:144,1,110,4|8,0:3|0:0,0:0:0:0:
436,233,76587,2,0,P|460:279|450:339,1,110,0|4,0:0|0:3,0:0:0:0:
380,294,76962,1,8,0:3:0:0:
263,261,77212,6,0,L|184:246,2,55,12|0|8,0:0|0:0|0:0,0:0:0:0:
287,146,77712,2,0,L|341:135,2,55,8|0|8,0:0|0:0|0:0,0:0:0:0:
167,166,78212,6,0,L|88:151,2,55,8|0|8,0:0|0:0|0:0,0:0:0:0:
191,51,78712,2,0,L|245:40,2,55,8|0|8,0:0|0:0|0:0,0:0:0:0:
72,76,79212,6,0,P|30:141|66:237,1,165,4|4,0:2|0:3,0:0:0:0:
132,230,79712,2,0,B|67:222|30:293|30:293|71:324,1,165,4|8,0:3|0:0,0:0:0:0:
142,312,80212,2,0,B|205:301|219:230|219:230|238:224|263:229,1,165,8|4,0:3|0:3,0:0:0:0:
332,185,80712,1,8,0:0:0:0:
493,364,81212,6,0,L|375:355,1,110,4|8,0:0|0:0,0:0:0:0:
402,236,81712,2,0,L|511:244,1,110,4|8,0:3|0:0,0:0:0:0:
499,123,82212,2,0,L|381:114,1,110,4|8,0:3|0:0,0:0:0:0:
279,164,82712,2,0,P|273:199|276:225,2,55,4|2|8,0:3|0:2|0:0,0:0:0:0:
225,55,83212,6,0,L|115:46,1,110,4|8,0:3|0:0,0:0:0:0:
50,149,83712,2,0,L|160:158,1,110,4|8,0:3|0:0,0:0:0:0:
193,274,84212,2,0,L|83:265,1,110,4|8,0:3|0:0,0:0:0:0:
34,376,84712,1,8,0:3:0:0:
227,361,85212,6,0,B|279:324|279:324|297:251,1,132,4|0,0:0|0:0,0:0:0:0:
295,257,85712,2,0,B|243:220|243:220|226:153,1,132,8|0,0:0|0:0,0:0:0:0:
226,153,86212,2,0,B|278:116|278:116|296:43,1,132,4|0,0:3|0:0,0:0:0:0:
294,49,86712,1,8,0:0:0:0:
459,151,87212,6,0,B|407:188|407:188|389:261,1,132,8|0,0:0|0:0,0:0:0:0:
390,254,87712,2,0,B|373:320|373:320|321:357,1,132,8|0,0:0|0:0,0:0:0:0:
321,357,88212,2,0,B|254:340|254:340|217:288,1,132,8|8,0:0|0:0,0:0:0:0:
217,288,88712,6,0,B|172:310|172:310|107:305,1,110,4|12,0:0|0:0,0:0:0:0:
