osu file format v14

[General]
AudioFilename: audio.mp3
AudioLeadIn: 0
PreviewTime: 55087
Countdown: 0
SampleSet: Normal
StackLeniency: 0.7
Mode: 0
LetterboxInBreaks: 0
WidescreenStoryboard: 1

[Editor]
Bookmarks: 1212,5212,13212,21212,25212,33212,37212,45212,49212,55212,63212,71149,75212,81212,85212,88962
DistanceSpacing: 1.5
BeatDivisor: 2
GridSize: 32
TimelineZoom: 1.4

[Metadata]
Title:Los! Los! Los!
TitleUnicode:Los! Los! Los!
Artist:Tanya Degurechaff (CV: Yuki Aoi)
ArtistUnicode:ターニャ・デグレチャフ(CV:悠木碧)
Creator:Milan-
Version:Normal
Source:幼女戦記
Tags:appleeaterx pishifat Youjo Senki Saga of Tanya the Evil ED ending TV Size yuuki losloslos
BeatmapID:1324813
BeatmapSetID:625302

[Difficulty]
HPDrainRate:2
CircleSize:2
OverallDifficulty:2
ApproachRate:4
SliderMultiplier:0.6
SliderTickRate:1

[Events]
//Background and Video events
0,0,"bhg.jpg",0,0
//Break Periods
//Storyboard Layer 0 (Background)
//Storyboard Layer 1 (Fail)
//Storyboard Layer 2 (Pass)
//Storyboard Layer 3 (Foreground)
//Storyboard Sound Samples

[TimingPoints]
1212,250,4,2,1,40,1,0
4837,-100,4,2,1,60,0,0
4899,-100,4,2,1,5,0,0
5212,-100,4,1,1,50,0,0
9212,-100,4,1,1,60,0,0
11212,-100,4,1,1,40,0,0
11462,-100,4,1,1,45,0,0
11712,-100,4,1,1,50,0,0
11962,-100,4,1,1,55,0,0
12212,-100,4,1,1,60,0,0
12462,-100,4,1,1,65,0,0
12712,-100,4,1,1,70,0,0
13024,-100,4,1,1,60,0,0
13087,-100,4,1,1,50,0,0
13212,-100,4,1,1,75,0,0
17462,-100,4,1,1,55,0,0
17587,-100,4,1,1,75,0,0
17774,-100,4,1,1,55,0,0
17899,-100,4,1,1,75,0,0
18024,-100,4,1,1,55,0,0
18149,-100,4,1,1,75,0,0
18524,-100,4,1,1,55,0,0
18649,-100,4,1,1,75,0,0
18774,-100,4,1,1,55,0,0
18899,-100,4,1,1,75,0,0
19024,-100,4,1,1,55,0,0
19149,-100,4,1,1,75,0,0
19587,-100,4,1,1,90,0,0
19712,-100,4,1,1,75,0,0
20587,-100,4,1,1,90,0,0
20712,-100,4,1,1,75,0,0
21212,-100,4,1,1,60,0,0
23212,-100,4,1,1,60,0,0
25212,-100,4,1,1,60,0,0
33212,-100,4,1,1,60,0,0
36587,-100,4,1,1,45,0,0
36712,-100,4,1,1,60,0,0
37212,-100,4,1,1,70,0,0
41212,-100,4,1,1,70,0,0
45212,-100,4,1,1,70,0,0
49212,-100,4,1,1,70,0,0
54712,-100,4,2,1,40,0,0
54962,-100,4,2,1,50,0,0
55212,-100,4,1,1,80,0,1
57087,-100,4,1,1,60,0,1
57212,-100,4,1,1,80,0,1
58837,-100,4,1,1,60,0,1
58962,-100,4,1,1,80,0,1
62274,-100,4,1,1,60,0,1
62462,-100,4,1,1,80,0,1
62524,-100,4,1,1,60,0,1
62712,-100,4,1,1,80,0,1
62774,-100,4,1,1,60,0,1
62962,-100,4,1,1,80,0,1
63024,-100,4,1,1,60,0,1
63087,-100,4,1,1,80,0,1
63149,-100,4,1,1,60,0,0
63212,-100,4,1,1,80,0,1
65087,-100,4,1,1,60,0,1
65212,-100,4,1,1,80,0,1
66837,-100,4,1,1,60,0,1
66962,-100,4,1,1,80,0,1
71212,-100,4,1,1,80,0,0
74962,-100,4,1,1,60,0,0
75212,-100,4,1,1,80,0,1
77024,-100,4,1,1,50,0,1
77212,-100,4,1,1,80,0,1
79212,-100,4,1,1,70,0,1
80024,-100,4,1,1,50,0,1
80212,-100,4,1,1,70,0,1
80274,-100,4,1,1,50,0,1
80462,-100,4,1,1,70,0,1
80524,-100,4,1,1,50,0,1
80712,-100,4,1,1,60,0,1
81149,-100,4,1,1,5,0,1
81212,-100,4,1,1,80,0,0
85212,-100,4,1,1,80,0,0
88712,-100,4,1,1,80,0,0
89024,-100,4,1,1,5,0,0

[Colours]
Combo1 : 217,213,253
Combo2 : 73,107,150
Combo3 : 167,243,236
Combo4 : 94,146,208

[HitObjects]
145,350,5212,6,0,P|100:354|27:313,1,120,4|2,0:3|0:2,0:0:0:0:
87,149,6212,2,0,P|132:145|205:186,1,120,0|2,0:0|0:2,0:0:0:0:
348,275,7212,6,0,L|344:146,1,120,4|2,0:3|0:2,0:0:0:0:
491,51,8212,2,0,L|487:170,1,120,0|2,0:0|0:2,0:0:0:0:
483,350,9212,5,12,0:0:0:0:
332,250,9712,1,8,0:0:0:0:
183,350,10212,1,12,0:0:0:0:
32,250,10712,1,8,0:0:0:0:
179,147,11212,2,0,P|192:109|188:29,2,120,8|8|8,0:0|0:0|0:0,0:0:0:0:
289,288,12712,2,0,L|279:218,1,60,12|8,0:0|0:0,0:0:0:0:
319,147,13212,6,0,P|367:125|445:128,1,120,4|4,0:0|0:3,0:0:0:0:
485,197,13962,1,8,0:0:0:0:
418,258,14212,2,0,P|389:303|383:371,1,120,4|4,0:3|0:3,0:0:0:0:
241,254,15212,6,0,P|187:277|128:272,1,120,4|4,0:3|0:3,0:0:0:0:
89,246,15837,1,0,0:3:0:0:
51,220,15962,2,0,L|56:154,1,60,8|4,0:0|0:3,0:0:0:0:
159,12,16712,2,0,L|169:77,1,60,8|8,0:0|0:0,0:0:0:0:
227,140,17212,6,0,B|287:142|287:142|346:113,1,120,4|8,0:0|1:0,0:0:0:0:
428,136,17962,1,8,1:0:0:0:
468,216,18212,2,0,B|414:242|414:242|354:240,1,120,4|8,0:3|0:0,0:0:0:0:
179,282,19212,6,0,L|195:377,2,90,8|12|4,0:0|0:3|0:3,0:0:0:0:
107,226,20212,2,0,L|123:87,1,120,8|8,0:0|0:3,0:0:0:0:
285,34,21212,5,4,0:3:0:0:
435,132,21712,1,0,0:0:0:0:
311,263,22212,1,0,0:2:0:0:
461,361,22712,1,0,0:0:0:0:
311,263,23212,6,0,L|241:271,1,60,4|4,0:0|0:3,0:0:0:0:
166,298,23712,2,0,L|96:290,1,60,8|8,0:0|0:0,0:0:0:0:
27,247,24212,6,0,P|16:180|44:116,1,120,4|8,0:3|0:0,0:0:0:0:
116,98,24962,1,8,0:0:0:0:
189,150,25212,6,0,B|244:121|244:121|344:121,1,150,4|8,0:2|0:0,0:0:0:0:
420,222,26212,2,0,L|433:316,2,90,8|4|8,0:0|0:3|0:0,0:0:0:0:
332,241,27212,6,0,B|277:270|277:270|177:270,1,150,4|8,0:3|0:0,0:0:0:0:
101,169,28212,2,0,L|88:75,2,90,8|8|4,0:0|0:0|0:2,0:0:0:0:
190,172,29212,6,0,B|208:112|208:112|279:41,1,150,4|8,0:3|0:0,0:0:0:0:
404,70,30212,2,0,L|498:57,2,90,8|8|8,0:0|0:0|0:0,0:0:0:0:
343,136,31212,6,0,L|358:275,1,120,4|4,0:3|0:3,0:0:0:0:
354,300,31837,2,0,P|295:295|246:313,2,90,8|8|8,0:0|0:0|0:3,0:0:0:0:
265,92,33212,6,0,L|130:79,1,120,4|8,0:2|0:0,0:0:0:0:
35,223,34212,2,0,B|97:204|97:204|152:219|152:219|228:195,1,180,8|4,0:3|0:3,0:0:0:0:
297,201,35212,6,0,L|415:174,1,120,8|8,0:3|0:0,0:0:0:0:
388,351,36212,2,0,B|326:332|326:332|271:347|271:347|195:323,1,180,4|8,0:3|0:0,0:0:0:0:
126,316,37212,6,0,L|116:241,1,60,4|8,0:0|0:0,0:0:0:0:
56,190,37712,2,0,L|82:114,1,60,4|8,0:3|0:0,0:0:0:0:
45,48,38212,2,0,P|81:37|166:29,1,120,4|4,0:3|0:3,0:0:0:0:
337,73,39212,6,0,L|300:127,1,60,4|8,0:3|0:0,0:0:0:0:
379,171,39712,2,0,L|376:232,1,60,4|8,0:3|0:0,0:0:0:0:
440,294,40212,2,0,B|376:295|376:295|325:333,1,120,4|8,0:3|0:0,0:0:0:0:
249,289,40962,1,8,0:0:0:0:
167,326,41212,6,0,L|39:304,1,120,4|4,0:2|0:3,0:0:0:0:
29,126,42212,2,0,L|147:146,1,120,4|0,0:2|0:0,0:0:0:0:
301,238,43212,6,0,L|429:216,1,120,4|4,0:2|0:3,0:0:0:0:
439,38,44212,2,0,L|320:58,1,120,4|0,0:2|0:0,0:0:0:0:
232,75,44962,1,8,0:0:0:0:
176,146,45212,6,0,L|187:224,1,60,4|8,0:2|0:0,0:0:0:0:
273,215,45712,2,0,L|262:293,1,60,4|8,0:3|0:0,0:0:0:0:
191,327,46212,2,0,L|80:319,2,90,4|2|8,0:3|0:2|0:0,0:0:0:0:
180,237,47212,6,0,L|169:159,1,60,4|8,0:3|0:0,0:0:0:0:
83,168,47712,2,0,L|94:90,1,60,4|8,0:3|0:0,0:0:0:0:
91,18,48212,2,0,L|-20:26,2,90,4|8|4,0:2|0:0|0:3,0:0:0:0:
170,60,49212,6,0,L|304:39,1,120,8|8,0:0|0:0,0:0:0:0:
442,135,50212,2,0,L|323:153,1,120,8|8,0:0|0:0,0:0:0:0:
163,235,51212,5,8,0:0:0:0:
335,287,51712,1,8,0:0:0:0:
163,342,52212,5,8,0:0:0:0:
2,293,52712,1,8,0:0:0:0:
163,235,53212,6,0,P|210:317|337:283,1,240,0|8,0:0|0:0,0:0:0:0:
88,23,55212,6,0,L|74:107,1,60,4|8,0:0|0:0,0:0:0:0:
166,100,55712,2,0,L|175:40,1,60,4|8,0:3|0:0,0:0:0:0:
264,37,56212,2,0,L|273:97,1,60,4|8,0:3|0:0,0:0:0:0:
361,79,56712,2,0,L|351:19,1,60,4|8,0:3|0:0,0:0:0:0:
441,17,57212,6,0,P|457:73|445:132,1,120,4|4,0:2|0:3,0:0:0:0:
409,160,57837,1,4,0:3:0:0:
393,202,57962,2,0,L|402:275,1,60,8|4,0:0|0:2,0:0:0:0:
246,355,58712,2,0,L|236:281,1,60,4|8,0:3|0:0,0:0:0:0:
180,226,59212,6,0,B|123:242|123:242|37:222,1,120,4|4,0:0|0:3,0:0:0:0:
99,145,59962,1,8,0:0:0:0:
138,64,60212,2,0,B|195:48|195:48|281:68,1,120,4|4,0:3|0:3,0:0:0:0:
344,66,60962,1,8,0:0:0:0:
355,155,61212,2,0,L|348:298,1,120,4|4,0:0|0:3,0:0:0:0:
186,357,62212,6,0,B|185:325|187:302|187:302|145:270|145:270|168:248|191:189,1,180,8|8,0:3|0:3,0:0:0:0:
266,176,63212,6,0,L|280:92,1,60,4|8,0:0|0:0,0:0:0:0:
363,137,63712,2,0,L|354:197,1,60,4|8,0:3|0:0,0:0:0:0:
417,260,64212,2,0,L|426:320,1,60,4|8,0:3|0:0,0:0:0:0:
336,306,64712,2,0,L|345:365,1,60,4|8,0:3|0:0,0:0:0:0:
254,363,65212,6,0,P|196:357|153:316,1,120,4|4,0:2|0:3,0:0:0:0:
139,273,65837,1,4,0:3:0:0:
129,228,65962,2,0,L|118:144,1,60,8|4,0:0|0:2,0:0:0:0:
242,34,66712,2,0,L|252:108,1,60,4|8,0:3|0:0,0:0:0:0:
322,149,67212,6,0,B|379:133|379:133|465:153,1,120,4|4,0:0|0:3,0:0:0:0:
413,233,67962,1,8,0:0:0:0:
376,315,68212,2,0,B|319:331|319:331|233:311,1,120,4|4,0:3|0:3,0:0:0:0:
172,339,68962,1,8,0:0:0:0:
116,267,69212,6,0,L|114:125,1,120,4|4,0:0|0:3,0:0:0:0:
114,57,69962,1,4,0:3:0:0:
204,48,70212,2,0,B|256:47|256:47|274:54|274:54|335:54,1,120,8|8,0:0|0:3,0:0:0:0:
459,171,71212,5,4,0:2:0:0:
334,301,71712,2,0,P|343:252|298:179,1,120,8|4,0:0|0:3,0:0:0:0:
272,209,72337,2,0,L|166:203,1,90,8|8,0:0|0:0,0:0:0:0:
64,68,73212,5,4,0:2:0:0:
242,90,73712,2,0,L|383:79,1,120,8|4,0:0|0:3,0:0:0:0:
397,107,74337,2,0,P|389:143|401:210,1,90,8|8,0:0|0:0,0:0:0:0:
442,272,74962,1,8,0:0:0:0:
384,341,75212,6,0,L|310:337,1,60,4|8,0:0|0:0,0:0:0:0:
270,265,75712,2,0,L|186:278,1,60,4|8,0:3|0:0,0:0:0:0:
138,328,76212,2,0,P|104:324|20:268,1,120,4|4,0:3|0:3,0:0:0:0:
84,109,77212,6,0,L|163:98,1,60,12|8,0:0|0:0,0:0:0:0:
173,15,77712,2,0,L|236:63,1,60,8|8,0:0|0:0,0:0:0:0:
301,10,78212,2,0,L|311:88,1,60,8|8,0:0|0:0,0:0:0:0:
394,99,78712,2,0,L|345:162,1,60,8|8,0:0|0:0,0:0:0:0:
275,182,79212,6,0,B|264:237|264:237|277:271|279:328,2,120,4|4|8,0:2|0:3|0:3,0:0:0:0:
374,332,80712,1,8,0:0:0:0:
195,352,81212,6,0,P|146:352|60:330,1,120,4|4,0:0|0:3,0:0:0:0:
24,164,82212,2,0,P|73:164|159:142,1,120,4|4,0:3|0:3,0:0:0:0:
206,84,82962,1,8,0:0:0:0:
283,129,83212,6,0,P|305:187|295:263,1,120,4|4,0:3|0:3,0:0:0:0:
436,363,84212,2,0,P|432:303|454:248,1,120,4|8,0:3|0:3,0:0:0:0:
466,68,85212,6,0,B|410:88|410:88|347:67,1,120,4|8,0:0|0:0,0:0:0:0:
191,149,86212,2,0,B|135:129|135:129|77:148,1,120,4|8,0:3|0:0,0:0:0:0:
25,320,87212,6,0,B|81:300|81:300|144:321,1,120,8|8,0:0|0:0,0:0:0:0:
300,239,88212,2,0,B|356:259|356:259|413:239,1,120,8|4,0:0|0:0,0:0:0:0:
481,181,88962,5,12,0:0:0:0:
