osu file format v14

[General]
AudioFilename: audio.mp3
AudioLeadIn: 0
PreviewTime: 55087
Countdown: 0
SampleSet: Normal
StackLeniency: 1
Mode: 0
LetterboxInBreaks: 0
WidescreenStoryboard: 1

[Editor]
Bookmarks: 1212,5212,13212,21212,25212,33212,37212,45212,49212,55212,63212,71149,75212,81212,85212,88962
DistanceSpacing: 1.2
BeatDivisor: 4
GridSize: 32
TimelineZoom: 4.099998

[Metadata]
Title:Los! Los! Los!
TitleUnicode:Los! Los! Los!
Artist:Tanya Degurechaff (CV: Yuki Aoi)
ArtistUnicode:ターニャ・デグレチャフ(CV:悠木碧)
Creator:Milan-
Version:Insane
Source:幼女戦記
Tags:appleeaterx pishifat Youjo Senki Saga of Tanya the Evil ED ending TV Size yuuki losloslos
BeatmapID:1319285
BeatmapSetID:625302

[Difficulty]
HPDrainRate:6
CircleSize:3.8
OverallDifficulty:7
ApproachRate:9
SliderMultiplier:1.6
SliderTickRate:1

[Events]
//Background and Video events
0,0,"bhg.jpg",0,0
//Break Periods
//Storyboard Layer 0 (Background)
//Storyboard Layer 1 (Fail)
//Storyboard Layer 2 (Pass)
//Storyboard Layer 3 (Foreground)
//Storyboard Sound Samples

[TimingPoints]
1212,250,4,2,1,40,1,0
1212,-100,4,2,1,40,0,0
1337,-125,4,2,1,40,0,0
3212,-111.111111111111,4,2,1,40,0,0
3312,-125,4,2,1,40,0,0
4837,-125,4,2,1,60,0,0
5212,-100,4,1,1,50,0,0
5312,-125,4,1,1,50,0,0
7212,-100,4,1,1,50,0,0
7312,-125,4,1,1,50,0,0
9212,-100,4,1,1,60,0,0
9312,-125,4,1,1,60,0,0
11212,-125,4,1,1,40,0,0
11462,-125,4,1,1,45,0,0
11712,-125,4,1,1,50,0,0
11962,-125,4,1,1,55,0,0
12212,-125,4,1,1,60,0,0
12462,-125,4,1,1,65,0,0
12712,-111.111111111111,4,1,1,70,0,0
13024,-111.111111111111,4,1,1,60,0,0
13087,-111.111111111111,4,1,1,50,0,0
13212,-100,4,1,1,75,0,0
17462,-100,4,1,1,55,0,0
17587,-100,4,1,1,75,0,0
17774,-100,4,1,1,55,0,0
17899,-100,4,1,1,75,0,0
18024,-100,4,1,1,55,0,0
18149,-100,4,1,1,75,0,0
18524,-100,4,1,1,55,0,0
18649,-100,4,1,1,75,0,0
18774,-100,4,1,1,55,0,0
18899,-100,4,1,1,75,0,0
19024,-100,4,1,1,55,0,0
19149,-100,4,1,1,75,0,0
19587,-100,4,1,1,90,0,0
19712,-100,4,1,1,75,0,0
20587,-100,4,1,1,90,0,0
20712,-100,4,1,1,75,0,0
21212,-100,4,1,1,60,0,0
21274,-125,4,1,1,60,0,0
25212,-166.666666666667,4,1,1,60,0,0
33212,-200,4,1,1,60,0,0
36587,-200,4,1,1,45,0,0
36712,-111.111111111111,4,1,1,60,0,0
37212,-100,4,1,1,70,0,0
41212,-111.111111111111,4,1,1,70,0,0
45212,-100,4,1,1,70,0,0
48712,-105.263157894737,4,1,1,70,0,0
48962,-111.111111111111,4,1,1,70,0,0
49212,-125,4,1,1,70,0,0
54712,-100,4,2,1,40,0,0
54962,-100,4,2,1,50,0,0
55212,-83.3333333333333,4,1,1,80,0,1
57087,-83.3333333333333,4,1,1,60,0,1
57212,-83.3333333333333,4,1,1,80,0,1
58837,-83.3333333333333,4,1,1,60,0,1
58962,-83.3333333333333,4,1,1,80,0,1
62274,-83.3333333333333,4,1,1,60,0,1
62462,-83.3333333333333,4,1,1,80,0,1
62524,-83.3333333333333,4,1,1,60,0,1
62712,-83.3333333333333,4,1,1,80,0,1
62774,-83.3333333333333,4,1,1,60,0,1
62962,-83.3333333333333,4,1,1,80,0,1
63024,-83.3333333333333,4,1,1,60,0,1
63087,-83.3333333333333,4,1,1,80,0,1
63149,-83.3333333333333,4,1,1,60,0,0
63212,-83.3333333333333,4,1,1,80,0,1
65087,-83.3333333333333,4,1,1,60,0,1
65212,-83.3333333333333,4,1,1,80,0,1
66837,-83.3333333333333,4,1,1,60,0,1
66962,-83.3333333333333,4,1,1,80,0,1
71212,-125,4,1,1,80,0,0
74962,-100,4,1,1,60,0,0
75212,-100,4,1,1,80,0,1
77024,-100,4,1,1,50,0,1
77212,-100,4,1,1,80,0,1
79212,-100,4,1,1,70,0,1
80024,-100,4,1,1,50,0,1
80212,-100,4,1,1,70,0,1
80274,-100,4,1,1,50,0,1
80462,-100,4,1,1,70,0,1
80524,-100,4,1,1,50,0,1
80712,-100,4,1,1,60,0,1
81149,-100,4,1,1,5,0,1
81212,-100,4,1,1,80,0,0
85212,-125,4,1,1,80,0,0
85312,-125,4,1,1,80,0,0
88212,-111.111111111111,4,1,1,80,0,0
88462,-100,4,1,1,80,0,0
88712,-90.9090909090909,4,1,1,80,0,0
89024,-90.9090909090909,4,1,1,5,0,0

[Colours]
Combo1 : 217,213,253
Combo2 : 112,146,186
Combo3 : 167,243,236
Combo4 : 198,151,104

[HitObjects]
190,69,1212,6,0,P|160:95|154:239,1,160,4|0,0:3|0:0,0:0:0:0:
139,209,1712,1,2,0:0:0:0:
139,209,1962,1,2,0:0:0:0:
139,209,2212,6,0,L|216:193,2,64,0|0|0,0:0|0:0|0:0,0:0:0:0:
139,209,2712,1,2,0:0:0:0:
139,209,2962,1,2,0:0:0:0:
139,209,3212,6,0,P|169:235|176:353,1,143.999995605469,4|0,0:3|0:0,0:0:0:0:
185,333,3712,1,2,0:0:0:0:
185,333,3962,1,2,0:0:0:0:
185,333,4212,5,2,0:0:0:0:
322,290,4462,1,2,0:0:0:0:
185,333,4712,1,2,0:0:0:0:
322,290,4962,1,2,0:0:0:0:
322,290,5212,6,0,B|379:309|379:309|489:275,1,160,4|0,0:3|0:0,0:0:0:0:
474,279,5712,1,2,0:2:0:0:
474,279,5962,1,2,0:2:0:0:
474,279,6212,5,0,0:0:0:0:
453,152,6462,1,0,0:0:0:0:
474,279,6712,1,2,0:2:0:0:
453,152,6962,1,2,0:2:0:0:
453,152,7212,6,0,B|396:171|396:171|286:137,1,160,4|0,0:3|0:0,0:0:0:0:
300,141,7712,1,2,0:2:0:0:
300,141,7962,1,2,0:2:0:0:
300,141,8212,5,0,0:0:0:0:
197,217,8462,1,0,0:0:0:0:
300,141,8712,2,0,P|247:123|207:83,1,96,2|0,0:2|0:0,0:0:0:0:
217,97,8962,2,0,P|164:115|124:155,1,96,2|0,0:3|0:0,0:0:0:0:
134,140,9212,6,0,L|150:300,1,160,12|8,0:0|0:0,0:0:0:0:
149,299,9712,1,8,0:0:0:0:
149,299,9962,1,8,0:0:0:0:
302,258,10212,5,8,0:0:0:0:
149,299,10462,1,8,0:0:0:0:
302,258,10712,1,8,0:0:0:0:
424,371,10962,1,8,0:0:0:0:
302,258,11212,6,0,L|313:341,1,64,8|8,0:0|0:0,0:0:0:0:
411,210,11462,2,0,L|400:293,1,64,8|8,0:0|0:0,0:0:0:0:
293,194,11712,2,0,L|304:277,1,64,8|8,0:0|0:0,0:0:0:0:
419,146,11962,2,0,L|408:229,1,64,8|8,0:0|0:0,0:0:0:0:
284,130,12212,2,0,L|295:213,1,64,8|8,0:0|0:0,0:0:0:0:
427,82,12462,2,0,L|416:165,1,64,8|8,0:0|0:0,0:0:0:0:
269,22,12712,6,0,L|283:129,1,107.999996704102,12|2,0:0|0:2,0:0:0:0:
283,129,12962,2,0,P|241:108|156:109,1,107.999996704102,8|2,0:0|0:2,0:0:0:0:
180,103,13212,6,0,L|79:121,1,80,4|0,0:0|0:0,0:0:0:0:
4,224,13462,2,0,L|83:211,1,80,8|0,0:0|0:0,0:0:0:0:
180,103,13712,1,4,0:3:0:0:
180,103,13837,1,0,0:0:0:0:
180,103,13962,2,0,L|101:117,1,80,8|0,0:0|0:0,0:0:0:0:
169,271,14212,6,0,P|181:233|203:200,1,80,4|0,0:3|0:0,0:0:0:0:
253,313,14461,2,0,P|274:346|287:384,1,80,8|0,0:0|0:0,0:0:0:0:
169,271,14712,1,4,0:3:0:0:
169,271,14837,1,0,0:0:0:0:
169,271,14962,2,0,P|181:233|203:200,1,80,8|0,0:0|0:0,0:0:0:0:
354,150,15212,6,0,L|275:136,1,80,4|0,0:3|0:0,0:0:0:0:
334,254,15462,2,0,L|418:243,1,80,8|0,0:0|0:0,0:0:0:0:
354,150,15712,1,4,0:3:0:0:
354,150,15837,1,0,0:0:0:0:
354,150,15962,2,0,L|275:136,1,80,8|0,0:0|0:0,0:0:0:0:
162,87,16212,6,0,P|240:92|301:43,1,160,4|8,0:3|0:0,0:0:0:0:
468,86,16587,2,0,P|435:65|396:58,2,80,0|8|0,0:0|0:0|0:0,0:0:0:0:
394,211,16962,2,0,P|427:190|467:183,1,80,8|0,0:0|0:0,0:0:0:0:
467,283,17212,5,4,0:0:0:0:
467,283,17337,2,0,L|455:372,1,80,0|4,0:0|0:3,0:0:0:0:
306,259,17587,5,8,0:0:0:0:
306,259,17712,2,0,L|318:348,1,80,8|4,1:0|0:3,0:0:0:0:
467,283,17962,2,0,L|455:372,1,80,8|4,1:0|0:3,0:0:0:0:
316,338,18212,5,4,0:3:0:0:
316,338,18337,2,0,L|306:259,1,80,12|0,0:0|0:0,0:0:0:0:
153,365,18587,5,4,0:3:0:0:
153,365,18712,2,0,L|163:285,1,80,8|4,0:0|0:3,0:0:0:0:
320,342,18962,2,0,L|310:263,1,80,8|4,0:0|0:3,0:0:0:0:
120,376,19212,6,0,L|130:296,2,80,8|4|8,0:0|0:3|0:3,0:0:0:0:
301,361,19587,2,0,L|291:282,2,80,12|8|4,0:3|0:3|0:3,0:0:0:0:
460,366,19962,2,0,L|471:287,1,80,4|0,0:3|0:0,0:0:0:0:
326,299,20212,6,0,L|336:378,2,80,8|4|8,0:0|0:3|0:3,0:0:0:0:
157,305,20587,2,0,L|147:385,2,80,12|8|4,0:3|0:3|0:3,0:0:0:0:
32,251,20962,1,4,0:3:0:0:
32,251,21212,6,0,B|65:211|65:211|43:83,1,160,4|0,0:3|0:2,0:0:0:0:
46,104,21712,1,0,0:0:0:0:
46,104,21962,1,0,0:0:0:0:
46,104,22212,5,0,0:2:0:0:
193,145,22462,1,0,0:2:0:0:
46,104,22712,1,0,0:0:0:0:
193,145,22962,1,0,0:0:0:0:
193,145,23212,6,0,L|264:127,1,64,4|0,0:0|0:0,0:0:0:0:
245,232,23462,2,0,L|309:236,1,64,4|0,0:3|0:0,0:0:0:0:
255,129,23712,2,0,L|326:111,1,64,8|0,0:0|0:0,0:0:0:0:
309,236,23962,2,0,L|373:240,1,64,8|0,0:0|0:0,0:0:0:0:
317,113,24212,2,0,L|388:95,1,64,4|0,0:3|0:0,0:0:0:0:
374,241,24462,2,0,L|438:245,1,64,4|0,0:3|0:0,0:0:0:0:
379,97,24712,2,0,L|450:79,1,64,8|0,0:0|0:0,0:0:0:0:
438,245,24962,1,8,0:0:0:0:
438,245,25212,6,0,P|451:290|443:337,2,95.9999970703126,4|8|4,0:2|0:0|0:3,0:0:0:0:
296,230,25837,2,0,P|337:253|365:293,1,95.9999970703126,8|0,0:0|0:0,0:0:0:0:
233,312,26212,6,0,P|257:312|281:317,2,47.9999985351563,8|0|4,0:0|0:0|0:3,0:0:0:0:
110,286,26587,2,0,P|151:262|178:223,1,95.9999970703126,4|0,0:3|0:0,0:0:0:0:
23,247,26962,1,8,0:0:0:0:
23,247,27212,6,0,L|13:134,2,95.9999970703126,4|8|4,0:3|0:0|0:3,0:0:0:0:
111,92,27837,2,0,L|103:188,1,95.9999970703126,8|0,0:0|0:0,0:0:0:0:
210,109,28212,6,0,L|193:169,2,47.9999985351563,8|2|0,0:0|0:2|0:0,0:0:0:0:
335,22,28587,2,0,P|289:36|243:29,1,95.9999970703126,8|4,0:0|0:3,0:0:0:0:
294,126,28962,2,0,L|342:122,1,47.9999985351563,4|0,0:2|0:0,0:0:0:0:
505,81,29212,6,0,P|459:66|412:74,2,95.9999970703126,4|8|4,0:3|0:0|0:3,0:0:0:0:
384,211,29837,2,0,P|411:172|454:151,1,95.9999970703126,8|0,0:0|0:0,0:0:0:0:
456,280,30212,6,0,P|460:257|471:236,2,47.9999985351563,8|2|0,0:0|0:2|0:0,0:0:0:0:
353,373,30587,2,0,L|449:367,1,95.9999970703126,8|4,0:0|0:3,0:0:0:0:
287,316,30962,1,8,0:0:0:0:
287,316,31212,6,0,L|279:248,1,47.9999985351563,4|0,0:3|0:0,0:0:0:0:
169,270,31462,2,0,L|238:188,1,95.9999970703126,8|4,0:0|0:3,0:0:0:0:
147,117,31837,2,0,L|254:108,1,95.9999970703126,8|0,0:0|0:0,0:0:0:0:
247,0,32212,6,0,L|284:30,2,47.9999985351563,8|8|0,0:0|0:0|0:0,0:0:0:0:
325,105,32587,2,0,P|335:151|325:197,1,95.9999970703126,8|8,0:3|0:3,0:0:0:0:
372,32,32962,2,0,L|440:22,1,47.9999985351563,8|4,0:3|0:3,0:0:0:0:
512,111,33212,6,0,L|422:124,1,80,4|4,0:2|0:3,0:0:0:0:
432,122,33587,1,4,0:3:0:0:
432,122,33712,2,0,L|443:201,1,80,8|4,0:0|0:3,0:0:0:0:
443,201,34087,1,4,0:3:0:0:
443,201,34212,6,0,L|388:211,1,40,8|4,0:3|0:3,0:0:0:0:
314,234,34462,2,0,L|274:241,1,40,4|0,0:3|0:3,0:0:0:0:
448,206,34712,6,0,L|393:216,1,40,8|8,0:0|0:3,0:0:0:0:
319,239,34962,2,0,L|279:246,1,40,4|4,0:3|0:3,0:0:0:0:
196,274,35212,5,8,0:3:0:0:
196,274,35337,2,0,L|185:195,1,80,8|0,0:0|0:0,0:0:0:0:
184,194,35712,2,0,L|105:205,1,80,8|8,0:0|0:3,0:0:0:0:
104,205,36087,1,8,0:3:0:0:
104,205,36212,6,0,L|94:150,1,40,4|8,0:3|0:3,0:0:0:0:
80,73,36462,2,0,L|72:32,1,40,8|8,0:3|0:0,0:0:0:0:
184,102,36712,6,0,L|171:22,1,71.9999978027344,8|8,0:0|0:0,0:0:0:0:
270,53,36962,1,8,0:0:0:0:
269,153,37087,1,8,0:0:0:0:
270,52,37212,6,0,P|307:39|347:36,1,80,4|0,0:0|0:0,0:0:0:0:
501,110,37462,2,0,P|461:107|424:93,1,80,8|0,0:0|0:0,0:0:0:0:
360,167,37712,2,0,L|373:252,1,80,4|0,0:3|0:0,0:0:0:0:
448,359,37962,2,0,L|461:280,1,80,8|0,0:0|0:0,0:0:0:0:
276,238,38212,6,0,P|349:284|352:357,1,160,4|8,0:3|0:0,0:0:0:0:
185,343,38587,1,0,0:0:0:0:
185,343,38712,2,0,L|277:323,1,80,4|0,0:3|0:0,0:0:0:0:
119,204,38962,2,0,L|198:254,1,80,8|0,0:0|0:0,0:0:0:0:
173,61,39212,6,0,L|193:153,2,80,4|0|8,0:3|0:0|0:0,0:0:0:0:
30,79,39587,1,0,0:0:0:0:
30,79,39712,2,0,P|88:100|184:43,1,160,4|8,0:3|0:0,0:0:0:0:
325,68,40087,2,0,L|262:56,1,40,0|0,0:0|0:0,0:0:0:0:
285,60,40212,6,0,P|343:39|439:96,1,160,4|4,0:3|0:3,0:0:0:0:
427,78,40712,5,8,0:0:0:0:
379,161,40837,1,8,0:0:0:0:
434,239,40962,1,8,0:0:0:0:
386,322,41087,1,8,0:0:0:0:
386,322,41212,6,0,L|230:305,1,143.999995605469,4|8,0:2|0:0,0:0:0:0:
242,306,41712,2,0,L|87:318,1,143.999995605469,4|8,0:3|0:0,0:0:0:0:
98,317,42212,6,0,P|133:266|126:183,1,143.999995605469,4|8,0:2|0:0,0:0:0:0:
127,186,42587,1,4,0:2:0:0:
127,186,42712,2,0,P|92:135|99:52,1,143.999995605469,0|8,0:0|0:0,0:0:0:0:
97,55,43212,6,0,L|240:43,1,143.999995605469,4|8,0:2|0:0,0:0:0:0:
240,43,43712,2,0,L|383:54,1,143.999995605469,4|8,0:3|0:0,0:0:0:0:
383,54,44212,6,0,P|348:105|355:188,1,143.999995605469,4|8,0:2|0:0,0:0:0:0:
354,185,44587,1,4,0:2:0:0:
354,185,44712,2,0,L|436:177,1,71.9999978027344,0|0,0:0|0:0,0:0:0:0:
497,171,44962,2,0,L|425:177,1,71.9999978027344,8|8,0:0|0:0,0:0:0:0:
261,196,45212,6,0,L|279:290,1,80,4|0,0:2|0:0,0:0:0:0:
237,357,45462,1,8,0:0:0:0:
237,357,45712,2,0,L|156:336,1,80,4|0,0:3|0:0,0:0:0:0:
75,363,45962,1,8,0:0:0:0:
75,363,46212,6,0,L|60:274,1,80,4|0,0:3|0:0,0:0:0:0:
91,199,46462,1,8,0:0:0:0:
14,155,46587,2,0,B|69:162|69:162|180:130,1,160,2|0,0:2|0:0,0:0:0:0:
262,120,46962,1,8,0:0:0:0:
262,120,47212,6,0,L|285:212,1,80,4|0,0:3|0:0,0:0:0:0:
372,167,47462,1,8,0:0:0:0:
372,167,47712,2,0,L|359:262,1,80,4|0,0:3|0:0,0:0:0:0:
332,334,47962,1,8,0:0:0:0:
332,334,48212,6,0,L|411:323,1,80,4|0,0:2|0:0,0:0:0:0:
240,352,48462,2,0,L|229:306,2,40,8|8|8,0:0|0:0|0:0,0:0:0:0:
214,238,48712,2,0,L|230:312,1,75.9999979705811,8|8,0:3|0:3,0:0:0:0:
198,167,48962,2,0,L|213:238,1,71.9999978027344,4|4,0:3|0:3,0:0:0:0:
175,80,49212,5,8,0:0:0:0:
263,69,49337,2,0,P|248:130|198:167,1,128,0|0,0:0|0:0,0:0:0:0:
175,80,49712,1,8,0:0:0:0:
268,74,49837,2,0,P|253:135|203:172,1,128
175,80,50212,5,8,0:0:0:0:
273,79,50337,2,0,P|258:140|208:177,1,128,0|4,0:0|0:3,0:0:0:0:
175,80,50712,1,8,0:0:0:0:
83,131,50837,2,0,P|65:70|90:13,1,128
175,80,51212,5,8,0:0:0:0:
0,212,51712,5,8,0:0:0:0:
175,80,52212,5,8,0:0:0:0:
441,206,52712,5,8,0:0:0:0:
256,192,53212,12,8,54212,0:0:0:0:
388,175,54712,6,0,L|400:227,5,53.3333333333333,2|0|0|2|0|0,0:0|0:0|0:0|0:0|0:0|0:0,0:0:0:0:
400,227,55212,6,0,P|348:237|278:205,1,95.9999970703126,4|0,0:0|0:3,0:0:0:0:
163,307,55462,2,0,P|175:262|208:227,1,95.9999970703126,8|0,0:0|0:0,0:0:0:0:
210,62,55712,1,4,0:3:0:0:
210,62,55837,1,4,0:3:0:0:
210,62,55962,2,0,P|242:96|256:142,1,95.9999970703126,8|0,0:0|0:0,0:0:0:0:
419,278,56212,6,0,P|356:274|297:232,1,95.9999970703126,4|0,0:3|0:3,0:0:0:0:
120,299,56462,2,0,P|150:250|198:220,1,95.9999970703126,8|4,0:0|0:3,0:0:0:0:
251,29,56712,1,4,0:3:0:0:
251,29,56837,1,4,0:3:0:0:
251,29,56962,2,0,P|277:79|279:136,1,95.9999970703126,8|0,0:0|0:0,0:0:0:0:
405,340,57212,6,0,P|338:318|293:267,1,95.9999970703126,4|0,0:2|0:0,0:0:0:0:
74,275,57462,2,0,P|121:231|183:213,1,95.9999970703126,8|0,0:0|0:3,0:0:0:0:
295,20,57712,2,0,P|309:66|306:113,1,95.9999970703126,4|4,0:3|0:3,0:0:0:0:
368,382,57962,2,0,P|306:341|278:287,1,95.9999970703126,8|0,0:0|0:0,0:0:0:0:
47,225,58212,6,0,P|107:193|242:207,1,191.999994140625,4|8,0:2|0:0,0:0:0:0:
408,225,58587,2,0,P|314:237|227:200,1,191.999994140625,0|8,0:0|0:0,0:0:0:0:
216,104,58962,2,0,L|226:199,1,95.9999970703126,8|0,0:0|0:0,0:0:0:0:
466,375,59212,6,0,B|458:306|458:306|496:256|496:256|490:196,1,191.999994140625,4|8,0:0|0:0,0:0:0:0:
490,196,59712,2,0,P|437:217|372:207,1,95.9999970703126,4|4,0:3|0:3,0:0:0:0:
217,298,59962,2,0,P|164:275|125:222,1,95.9999970703126,8|0,0:0|0:0,0:0:0:0:
326,64,60212,6,0,B|333:133|333:133|296:183|296:183|302:243,1,191.999994140625,4|8,0:3|0:0,0:0:0:0:
302,243,60587,1,0,0:0:0:0:
302,243,60712,2,0,P|280:190|290:125,1,95.9999970703126,4|4,0:3|0:3,0:0:0:0:
98,78,60962,2,0,P|120:25|173:-13,1,95.9999970703126,8|0,0:0|0:0,0:0:0:0:
319,57,61212,6,0,L|203:74,1,95.9999970703126,4|4,0:0|0:3,0:0:0:0:
173,152,61462,1,8,0:0:0:0:
332,41,61587,6,0,L|216:58,1,95.9999970703126,8|4,0:0|0:3,0:0:0:0:
173,152,61837,1,4,0:3:0:0:
343,27,61962,6,0,L|227:44,1,95.9999970703126,8|8,0:0|0:0,0:0:0:0:
173,152,62212,2,0,L|189:222,7,47.9999985351563,8|8|8|8|8|8|8|8,0:3|0:3|0:3|0:3|0:3|0:3|0:3|0:3,0:0:0:0:
266,250,62712,2,0,L|250:320,1,47.9999985351563,4|4,0:3|0:3,0:0:0:0:
278,267,62837,2,0,L|262:337,1,47.9999985351563,4|4,0:3|0:3,0:0:0:0:
292,287,62962,1,8,0:3:0:0:
292,287,63212,6,0,P|331:290|396:258,1,95.9999970703126,4|0,0:0|0:0,0:0:0:0:
225,211,63462,2,0,P|200:250|195:298,1,95.9999970703126,8|0,0:0|0:0,0:0:0:0:
322,191,63712,1,4,0:3:0:0:
322,191,63837,1,4,0:3:0:0:
322,191,63962,2,0,P|300:149|262:121,1,95.9999970703126,8|0,0:0|0:0,0:0:0:0:
322,310,64212,6,0,P|380:299|438:255,1,95.9999970703126,4|0,0:3|0:0,0:0:0:0:
195,226,64462,2,0,P|174:292|185:351,1,95.9999970703126,8|4,0:0|0:3,0:0:0:0:
328,159,64712,1,4,0:3:0:0:
328,159,64837,1,4,0:3:0:0:
328,159,64962,2,0,P|280:107|221:86,1,95.9999970703126,8|8,0:0|0:0,0:0:0:0:
380,321,65212,6,0,P|459:283|488:255,1,95.9999970703126,4|0,0:2|0:0,0:0:0:0:
164,248,65462,2,0,P|161:300|180:341,1,95.9999970703126,8|0,0:0|0:0,0:0:0:0:
330,100,65712,2,0,P|285:72|238:68,1,95.9999970703126,4|4,0:3|0:3,0:0:0:0:
429,332,65962,2,0,P|495:274|515:239,1,95.9999970703126,8|0,0:0|0:0,0:0:0:0:
147,208,66212,6,0,P|154:354|189:396,1,191.999994140625,4|8,0:2|0:0,0:0:0:0:
147,208,66587,2,0,P|158:114|115:30,1,191.999994140625,0|8,0:0|0:0,0:0:0:0:
51,216,66962,2,0,L|169:206,1,95.9999970703126,8|0,0:0|0:0,0:0:0:0:
416,57,67212,6,0,B|347:65|347:65|297:27|297:27|237:33,1,191.999994140625,4|8,0:0|0:0,0:0:0:0:
237,33,67712,2,0,P|258:86|248:151,1,95.9999970703126,4|4,0:3|0:3,0:0:0:0:
339,306,67962,2,0,P|316:359|263:398,1,95.9999970703126,8|0,0:0|0:0,0:0:0:0:
128,198,68212,6,0,B|197:191|197:191|247:228|247:228|307:222,1,191.999994140625,4|8,0:3|0:0,0:0:0:0:
307,222,68587,1,0,0:0:0:0:
307,222,68712,2,0,P|330:169|383:130,1,95.9999970703126,4|4,0:3|0:3,0:0:0:0:
179,373,68962,2,0,P|157:319|167:254,1,95.9999970703126,8|8,0:0|0:0,0:0:0:0:
228,94,69212,6,0,L|97:111,1,95.9999970703126,4|8,0:0|0:0,0:0:0:0:
307,222,69462,1,8,0:3:0:0:
307,222,69587,2,0,L|438:205,1,95.9999970703126,8|4,0:3|0:3,0:0:0:0:
327,28,69837,1,4,0:3:0:0:
327,28,69962,2,0,L|344:159,1,95.9999970703126,4|4,0:3|0:3,0:0:0:0:
228,94,70212,6,0,L|132:106,2,95.9999970703126,8|4|8,0:0|0:3|0:3,0:0:0:0:
402,209,70587,2,0,L|307:222,2,95.9999970703126,4|8|4,0:3|0:3|0:3,0:0:0:0:
327,28,70962,2,0,L|339:123,1,95.9999970703126,4|0,0:3|0:0,0:0:0:0:
378,354,71212,5,4,0:2:0:0:
378,354,71587,2,0,L|370:303,2,32,0|0|8,0:0|0:0|0:0,0:0:0:0:
378,354,71962,1,4,0:3:0:0:
378,354,72212,5,4,0:3:0:0:
288,333,72337,2,0,P|229:363|166:353,1,128,8|0,0:0|0:0,0:0:0:0:
221,267,72712,1,8,0:0:0:0:
221,267,72962,1,0,0:0:0:0:
221,267,73212,5,4,0:2:0:0:
221,267,73587,2,0,L|213:216,2,32,0|0|8,0:0|0:0|0:0,0:0:0:0:
221,267,73962,1,4,0:3:0:0:
221,267,74212,5,4,0:3:0:0:
303,217,74337,2,0,P|361:246|427:229,1,128,8|0,0:0|0:0,0:0:0:0:
365,86,74712,2,0,L|371:150,1,64,8|0,0:0|0:0,0:0:0:0:
267,80,74962,2,0,L|271:129,3,40,8|8|8|8,0:0|0:0|0:0|0:0,0:0:0:0:
270,119,75212,6,0,P|237:100|106:113,1,160,4|8,0:0|0:0,0:0:0:0:
119,104,75712,2,0,P|139:136|162:205,1,80,4|4,0:3|0:3,0:0:0:0:
202,299,75962,2,0,P|217:262|227:224,1,80,8|0,0:0|0:0,0:0:0:0:
136,359,76212,6,0,P|169:339|300:352,1,160,4|8,0:3|0:0,0:0:0:0:
437,359,76587,2,0,P|359:373|286:343,1,160,0|4,0:0|0:3,0:0:0:0:
349,160,76962,2,0,P|363:218|369:278,1,120,8|8,0:3|0:3,0:0:0:0:
369,277,77212,6,0,L|453:265,1,80,12|0,0:0|0:0,0:0:0:0:
265,144,77462,2,0,L|345:156,1,80,8|0,0:0|0:0,0:0:0:0:
289,289,77712,2,0,L|369:277,1,80,8|0,0:0|0:0,0:0:0:0:
186,133,77962,2,0,L|265:144,1,80,8|0,0:0|0:0,0:0:0:0:
210,301,78212,6,0,L|289:288,1,80,8|0,0:0|0:0,0:0:0:0:
106,121,78462,2,0,L|186:133,1,80,8|0,0:0|0:0,0:0:0:0:
130,313,78712,2,0,L|209:300,1,80,8|0,0:0|0:0,0:0:0:0:
215,58,78962,2,0,L|186:132,1,80,8|0,0:0|0:0,0:0:0:0:
398,273,79212,6,0,L|347:210,1,80,4|4,0:2|0:3,0:0:0:0:
126,334,79462,2,0,L|210:321,1,80,8|4,0:0|0:3,0:0:0:0:
416,267,79712,2,0,L|365:204,1,80,4|8,0:3|0:0,0:0:0:0:
197,46,79962,6,0,L|177:102,7,40,8|8|8|8|8|8|8|0,0:0|0:0|0:0|0:0|0:3|0:3|0:3|0:3,0:0:0:0:
193,102,80462,6,0,L|188:161,1,40,4|4,0:3|0:3,0:0:0:0:
218,137,80587,2,0,L|198:192,1,40,4|4,0:3|0:3,0:0:0:0:
220,202,80712,1,8,0:0:0:0:
220,202,81212,6,0,P|297:216|346:277,1,160,4|8,0:0|0:0,0:0:0:0:
346,277,81712,2,0,P|399:250|448:242,1,80,4|4,0:3|0:3,0:0:0:0:
355,371,81962,2,0,P|316:359|282:339,1,80,8|0,0:0|0:0,0:0:0:0:
448,334,82212,6,0,L|452:172,1,160,4|8,0:3|0:0,0:0:0:0:
451,174,82712,2,0,P|398:147|349:139,1,80,4|2,0:3|0:2,0:0:0:0:
381,41,82962,2,0,P|324:59|284:88,1,80,8|2,0:0|0:2,0:0:0:0:
208,22,83212,6,0,P|266:95|263:169,1,160,4|8,0:3|0:0,0:0:0:0:
266,158,83712,2,0,P|213:216|207:294,1,160,4|8,0:3|0:0,0:0:0:0:
207,294,84212,6,0,P|263:275|303:246,1,80,4|0,0:3|0:0,0:0:0:0:
213,382,84462,2,0,P|175:372|140:354,1,80,8|0,0:0|0:0,0:0:0:0:
342,333,84712,2,0,P|362:298|373:260,1,80,8|8,0:3|0:3,0:0:0:0:
114,274,84962,2,0,P|93:239|82:201,1,80,8|4,0:3|0:3,0:0:0:0:
347,209,85212,5,4,0:0:0:0:
347,209,85337,2,0,P|278:189|220:202,1,128,0|0,0:0|0:0,0:0:0:0:
224,200,85712,5,8,0:0:0:0:
224,200,85837,2,0,P|244:131|231:73,1,128,0|0,0:0|0:0,0:0:0:0:
232,77,86212,5,4,0:3:0:0:
232,77,86337,2,0,P|301:97|359:84,1,128,8|0,0:0|0:0,0:0:0:0:
354,85,86712,2,0,P|423:65|481:78,1,128,8|0,0:0|0:0,0:0:0:0:
476,76,87212,5,8,0:0:0:0:
476,76,87337,2,0,P|456:144|469:202,1,128,0|0,0:0|0:0,0:0:0:0:
467,198,87712,2,0,P|487:267|474:325,1,128,8|4,0:0|0:3,0:0:0:0:
475,320,88212,6,0,P|440:325|346:293,1,107.999996704102,8|4,0:0|0:3,0:0:0:0:
370,308,88462,2,0,P|339:304|239:334,1,120,8|4,0:0|0:3,0:0:0:0:
253,324,88712,2,0,B|210:335|210:335|107:301,1,132.00000402832,4|0,0:0|0:0,0:0:0:0:
215,244,88962,5,12,0:0:0:0:
