osu file format v14

[General]
AudioFilename: audio.mp3
AudioLeadIn: 0
PreviewTime: 55087
Countdown: 0
SampleSet: Soft
StackLeniency: 0.3
Mode: 0
LetterboxInBreaks: 0
WidescreenStoryboard: 0

[Editor]
Bookmarks: 1212,5212,13212,26962,37212,41212,45212,55212,63212,71212,78712,78837,78962,79087,79212,79462,79587,81212
DistanceSpacing: 1.2
BeatDivisor: 4
GridSize: 32
TimelineZoom: 4.799998

[Metadata]
Title:Los! Los! Los!
TitleUnicode:Los! Los! Los!
Artist:Tanya Degurechaff (CV: Yuki Aoi)
ArtistUnicode:ターニャ・デグレチャフ(CV:悠木碧)
Creator:Logic Agent
Version:pkhg's Extra
Source:幼女戦記
Tags:Youjo Senki Saga of Tanya the Evil ED ending TV Size yuuki losloslos Akitoshi Xinely Kalibe Mun pkhg Plaudible Hobbes2 Lasse
BeatmapID:1218838
BeatmapSetID:570679

[Difficulty]
HPDrainRate:6
CircleSize:3.8
OverallDifficulty:8.6
ApproachRate:9.3
SliderMultiplier:1.8
SliderTickRate:1

[Events]
//Background and Video events
0,0,"792738.jpg",0,0
Video,592,"ed.avi"
//Break Periods
//Storyboard Layer 0 (Background)
//Storyboard Layer 1 (Fail)
//Storyboard Layer 2 (Pass)
//Storyboard Layer 3 (Foreground)
//Storyboard Sound Samples

[TimingPoints]
1212,250,4,2,10,40,1,0
1212,-125,4,2,10,40,0,0
5212,-125,4,2,10,50,0,0
7212,-125,4,2,10,53,0,0
9212,-125,4,2,10,55,0,0
11212,-125,4,2,10,57,0,0
13212,-111.111111111111,4,2,10,60,0,0
21212,-111.111111111111,4,2,10,50,0,0
23212,-111.111111111111,4,2,10,55,0,0
33212,-111.111111111111,4,2,10,50,0,0
37212,-111.111111111111,4,2,10,60,0,0
41212,-111.111111111111,4,2,10,50,0,0
45212,-111.111111111111,4,2,10,60,0,0
52212,-111.111111111111,4,2,10,70,0,0
53212,-400.765957446809,4,2,10,60,0,0
53295,-400.765957446809,4,2,10,5,0,0
54212,-200,4,2,10,60,0,0
54712,-100,4,2,10,50,0,0
55212,-100,4,2,10,70,0,1
71212,-111.111111111111,4,2,10,60,0,0
75212,-100,4,2,10,70,0,1
81212,-111.111111111111,4,2,10,60,0,0
89024,-111.111111111111,4,2,10,5,0,0

[Colours]
Combo1 : 195,195,195
Combo2 : 255,91,104
Combo3 : 253,181,72
Combo4 : 188,129,114

[HitObjects]
158,104,1212,6,0,P|147:138|146:174,3,72,6|0|0|0,0:0|0:0|0:0|0:0,0:0:0:0:
306,116,1712,2,0,P|281:90|250:71,1,72,2|0,0:0|0:0,0:0:0:0:
221,239,1962,2,0,P|255:230|287:213,1,72,2|0,0:0|0:0,0:0:0:0:
150,99,2212,6,0,P|139:133|138:169,3,72,2|0|0|0,0:0|0:0|0:0|0:0,0:0:0:0:
313,112,2712,2,0,P|288:86|257:67,1,72,2|0,0:0|0:0,0:0:0:0:
220,247,2962,2,0,P|254:238|286:221,1,72,2|0,0:0|0:0,0:0:0:0:
142,93,3212,6,0,P|131:127|130:163,3,72,2|0|0|0,0:0|0:0|0:0|0:0,0:0:0:0:
321,107,3712,2,0,P|296:81|265:62,1,72,2|0,0:0|0:0,0:0:0:0:
219,256,3962,2,0,P|253:247|285:230,1,72,2|0,0:0|0:0,0:0:0:0:
133,87,4212,6,0,P|122:121|121:157,1,72,2|0,0:0|0:0,0:0:0:0:
207,326,4462,2,0,P|217:291|218:255,1,72,2|0,0:0|0:0,0:0:0:0:
281,75,4712,2,0,P|270:109|269:145,1,72,2|0,0:0|0:0,0:0:0:0:
355,314,4962,2,0,P|365:279|366:243,1,72,2|0,0:0|0:0,0:0:0:0:
454,104,5212,6,0,P|419:105|384:115,1,72,12|0,0:0|0:0,0:0:0:0:
285,170,5462,2,0,P|250:169|215:159,1,72,8|0,0:0|0:0,0:0:0:0:
118,14,5712,1,8,0:0:0:0:
118,14,5837,1,0,0:0:0:0:
118,14,5962,2,0,P|134:44|143:80,1,72,8|0,0:0|0:0,0:0:0:0:
111,182,6212,6,0,P|94:212|85:248,1,72,8|0,0:0|0:0,0:0:0:0:
209,319,6462,2,0,P|192:288|183:252,1,72,8|0,0:0|0:0,0:0:0:0:
162,48,6712,2,0,P|128:112|111:182,1,144,10|8,0:0|0:0,0:0:0:0:
355,341,7212,5,12,0:0:0:0:
355,341,7336,1,0,0:0:0:0:
355,341,7462,2,0,P|372:309|381:275,1,72,8|0,0:0|0:0,0:0:0:0:
237,220,7712,2,0,P|256:250|282:275,1,72,8|0,0:0|0:0,0:0:0:0:
403,177,7962,2,0,P|367:178|332:188,1,72,8|0,0:0|0:0,0:0:0:0:
166,149,8212,5,8,0:0:0:0:
264,105,8337,1,0,0:0:0:0:
332,188,8462,2,0,P|342:222|343:258,1,72,8|0,0:0|0:0,0:0:0:0:
264,105,8712,1,10,0:0:0:0:
166,149,8837,1,0,0:0:0:0:
332,188,8962,2,0,P|367:186|402:176,1,72,10|0,0:0|0:0,0:0:0:0:
178,78,9212,6,0,P|167:112|165:148,1,72,12|0,0:0|0:0,0:0:0:0:
249,301,9462,2,0,P|246:265|236:230,1,72,8|0,0:0|0:0,0:0:0:0:
66,178,9712,1,8,0:0:0:0:
136,258,9837,1,0,0:0:0:0:
236,230,9962,2,0,P|271:232|306:242,1,72,8|0,1:2|0:0,0:0:0:0:
405,377,10212,6,0,P|388:344|380:309,1,72,8|0,1:2|0:0,0:0:0:0:
409,210,10462,2,0,P|425:177|433:142,1,72,8|0,1:2|0:0,0:0:0:0:
278,0,10712,2,0,P|311:63|328:133,1,144,10|12,0:0|0:1,0:0:0:0:
295,242,11087,1,0,0:0:0:0:
172,122,11212,6,0,P|137:111|101:109,1,72,4|0,0:0|0:0,0:0:0:0:
241,212,11462,1,0,0:0:0:0:
328,133,11587,1,8,0:1:0:0:
183,51,11712,2,0,P|173:85|171:121,1,72,8|8,0:0|0:1,0:0:0:0:
252,282,11962,2,0,P|250:246|241:212,1,72,8|8,0:1|0:0,0:0:0:0:
61,137,12212,5,8,0:1:0:0:
127,232,12337,1,8,0:1:0:0:
240,211,12462,2,0,P|275:213|310:224,1,72,8|8,0:1|0:0,0:0:0:0:
512,284,12712,1,4,0:3:0:0:
484,306,12774,1,8,0:0:0:0:
450,318,12837,1,8,0:0:0:0:
414,318,12899,1,8,0:0:0:0:
380,307,12962,1,12,0:1:0:0:
431,211,13087,1,0,0:0:0:0:
293,370,13212,6,0,P|271:293|309:223,1,161.999995056153,12|8,0:0|0:1,0:0:0:0:
458,292,13587,1,0,0:0:0:0:
458,292,13712,2,0,P|419:304|379:306,1,80.9999975280763,8|8,0:0|0:0,0:0:0:0:
228,208,13962,2,0,P|268:211|307:224,1,80.9999975280763,8|0,0:1|0:0,0:0:0:0:
482,99,14212,6,0,P|401:103|324:129,1,161.999995056153,8|8,0:0|0:1,0:0:0:0:
263,224,14587,1,8,0:0:0:0:
177,106,14712,2,0,P|179:65|192:27,1,80.9999975280763,0|8,0:0|0:0,0:0:0:0:
263,224,14962,2,0,P|275:262|278:302,1,80.9999975280763,8|0,0:1|0:0,0:0:0:0:
55,305,15212,6,0,P|118:259|194:278,1,161.999995056153,8|8,0:0|0:1,0:0:0:0:
273,384,15587,1,0,0:0:0:0:
351,247,15712,1,8,0:0:0:0:
351,247,15837,1,8,0:0:0:0:
351,247,15962,2,0,P|348:206|335:168,1,80.9999975280763,8|0,0:1|0:0,0:0:0:0:
179,356,16212,6,0,P|181:316|194:278,1,80.9999975280763,8|0,0:0|0:0,0:0:0:0:
369,225,16462,1,8,0:1:0:0:
369,225,16587,2,0,P|332:242|293:250,1,80.9999975280763,8|0,0:0|0:0,0:0:0:0:
155,121,16837,1,8,0:0:0:0:
155,121,16962,2,0,P|189:143|216:173,1,80.9999975280763,8|8,0:1|0:0,0:0:0:0:
369,225,17212,6,0,P|329:233|292:250,1,80.9999975280763,12|8,0:1|0:0,0:0:0:0:
230,346,17462,1,8,0:0:0:0:
374,220,17587,6,0,P|333:225|296:239,1,80.9999975280763,12|8,0:1|0:0,0:0:0:0:
226,350,17837,1,8,0:0:0:0:
379,215,17962,6,0,P|338:217|299:229,1,80.9999975280763,12|8,0:1|0:0,0:0:0:0:
222,353,18212,1,8,0:0:0:0:
384,210,18337,6,0,P|343:209|304:218,1,80.9999975280763,12|8,0:1|0:0,0:0:0:0:
218,356,18587,1,8,0:0:0:0:
389,205,18712,6,0,P|348:201|308:208,1,80.9999975280763,12|8,0:1|0:0,0:0:0:0:
84,263,18962,2,0,P|123:269|164:265,1,80.9999975280763,12|8,0:1|0:0,0:0:0:0:
394,200,19212,6,0,P|353:196|313:203,1,80.9999975280763,12|8,0:1|0:0,0:0:0:0:
246,372,19462,2,0,P|269:338|283:300,1,80.9999975280763,8|8,0:0|0:1,0:0:0:0:
169,158,19712,1,8,0:0:0:0:
169,158,19837,1,8,0:0:0:0:
169,158,19962,2,0,P|186:195|212:226,1,80.9999975280763,4|0,0:3|0:0,0:0:0:0:
337,355,20212,5,8,0:1:0:0:
385,280,20337,1,8,0:0:0:0:
344,200,20462,1,8,0:3:0:0:
256,192,20587,1,8,0:3:0:0:
167,183,20712,1,4,0:3:0:0:
126,104,20837,1,4,0:3:0:0:
176,30,20962,1,4,0:3:0:0:
256,192,21212,5,12,0:0:0:0:
256,192,21462,1,8,0:0:0:0:
256,192,21712,1,8,0:0:0:0:
256,192,21962,1,8,0:0:0:0:
256,192,22212,1,8,0:0:0:0:
256,192,22462,1,8,0:0:0:0:
256,192,22712,1,10,0:0:0:0:
256,192,22962,1,8,0:0:0:0:
405,134,23212,6,8,P|364:129|324:135,1,80.9999975280763,12|8,0:0|0:0,0:0:0:0:
107,250,23462,2,8,P|147:254|187:248,1,80.9999975280763,8|8,0:1|0:0,0:0:0:0:
280,33,23712,2,8,P|256:66|241:104,1,80.9999975280763
231,350,23962,2,8,P|255:317|270:279,1,80.9999975280763
131,91,24212,2,8,P|147:128|173:160,1,80.9999975280763,8|8,0:0|0:1,0:0:0:0:
380,292,24462,2,8,P|364:255|338:223,1,80.9999975280763
107,250,24712,2,8,P|147:254|187:248,1,80.9999975280763,8|8,0:1|0:0,0:0:0:0:
324,134,24962,1,8,0:1:0:0:
324,134,25212,5,12,0:0:0:0:
269,279,25337,1,8,0:0:0:0:
417,239,25462,2,0,P|378:226|338:223,1,80.9999975280763,8|0,0:1|0:0,0:0:0:0:
187,247,25712,1,8,0:0:0:0:
281,146,25837,2,0,P|319:133|359:130,1,80.9999975280763,8|0,0:1|0:0,0:0:0:0:
199,231,26087,1,8,0:0:0:0:
125,119,26212,6,0,P|127:78|140:40,1,80.9999975280763,8|8,0:1|0:0,0:0:0:0:
199,231,26462,1,0,0:0:0:0:
52,170,26587,2,0,P|128:144|209:140,1,161.999995056153,8|8,0:0|0:0,0:0:0:0:
353,222,26962,2,0,P|391:234|431:238,1,80.9999975280763,8|0,0:1|0:0,0:0:0:0:
253,232,27212,6,0,P|222:258|199:292,1,80.9999975280763,8|8,0:0|0:0,0:0:0:0:
299,139,27462,2,0,P|290:99|273:62,1,80.9999975280763,8|0,0:1|0:0,0:0:0:0:
382,225,27712,1,8,0:0:0:0:
382,225,27837,1,8,0:1:0:0:
382,225,27962,2,0,P|399:188|407:148,1,80.9999975280763,0|8,0:0|0:0,0:0:0:0:
260,0,28212,6,0,P|294:72|310:152,1,161.999995056153,8|0,0:1|0:0,0:0:0:0:
197,282,28587,2,0,P|214:245|222:205,1,80.9999975280763,8|0,0:0|0:0,0:0:0:0:
126,59,28837,1,8,0:0:0:0:
126,59,28962,2,0,P|134:98|150:135,1,80.9999975280763,8|0,0:1|0:0,0:0:0:0:
322,223,29212,6,0,P|335:184|338:144,1,80.9999975280763,12|8,0:0|0:0,0:0:0:0:
386,295,29462,2,0,P|314:261|234:245,1,161.999995056153,8|8,0:1|0:0,0:0:0:0:
101,284,29837,1,8,0:1:0:0:
174,170,29962,2,0,P|213:157|253:154,1,80.9999975280763,0|8,0:0|0:0,0:0:0:0:
113,272,30212,5,8,0:1:0:0:
66,101,30337,2,0,P|53:139|50:180,1,80.9999975280763,8|0,0:0|0:0,0:0:0:0:
111,356,30587,2,0,P|126:276|161:203,1,161.999995056153,8|8,0:0|0:0,0:0:0:0:
247,356,30962,2,0,P|231:319|223:280,1,80.9999975280763,8|0,0:1|0:0,0:0:0:0:
319,140,31212,6,0,P|283:159|252:185,1,80.9999975280763,12|8,0:0|0:0,0:0:0:0:
415,242,31462,2,0,P|376:231|335:228,1,80.9999975280763,8|0,0:1|0:0,0:0:0:0:
201,345,31712,1,8,0:0:0:0:
201,345,31837,1,8,0:1:0:0:
201,345,31962,2,0,P|229:316|252:282,1,80.9999975280763,0|8,0:0|0:1,0:0:0:0:
185,123,32212,5,8,0:0:0:0:
166,224,32337,1,8,0:1:0:0:
251,282,32462,1,0,0:0:0:0:
272,181,32587,1,8,0:1:0:0:
272,181,32837,1,4,0:3:0:0:
251,282,32962,1,4,0:3:0:0:
166,224,33087,1,4,0:3:0:0:
185,123,33212,6,0,P|246:74|322:91,1,161.999995056153,12|8,0:0|0:0,0:0:0:0:
390,169,33587,1,8,0:0:0:0:
486,109,33712,2,0,P|499:70|502:30,1,80.9999975280763,8|0,0:1|0:0,0:0:0:0:
390,169,33962,2,0,P|393:209|406:247,1,80.9999975280763,8|0,0:0|0:0,0:0:0:0:
499,357,34212,5,8,0:0:0:0:
499,357,34337,1,8,0:1:0:0:
499,357,34462,2,0,P|462:339|422:331,1,80.9999975280763,8|8,0:0|0:0,0:0:0:0:
260,325,34712,2,0,P|296:307|336:299,1,80.9999975280763,8|0,0:1|0:0,0:0:0:0:
485,263,34962,2,0,P|449:245|409:237,1,80.9999975280763,8|8,0:0|0:3,0:0:0:0:
314,138,35212,5,8,0:0:0:0:
314,138,35337,2,0,P|274:145|238:163,1,80.9999975280763,8|0,0:1|0:0,0:0:0:0:
178,257,35587,1,8,0:0:0:0:
82,182,35712,2,0,P|69:143|66:103,1,80.9999975280763,8|8,0:1|0:0,0:0:0:0:
178,257,35962,2,0,P|174:297|161:335,1,80.9999975280763
12,293,36212,6,0,P|50:280|90:276,1,80.9999975280763,8|8,0:0|0:3,0:0:0:0:
179,168,36462,2,0,P|219:171|257:184,1,80.9999975280763,8|4,0:0|0:3,0:0:0:0:
346,274,36712,1,8,0:1:0:0:
394,160,36837,1,8,0:0:0:0:
394,160,36899,1,8,0:1:0:0:
394,160,36962,1,8,0:1:0:0:
257,184,37087,1,8,0:1:0:0:
287,338,37212,6,0,P|363:355|424:306,1,161.999995056153,12|8,0:0|0:1,0:0:0:0:
216,281,37587,1,0,0:0:0:0:
216,281,37712,2,0,P|203:320|200:360,1,80.9999975280763,8|8,0:0|0:0,0:0:0:0:
346,274,37962,2,0,P|342:233|329:195,1,80.9999975280763,8|0,0:1|0:0,0:0:0:0:
159,130,38212,6,0,P|196:147|235:154,1,80.9999975280763,8|0,0:0|0:0,0:0:0:0:
320,93,38462,2,0,P|357:75|396:68,1,80.9999975280763,8|8,0:1|0:0,0:0:0:0:
469,180,38712,1,0,0:0:0:0:
469,180,38837,1,8,0:0:0:0:
469,180,38962,2,0,P|431:162|392:155,1,80.9999975280763,8|0,0:1|0:0,0:0:0:0:
206,143,39212,6,0,P|242:125|282:118,1,80.9999975280763,8|0,0:0|0:0,0:0:0:0:
462,195,39462,2,0,P|424:177|385:170,1,80.9999975280763,8|0,0:1|0:0,0:0:0:0:
189,132,39712,2,0,P|225:115|265:108,1,80.9999975280763,8|8,0:0|0:0,0:0:0:0:
347,188,39962,1,8,0:1:0:0:
399,35,40087,1,8,0:0:0:0:
399,35,40149,1,8,0:0:0:0:
399,35,40212,6,0,P|411:73|415:113,1,80.9999975280763,12|8,0:1|0:0,0:0:0:0:
330,266,40462,2,0,P|334:226|347:188,1,80.9999975280763,8|4,0:0|0:3,0:0:0:0:
506,153,40712,1,8,0:1:0:0:
438,223,40837,1,8,0:1:0:0:
347,187,40962,1,8,0:1:0:0:
256,151,41087,1,8,0:1:0:0:
184,221,41212,6,0,P|171:259|168:299,1,80.9999975280763,12|0,0:0|0:0,0:0:0:0:
256,151,41462,2,0,P|252:110|240:72,1,80.9999975280763,8|0,0:0|0:0,0:0:0:0:
89,114,41712,1,8,0:0:0:0:
89,114,41837,1,0,0:0:0:0:
89,114,41962,2,0,P|127:126|167:129,1,80.9999975280763,8|0,0:0|0:0,0:0:0:0:
318,56,42212,6,0,P|278:59|240:72,1,80.9999975280763,8|0,0:0|0:0,0:0:0:0:
458,141,42462,2,0,P|418:138|380:125,1,80.9999975280763,8|0,0:0|0:0,0:0:0:0:
234,67,42712,2,0,P|272:53|312:50,1,80.9999975280763,8|0,0:0|0:0,0:0:0:0:
463,146,42962,2,0,P|423:143|385:130,1,80.9999975280763,8|0,0:0|0:0,0:0:0:0:
211,201,43212,6,0,P|249:187|289:184,1,80.9999975280763,12|0,0:0|0:0,0:0:0:0:
381,253,43462,1,8,0:0:0:0:
463,146,43587,2,0,P|459:105|446:67,1,80.9999975280763,0|8,0:0|0:0,0:0:0:0:
395,234,43837,1,0,0:0:0:0:
295,145,43962,2,0,P|257:131|216:128,1,80.9999975280763,8|0,0:0|0:0,0:0:0:0:
63,86,44212,6,0,P|100:72|141:69,1,80.9999975280763,8|0,0:0|0:0,0:0:0:0:
315,132,44462,2,0,P|277:118|236:115,1,80.9999975280763,8|0,0:0|0:0,0:0:0:0:
148,158,44712,1,8,0:1:0:0:
118,250,44837,1,8,0:1:0:0:
164,335,44962,1,8,0:1:0:0:
257,362,45087,1,8,0:1:0:0:
334,303,45212,6,0,P|372:290|412:286,1,80.9999975280763,12|0,0:0|0:0,0:0:0:0:
243,244,45462,2,0,P|204:230|164:227,1,80.9999975280763,8|0,0:1|0:0,0:0:0:0:
31,326,45712,1,8,0:0:0:0:
31,326,45837,1,8,0:0:0:0:
31,326,45962,2,0,P|61:299|84:266,1,80.9999975280763,8|0,0:1|0:0,0:0:0:0:
62,97,46212,6,0,P|69:136|86:173,1,80.9999975280763,8|8,0:0|0:0,0:0:0:0:
178,269,46462,1,8,0:1:0:0:
243,180,46587,2,0,P|281:166|321:163,1,80.9999975280763,8|0,0:0|0:0,0:0:0:0:
405,204,46837,1,8,0:0:0:0:
454,59,46962,2,0,P|467:97|470:137,1,80.9999975280763,8|8,0:1|0:0,0:0:0:0:
389,282,47212,6,0,P|391:242|405:204,1,80.9999975280763,8|8,0:0|0:0,0:0:0:0:
305,84,47462,2,0,P|318:122|321:163,1,80.9999975280763,8|0,0:1|0:0,0:0:0:0:
162,203,47712,1,8,0:0:0:0:
162,203,47837,1,8,0:0:0:0:
162,203,47962,2,0,P|188:172|222:149,1,80.9999975280763,8|8,0:1|0:0,0:0:0:0:
337,264,48212,6,0,P|297:256|260:238,1,80.9999975280763,8|0,0:1|0:0,0:0:0:0:
140,315,48462,2,0,P|166:307|192:303,2,53.9999983520508,8|8|8,0:1|0:3|0:0,0:0:0:0:
273,357,48712,1,8,0:1:0:0:
366,330,48837,1,8,0:3:0:0:
412,245,48962,1,4,0:3:0:0:
382,153,49087,1,4,0:3:0:0:
289,121,49212,6,0,P|248:124|210:138,1,80.9999975280763,12|8,0:1|0:0,0:0:0:0:
73,209,49462,1,0,0:0:0:0:
73,209,49587,1,8,0:0:0:0:
73,209,49712,2,0,P|90:172|116:141,1,80.9999975280763,12|8,0:1|0:0,0:0:0:0:
183,308,49962,2,0,P|169:270|165:229,1,80.9999975280763,0|8,0:0|0:0,0:0:0:0:
298,127,50212,6,0,P|257:130|219:144,1,80.9999975280763,12|8,0:1|0:0,0:0:0:0:
192,314,50462,2,0,P|178:276|174:235,1,80.9999975280763,0|8,0:0|0:0,0:0:0:0:
388,169,50712,2,0,P|401:206|405:247,1,80.9999975280763,12|8,0:1|0:0,0:0:0:0:
282,356,50962,2,0,P|322:352|360:338,1,80.9999975280763,0|8,0:0|0:0,0:0:0:0:
196,278,51212,6,0,P|127:237|47:241,1,161.999995056153,12|0,0:1|0:0,0:0:0:0:
315,278,51712,2,0,P|384:237|464:241,1,161.999995056153,12|0,0:1|0:0,0:0:0:0:
146,236,52212,2,0,P|66:234|0:278,1,161.999995056153,12|0,0:1|0:0,0:0:0:0:
366,236,52712,2,0,P|445:234|512:278,1,161.999995056153,12|0,0:1|0:0,0:0:0:0:
211,136,53212,6,0,P|256:191|300:135,1,164.684645087658,2|0,0:0|0:0,0:0:0:0:
256,72,54212,1,12,0:1:0:0:
322,273,54712,5,2,0:0:0:0:
317,316,54795,1,0,0:0:0:0:
357,298,54878,1,0,0:0:0:0:
307,293,54962,5,2,0:0:0:0:
342,318,55045,1,0,0:0:0:0:
346,275,55128,1,0,0:0:0:0:
330,294,55212,6,0,P|414:312|482:258,1,180,12|8,0:0|0:1,0:0:0:0:
344,182,55587,1,0,0:0:0:0:
241,229,55712,2,0,P|226:271|223:315,1,90,8|8,0:0|0:0,0:0:0:0:
344,182,55962,2,0,P|341:137|326:94,1,90,8|0,0:1|0:0,0:0:0:0:
164,7,56212,6,0,P|208:9|251:24,1,90,8|0,0:0|0:0,0:0:0:0:
413,76,56462,2,0,P|368:78|326:94,1,90,8|8,0:1|0:0,0:0:0:0:
283,189,56712,1,0,0:0:0:0:
195,86,56837,1,8,0:0:0:0:
87,205,56962,2,0,P|128:189|173:187,1,90,8|0,0:1|0:0,0:0:0:0:
366,299,57212,6,0,P|321:297|279:281,1,90,8|0,0:0|0:0,0:0:0:0:
173,187,57462,1,8,0:1:0:0:
208,326,57587,1,0,0:0:0:0:
97,249,57712,2,0,P|82:206|79:161,1,90,8|8,0:0|0:0,0:0:0:0:
213,41,57962,2,0,P|227:83|230:128,1,90,8|0,0:1|0:0,0:0:0:0:
117,293,58212,6,0,P|184:237|269:255,1,180,8|8,0:0|0:1,0:0:0:0:
352,340,58587,1,8,0:0:0:0:
444,229,58712,2,0,P|440:184|425:141,1,90,0|8,0:0|0:0,0:0:0:0:
333,31,58962,2,0,P|329:75|314:118,1,90,8|0,0:1|0:0,0:0:0:0:
140,100,59212,6,0,P|158:22|231:53,1,180,12|8,0:0|0:1,0:0:0:0:
234,165,59587,1,0,0:0:0:0:
120,92,59712,2,0,P|75:95|32:110,1,90,8|8,0:0|0:0,0:0:0:0:
245,41,59962,2,0,P|290:44|333:59,1,90,8|0,0:1|0:0,0:0:0:0:
457,176,60212,6,0,P|371:158|305:214,1,180,8|8,0:0|0:1,0:0:0:0:
399,264,60587,1,8,0:0:0:0:
324,125,60712,2,0,P|309:168|305:213,1,90,0|8,0:0|0:0,0:0:0:0:
418,351,60962,2,0,P|413:306|398:264,1,90,8|8,0:1|0:0,0:0:0:0:
217,146,61212,6,12,P|201:188|197:232,1,90,12|8,0:1|0:0,0:1:0:0:
261,341,61462,1,8,0:0:0:0:
209,139,61587,6,0,P|193:181|189:225,1,90,12|8,0:1|0:0,0:0:0:0:
269,348,61837,1,8,0:0:0:0:
202,132,61962,5,8,0:1:0:0:
329,265,62087,1,8,0:0:0:0:
329,265,62149,1,8,0:0:0:0:
329,265,62212,2,0,L|384:272,3,45,8|8|8|8,0:1|0:0|0:0|0:0,0:0:0:0:
233,219,62462,2,0,L|178:226,3,45,8|8|4|8,0:3|0:0|0:3|0:0,0:0:0:0:
159,308,62712,5,4,0:3:0:0:
124,279,62774,1,8,0:0:0:0:
107,238,62837,1,8,0:0:0:0:
111,194,62899,1,8,0:0:0:0:
136,157,62962,2,2,P|159:151|190:148,1,45,8|0,0:1|0:0,0:1:0:0:
260,116,63087,2,2,P|282:119|304:124,1,45,0|8,0:0|0:0,0:1:0:0:
365,192,63212,6,0,P|406:207|451:209,1,90,12|0,0:0|0:0,0:0:0:0:
260,116,63462,2,0,P|215:117|173:133,1,90,8|0,0:1|0:0,0:0:0:0:
119,239,63712,1,8,0:0:0:0:
235,200,63837,1,8,0:0:0:0:
134,52,63962,2,0,P|103:85|85:125,1,90,8|0,0:1|0:0,0:0:0:0:
173,277,64212,6,0,P|239:221|324:239,1,180,8|8,0:0|0:1,0:0:0:0:
391,341,64587,1,8,0:0:0:0:
484,219,64712,2,0,P|480:174|465:131,1,90,0|8,0:0|0:0,0:0:0:0:
344,18,64962,2,0,P|329:60|325:105,1,90,8|0,0:1|0:0,0:0:0:0:
410,255,65212,6,0,P|368:239|324:239,1,90,8|0,0:0|0:0,0:0:0:0:
206,311,65462,1,8,0:1:0:0:
263,177,65587,1,0,0:0:0:0:
135,248,65712,2,0,P|119:290|115:334,1,90,8|8,0:0|0:0,0:0:0:0:
263,177,65962,2,0,P|259:132|243:90,1,90,8|0,0:1|0:0,0:0:0:0:
27,113,66212,6,0,P|93:169|178:151,1,180,8|8,0:0|0:1,0:0:0:0:
238,44,66587,1,8,0:0:0:0:
347,115,66712,2,0,P|362:156|366:201,1,90,0|8,0:0|0:0,0:0:0:0:
256,367,66962,2,0,P|259:322|275:280,1,90,8|0,0:1|0:0,0:0:0:0:
456,205,67212,6,0,B|397:212|397:212|345:185|345:185|284:192,1,180,12|8,0:0|0:1,0:0:0:0:
166,252,67587,1,0,0:0:0:0:
215,126,67712,2,0,P|256:110|301:107,1,90,8|8,0:0|0:0,0:0:0:0:
460,68,67962,2,0,P|419:52|374:49,1,90,8|8,0:1|0:0,0:0:0:0:
126,162,68212,6,0,P|192:218|277:199,1,180,8|8,0:0|0:1,0:0:0:0:
167,44,68587,1,8,0:0:0:0:
52,95,68712,2,0,P|36:136|33:181,1,90,0|8,0:0|0:0,0:0:0:0:
164,319,68962,2,0,P|180:278|183:233,1,90,8|8,0:1|0:0,0:0:0:0:
126,162,69149,1,8,0:0:0:0:
134,150,69212,6,0,P|175:134|220:131,1,90,12|8,0:1|0:0,0:0:0:0:
410,97,69462,2,0,P|369:81|324:78,1,90,8|4,0:0|0:3,0:0:0:0:
203,215,69712,1,8,0:0:0:0:
338,165,69837,1,8,0:0:0:0:
190,219,69962,1,8,0:1:0:0:
350,160,70087,1,8,0:0:0:0:
312,313,70212,5,8,0:3:0:0:
312,313,70337,1,8,0:3:0:0:
253,153,70462,1,4,0:3:0:0:
253,153,70587,1,4,0:3:0:0:
347,209,70712,5,8,0:1:0:0:
312,313,70837,1,8,0:3:0:0:
218,257,70962,1,4,0:3:0:0:
253,153,71087,1,4,0:3:0:0:
347,209,71212,6,0,P|422:228|486:182,1,161.999995056153,12|0,0:0|0:0,0:0:0:0:
400,89,71587,1,8,0:0:0:0:
347,209,71712,2,0,P|350:249|362:287,1,80.9999975280763,8|0,0:1|0:0,0:0:0:0:
246,384,71962,2,0,P|258:345|261:305,1,80.9999975280763,8|0,0:0|0:0,0:0:0:0:
147,182,72212,5,8,0:0:0:0:
147,182,72337,2,0,P|128:257|174:321,1,161.999995056153,8|8,0:1|0:0,0:0:0:0:
261,305,72649,1,8,0:0:0:0:
277,296,72712,2,0,P|317:299|355:311,1,80.9999975280763,8|0,0:1|0:0,0:0:0:0:
483,218,72962,2,0,P|444:230|404:233,1,80.9999975280763,8|0,0:0|0:0,0:0:0:0:
316,123,73212,6,0,B|262:116|262:116|216:141|216:141|161:134,1,161.999995056153,12|0,0:0|0:0,0:0:0:0:
94,64,73587,1,8,0:0:0:0:
102,208,73712,2,0,P|177:227|241:181,1,161.999995056153,8|8,0:1|0:0,0:0:0:0:
241,180,74212,5,8,0:0:0:0:
351,263,74337,2,0,P|325:186|321:105,1,161.999995056153,8|8,0:1|0:0,0:0:0:0:
436,10,74712,2,0,P|395:13|357:25,1,80.9999975280763,8|8,0:1|0:0,0:0:0:0:
242,142,74962,1,8,0:1:0:0:
202,164,75024,1,8,0:1:0:0:
158,166,75087,1,8,0:1:0:0:
118,148,75149,1,8,0:1:0:0:
92,111,75212,6,0,B|85:172|85:172|112:224|112:224|105:283,1,180,12|8,0:0|0:1,0:0:0:0:
58,360,75587,1,0,0:0:0:0:
193,297,75712,2,0,P|237:297|279:313,1,90,8|8,0:0|0:0,0:0:0:0:
415,383,75962,2,0,P|393:344|385:300,1,90,8|0,0:1|0:0,0:0:0:0:
501,159,76212,6,0,P|416:177|349:121,1,180,8|8,0:0|0:1,0:0:0:0:
440,81,76587,1,8,0:0:0:0:
298,37,76712,2,0,P|254:37|212:53,1,90,0|8,0:0|0:0,0:0:0:0:
55,110,76962,2,0,P|99:110|141:126,1,90,8|8,0:1|0:0,0:0:0:0:
196,193,77149,1,8,0:0:0:0:
212,202,77212,6,0,L|302:195,1,90,12|8,0:1|0:0,0:0:0:0:
489,232,77462,2,0,L|399:239,1,90,8|8,0:1|0:0,0:0:0:0:
205,194,77712,2,0,L|295:187,1,90,8|8,0:1|0:0,0:0:0:0:
497,239,77962,2,0,L|407:246,1,90,8|8,0:1|0:0,0:0:0:0:
197,187,78212,2,0,L|287:180,1,90,8|8,0:1|0:0,0:0:0:0:
505,246,78462,2,0,L|415:253,1,90,8|8,0:1|0:0,0:0:0:0:
197,187,78712,5,8,0:1:0:0:
357,121,78837,1,8,0:0:0:0:
182,165,78962,1,8,0:1:0:0:
371,142,79087,1,8,0:1:0:0:
168,146,79212,6,0,P|123:146|81:162,1,90,12|8,0:0|0:0,0:0:0:0:
249,201,79462,1,8,0:1:0:0:
179,56,79587,1,8,0:1:0:0:
290,91,79712,1,8,0:0:0:0:
168,146,79837,1,8,0:1:0:0:
161,150,79899,1,8,0:1:0:0:
154,153,79962,6,0,P|131:157|109:157,3,45,8|8|8|8,0:1|0:0|0:0|0:0,0:0:0:0:
237,118,80212,2,8,P|259:117|281:121,3,45
344,179,80462,1,8,0:0:0:0:
381,204,80525,1,8,0:0:0:0:
425,208,80587,1,8,0:0:0:0:
466,191,80650,1,8,0:0:0:0:
495,156,80712,1,8,0:1:0:0:
495,156,81212,6,0,P|431:109|355:129,1,161.999995056153,12|8,0:0|0:0,0:0:0:0:
306,222,81587,1,0,0:0:0:0:
214,138,81712,2,0,P|216:97|228:59,1,80.9999975280763,8|0,0:0|0:0,0:0:0:0:
306,222,81962,2,0,P|318:260|320:300,1,80.9999975280763,8|0,0:0|0:0,0:0:0:0:
151,290,82212,1,8,0:0:0:0:
151,290,82337,1,0,0:0:0:0:
151,290,82462,6,0,L|233:277,1,80.9999975280763,8|0,0:0|0:0,0:0:0:0:
359,384,82712,2,0,P|328:357|307:322,1,80.9999975280763,10|0,0:0|0:0,0:0:0:0:
342,161,82962,2,0,P|334:200|314:235,1,80.9999975280763,10|0,0:0|0:0,0:0:0:0:
170,151,83212,5,8,0:0:0:0:
170,151,83337,1,0,0:0:0:0:
170,151,83462,2,0,P|210:151|248:164,1,80.9999975280763,8|0,0:0|0:0,0:0:0:0:
368,72,83712,2,0,P|327:72|289:85,1,80.9999975280763,8|0,0:0|0:0,0:0:0:0:
153,165,83962,2,0,P|193:165|231:178,1,80.9999975280763,8|0,0:0|0:0,0:0:0:0:
330,316,84212,5,8,0:0:0:0:
330,316,84337,1,0,0:0:0:0:
330,316,84462,2,0,P|310:281|302:241,1,80.9999975280763,8|0,0:0|0:0,0:0:0:0:
368,72,84712,5,8,0:1:0:0:
391,225,84837,1,8,0:3:0:0:
301,143,84962,1,4,0:3:0:0:
335,298,85087,1,8,0:0:0:0:
333,298,85149,1,8,0:0:0:0:
333,298,85212,6,0,P|409:316|472:270,1,161.999995056153,12|0,0:1|0:0,0:0:0:0:
339,198,85587,1,8,0:0:0:0:
250,243,85712,2,0,P|237:281|236:321,1,80.9999975280763,8|0,0:1|0:0,0:0:0:0:
339,198,85962,2,0,P|337:157|325:119,1,80.9999975280763,0|8,0:0|0:1,0:0:0:0:
169,59,86212,5,8,0:0:0:0:
169,59,86337,1,8,0:1:0:0:
169,59,86462,2,0,L|249:66,1,80.9999975280763,0|8,0:0|0:0,0:0:0:0:
401,136,86712,2,0,P|325:118|262:164,1,161.999995056153,8|0,0:1|0:0,0:0:0:0:
346,212,87087,1,8,0:0:0:0:
191,218,87212,6,0,P|178:179|177:139,1,80.9999975280763,12|8,0:1|0:0,0:0:0:0:
311,40,87462,2,0,P|323:78|325:119,1,80.9999975280763,0|8,0:0|0:0,0:0:0:0:
184,226,87712,2,0,P|171:187|170:147,1,80.9999975280763,8|8,0:1|0:0,0:0:0:0:
319,33,87962,2,0,P|331:71|332:111,1,80.9999975280763,0|8,0:0|0:0,0:0:0:0:
279,248,88212,5,8,0:1:0:0:
245,100,88337,1,8,0:0:0:0:
245,100,88399,1,8,0:0:0:0:
245,100,88462,1,4,0:3:0:0:
349,194,88587,1,4,0:3:0:0:
189,233,88712,1,8,0:1:0:0:
245,100,88837,1,8,0:0:0:0:
279,248,88962,1,12,0:1:0:0:
