osu file format v14

[General]
AudioFilename: audio.mp3
AudioLeadIn: 0
PreviewTime: 55087
Countdown: 0
SampleSet: Soft
StackLeniency: 0.3
Mode: 0
LetterboxInBreaks: 0
WidescreenStoryboard: 1

[Editor]
Bookmarks: 52649,76212
DistanceSpacing: 1.5
BeatDivisor: 4
GridSize: 32
TimelineZoom: 4.599998

[Metadata]
Title:Los! Los! Los!
TitleUnicode:Los! Los! Los!
Artist:Tanya Degurechaff (CV: Yuki Aoi)
ArtistUnicode:ターニャ・デグレチャフ(CV:悠木碧)
Creator:Logic Agent
Version:Wrath of God
Source:幼女戦記
Tags:Youjo Senki Saga of Tanya the Evil ED ending TV Size yuuki losloslos Akitoshi Xinely Kalibe Mun pkhg Plaudible Hobbes2 Lasse
BeatmapID:1541853
BeatmapSetID:570679

[Difficulty]
HPDrainRate:6
CircleSize:4
OverallDifficulty:9.4
ApproachRate:9.6
SliderMultiplier:2
SliderTickRate:1

[Events]
//Background and Video events
0,0,"792738.jpg",0,0
Video,592,"ed.avi"
//Break Periods
//Storyboard Layer 0 (Background)
//Storyboard Layer 1 (Fail)
//Storyboard Layer 2 (Pass)
//Storyboard Layer 3 (Foreground)
//Storyboard Sound Samples

[TimingPoints]
1212,250,4,2,10,40,1,0
1212,-125,4,2,10,40,0,0
5212,-111.111111111111,4,2,10,50,0,0
7212,-111.111111111111,4,2,10,53,0,0
9212,-99.9999999999999,4,2,10,55,0,0
11212,-99.9999999999999,4,2,10,57,0,0
13212,-90.9090909090909,4,2,10,60,0,0
17212,-100,4,2,10,60,0,0
21212,-125,4,2,10,50,0,0
23212,-111.111111111111,4,2,10,55,0,0
25212,-125,4,2,10,55,0,0
33212,-142.857142857143,4,2,10,50,0,0
37212,-111.111111111111,4,2,10,60,0,0
41212,-125,4,2,10,50,0,0
45212,-142.857142857143,4,2,10,60,0,0
49212,-125,4,2,10,60,0,0
51212,-111.111111111111,4,2,10,60,0,0
51712,-99.9999999999999,4,2,10,60,0,0
52212,-90.9090909090909,4,2,10,70,0,0
52712,-83.3333333333333,4,2,10,70,0,0
53212,-83.3333333333333,4,2,10,60,0,0
53295,-83.3333333333333,4,2,10,5,0,0
54212,-83.3333333333333,4,2,10,60,0,0
54712,-111.111111111111,4,2,10,50,0,0
54962,-111.111111111111,4,2,10,50,0,0
55212,-90.9090909090909,4,2,10,70,0,1
61212,-83.3333333333333,4,2,10,70,0,1
62212,-83.3333333333333,4,2,10,70,0,1
62712,-90.9090909090909,4,2,10,70,0,0
63212,-90.9090909090909,4,2,10,70,0,1
69212,-83.3333333333333,4,2,10,70,0,1
71212,-111.111111111111,4,2,10,60,0,0
75212,-90.9090909090909,4,2,10,70,0,1
77212,-76.9230769230769,4,2,10,70,0,1
79212,-83.3333333333333,4,2,10,70,0,1
80712,-166.666666666667,4,2,10,70,0,1
81212,-90.9090909090909,4,2,10,60,0,0
87212,-90.9090909090909,4,2,10,60,0,0
88712,-90.9090909090909,4,2,10,60,0,0
88962,-90.9090909090909,4,2,10,60,0,0
89024,-90.9090909090909,4,2,10,5,0,0

[Colours]
Combo1 : 195,195,195
Combo2 : 255,91,104
Combo3 : 253,181,72
Combo4 : 188,129,114

[HitObjects]
31,101,1212,6,0,P|40:154|44:187,1,80,6|0,0:0|0:0,0:0:0:0:
120,203,1462,2,0,P|101:253|92:285,1,80,0|0,0:0|0:0,0:0:0:0:
123,353,1712,2,0,P|176:344|209:340,1,80,2|0,0:0|0:0,0:0:0:0:
243,272,1962,2,0,P|282:278|322:284,1,80,2|0,0:0|0:0,0:0:0:0:
388,327,2212,6,0,P|398:289|391:250,1,80,2|0,0:0|0:0,0:0:0:0:
327,202,2462,2,0,P|316:163|323:124,1,80,0|0,0:0|0:0,0:0:0:0:
390,80,2712,1,2,0:0:0:0:
390,80,2962,2,0,P|429:80|469:83,1,80,2|0,0:0|0:0,0:0:0:0:
323,34,3212,6,0,P|277:33|242:30,1,80,2|0,0:0|0:0,0:0:0:0:
167,56,3462,2,0,P|189:88|198:127,1,80,0|0,0:0|0:0,0:0:0:0:
128,166,3712,2,0,P|105:198|96:237,1,80,2|0,0:0|0:0,0:0:0:0:
134,308,3962,2,0,P|173:308|213:311,1,80,2|0,0:0|0:0,0:0:0:0:
358,268,4212,6,0,P|318:268|279:265,1,80,2|0,0:0|0:0,0:0:0:0:
269,99,4462,2,0,P|269:138|272:178,1,80,2|0,0:0|0:0,0:0:0:0:
392,364,4712,1,2,0:0:0:0:
416,211,4837,1,0,0:0:0:0:
278,264,4962,2,0,P|218:254|159:247,1,120,2|0,0:0|0:0,0:0:0:0:
131,173,5212,6,0,P|126:128|118:83,1,89.9999972534181,12|0,0:0|0:0,0:0:0:0:
16,190,5462,2,0,P|7:234|4:278,1,89.9999972534181,8|0,0:0|0:0,0:0:0:0:
94,354,5712,1,8,0:0:0:0:
143,183,5837,1,0,0:0:0:0:
250,299,5962,2,0,P|294:291|339:286,1,89.9999972534181,8|0,0:0|0:0,0:0:0:0:
406,108,6212,6,0,P|415:153|419:197,1,89.9999972534181,8|0,0:0|0:0,0:0:0:0:
326,50,6462,2,0,P|318:94|313:139,1,89.9999972534181,8|0,0:0|0:0,0:0:0:0:
255,370,6712,2,0,P|246:281|230:193,1,179.999994506836,10|8,0:0|0:0,0:0:0:0:
131,273,7087,1,0,0:0:0:0:
344,343,7212,5,12,0:0:0:0:
418,196,7337,1,0,0:0:0:0:
512,309,7462,2,0,P|467:300|423:292,1,89.9999972534181,8|0,0:0|0:0,0:0:0:0:
329,212,7712,2,0,P|373:203|417:195,1,89.9999972534181,8|0,0:0|0:0,0:0:0:0:
496,121,7962,2,0,P|504:165|512:209,1,89.9999972534181,8|0,0:0|0:0,0:0:0:0:
250,299,8212,5,8,0:0:0:0:
200,145,8337,1,0,0:0:0:0:
40,280,8462,2,0,P|84:274|129:271,1,89.9999972534181,8|0,0:0|0:0,0:0:0:0:
297,159,8712,1,10,0:0:0:0:
211,54,8837,1,0,0:0:0:0:
321,252,8962,1,10,0:0:0:0:
200,145,9086,1,0,0:0:0:0:
323,86,9212,6,0,L|445:67,1,100,12|0,0:0|0:0,0:0:0:0:
323,335,9462,2,0,L|201:316,1,100,8|0,0:0|0:0,0:0:0:0:
148,85,9712,1,8,0:0:0:0:
296,198,9837,1,0,0:0:0:0:
46,271,9962,2,0,L|30:172,1,100,8|0,1:2|0:0,0:0:0:0:
296,198,10212,6,0,L|280:296,1,100,8|0,1:2|0:0,0:0:0:0:
148,85,10462,2,0,L|163:183,1,100,8|0,1:2|0:0,0:0:0:0:
398,17,10712,2,0,L|383:116,1,100,10|0,0:0|0:0,0:0:0:0:
30,23,10962,2,0,L|45:121,1,100,12|0,0:1|0:0,0:0:0:0:
110,317,11212,5,4,0:0:0:0:
163,183,11337,1,2,0:0:0:0:
279,296,11462,1,8,0:0:0:0:
30,172,11587,1,8,0:1:0:0:
195,352,11712,5,8,0:0:0:0:
239,126,11837,1,8,0:1:0:0:
29,282,11962,1,8,0:0:0:0:
279,382,12087,1,8,0:1:0:0:
121,256,12212,5,8,0:1:0:0:
117,218,12274,1,8,0:0:0:0:
113,181,12337,1,8,0:1:0:0:
109,144,12399,1,8,0:0:0:0:
105,106,12462,1,8,0:1:0:0:
281,203,12587,1,8,0:0:0:0:
11,82,12712,5,8,0:3:0:0:
34,38,12774,1,8,0:3:0:0:
76,12,12837,1,4,0:3:0:0:
125,9,12899,1,4,0:3:0:0:
169,32,12962,2,0,P|164:59|159:86,1,50,8|2,0:1|2:2,0:0:0:0:
79,163,13087,2,0,P|84:188|88:213,1,50,8|2,0:1|2:2,0:0:0:0:
55,325,13212,6,0,P|109:314|163:305,1,110.000003356934,12|0,0:0|0:0,0:0:0:0:
389,223,13462,2,0,P|335:212|281:203,1,110.000003356934,8|0,0:1|0:0,0:0:0:0:
376,361,13712,1,8,0:0:0:0:
355,122,13837,1,8,0:0:0:0:
201,262,13962,2,0,P|190:316|181:370,1,110.000003356934,8|0,0:1|0:0,0:0:0:0:
439,300,14212,6,0,P|474:258|480:204,1,110.000003356934,8|0,0:0|0:0,0:0:0:0:
269,20,14462,2,0,P|258:74|249:128,1,110.000003356934,8|8,0:1|0:0,0:0:0:0:
286,293,14712,1,0,0:0:0:0:
151,154,14837,1,8,0:0:0:0:
355,122,14962,2,0,P|409:124|464:132,1,110.000003356934,8|0,0:1|0:0,0:0:0:0:
173,373,15212,6,0,P|157:264|151:154,1,220.000006713867,8|8,0:0|0:1,0:0:0:0:
302,247,15587,1,0,0:0:0:0:
74,107,15712,2,0,P|113:69|167:63,1,110.000003356934,8|8,0:0|0:0,0:0:0:0:
227,201,15962,2,0,P|188:238|134:244,1,110.000003356934,8|0,0:1|0:0,0:0:0:0:
0,17,16212,6,0,P|25:125|47:231,1,220.000006713867,8|8,0:0|0:1,0:0:0:0:
167,63,16587,1,8,0:0:0:0:
227,201,16712,2,0,P|280:188|334:177,1,110.000003356934,0|8,0:0|0:0,0:0:0:0:
485,105,16962,2,0,P|431:92|377:81,1,110.000003356934,8|8,0:1|0:0,0:0:0:0:
112,274,17212,6,0,L|132:382,1,100,12|8,0:1|0:0,0:0:0:0:
24,310,17462,1,8,0:0:0:0:
246,141,17587,2,0,L|226:249,1,100,12|8,0:1|0:0,0:0:0:0:
334,177,17837,1,8,0:0:0:0:
112,8,17962,2,0,L|132:116,1,100,12|8,0:1|0:0,0:0:0:0:
202,330,18212,5,8,0:0:0:0:
485,105,18337,2,0,P|444:63|291:80,1,200,12|8,0:1|0:0,0:0:0:0:
414,285,18712,2,0,P|454:276|532:265,1,100,12|8,0:1|0:0,0:0:0:0:
334,177,18962,1,12,0:1:0:0:
202,330,19087,1,8,0:0:0:0:
112,8,19212,6,0,P|102:91|89:237,1,200,12|8,0:1|0:0,0:0:0:0:
310,64,19587,2,0,P|260:73|211:83,1,100,8|8,0:1|0:0,0:0:0:0:
334,177,19837,1,8,0:0:0:0:
488,33,19962,2,0,P|439:22|389:13,1,100,4|0,0:3|0:0,0:0:0:0:
207,169,20212,5,8,0:1:0:0:
414,285,20337,1,8,0:0:0:0:
274,48,20462,5,8,0:3:0:0:
197,286,20587,1,8,0:3:0:0:
394,115,20712,5,4,0:3:0:0:
85,225,20837,1,4,0:3:0:0:
338,384,20962,2,0,P|331:334|326:284,1,100,4|8,0:3|0:0,0:0:0:0:
394,115,21212,5,12,0:0:0:0:
398,122,21462,1,8,0:0:0:0:
402,129,21712,1,8,0:0:0:0:
481,125,21837,1,0,0:0:0:0:
406,136,21962,1,8,0:0:0:0:
250,18,22212,6,0,P|229:52|218:90,1,80,8|0,0:0|0:0,0:0:0:0:
167,221,22462,2,0,P|157:183|136:149,1,80,8|0,0:0|0:0,0:0:0:0:
76,310,22712,2,0,P|135:260|213:265,1,160,10|8,0:0|0:0,0:0:0:0:
167,360,23087,1,0,0:0:0:0:
225,94,23212,5,12,0:0:0:0:
340,181,23337,1,8,0:0:0:0:
167,221,23462,2,0,P|126:204|73:187,1,89.9999972534181,8|8,0:1|0:0,0:0:0:0:
144,36,23712,1,10,0:0:0:0:
258,236,23837,1,0,0:0:0:0:
318,72,23962,1,10,0:0:0:0:
432,162,24087,1,0,0:0:0:0:
144,36,24212,6,0,L|138:84,1,44.999998626709,8|2,0:3|2:0,2:0:0:0:
77,145,24337,2,0,L|83:193,1,44.999998626709,4|2,0:3|2:0,2:0:0:0:
144,254,24462,1,8,0:0:0:0:
225,94,24587,1,8,0:0:0:0:
409,203,24712,6,0,L|506:189,1,89.9999972534181,8|8,0:1|0:0,0:0:0:0:
293,370,24962,2,0,L|196:356,1,89.9999972534181,8|0,0:1|0:0,0:0:0:0:
24,201,25212,6,0,P|98:220|152:167,1,160,12|8,0:0|0:1,0:0:0:0:
195,252,25587,1,0,0:0:0:0:
66,65,25712,2,0,P|72:104|76:144,1,80,8|8,0:0|0:1,0:0:0:0:
14,285,25962,2,0,P|8:324|4:364,1,80,0|8,0:0|0:0,0:0:0:0:
247,369,26212,6,0,L|406:347,1,160,8|0,0:1|0:0,0:0:0:0:
226,280,26587,2,0,P|204:351|129:354,1,160,8|8,0:0|0:0,0:0:0:0:
256,194,26962,2,0,P|290:214|311:247,1,80,8|0,0:1|0:0,0:0:0:0:
93,201,27212,6,0,P|88:137|77:37,1,160,8|8,0:0|0:1,0:0:0:0:
164,140,27587,1,0,0:0:0:0:
306,37,27712,2,0,P|265:31|226:29,1,80,8|8,0:0|0:1,0:0:0:0:
353,138,27962,1,0,0:0:0:0:
414,49,28087,1,8,0:0:0:0:
320,223,28212,6,0,P|288:201|268:167,1,80,8|0,0:1|0:0,0:0:0:0:
353,138,28462,1,0,0:0:0:0:
169,225,28587,2,0,P|126:210|92:200,1,80,8|0,0:0|0:0,0:0:0:0:
164,140,28837,1,8,0:0:0:0:
26,271,28962,2,0,P|43:317|51:348,1,80,8|0,0:1|0:0,0:0:0:0:
281,299,29212,6,0,P|332:241|410:240,1,160,12|8,0:0|0:1,0:0:0:0:
353,138,29587,1,0,0:0:0:0:
430,335,29712,2,0,P|467:323|513:313,1,80,8|8,0:0|0:1,0:0:0:0:
461,141,29962,2,0,P|449:179|440:218,1,80,0|8,0:0|0:0,0:0:0:0:
281,300,30212,6,0,P|244:288|198:278,1,80,8|8,0:1|0:0,0:0:0:0:
50,347,30462,1,0,0:0:0:0:
64,104,30587,2,0,P|88:180|106:259,1,160,8|8,0:0|0:0,0:0:0:0:
185,62,30962,2,0,P|173:100|164:139,1,80,8|0,0:1|0:0,0:0:0:0:
281,300,31212,6,0,P|272:261|259:222,1,80,12|8,0:0|0:0,0:0:0:0:
163,139,31462,1,8,0:1:0:0:
105,258,31587,1,0,0:0:0:0:
305,137,31712,2,0,P|343:145|382:158,1,80,8|8,0:0|0:1,0:0:0:0:
404,280,31962,1,0,0:0:0:0:
484,124,32087,1,8,0:1:0:0:
281,300,32212,6,0,P|293:349|302:398,1,80,8|8,0:0|0:1,0:0:0:0:
180,249,32462,1,0,0:0:0:0:
305,137,32587,2,0,P|293:186|284:235,1,80,8|0,0:1|0:0,0:0:0:0:
406,86,32837,1,4,0:3:0:0:
404,280,32962,1,4,0:3:0:0:
504,200,33087,1,4,0:3:0:0:
406,86,33212,6,0,P|417:125|423:153,1,69.9999978637696,12|0,0:0|0:0,0:0:0:0:
504,200,33462,2,0,P|493:239|486:267,1,69.9999978637696,8|8,0:0|0:0,0:0:0:0:
431,366,33712,2,0,P|375:325|307:330,1,139.999995727539,8|8,0:1|0:0,0:0:0:0:
223,367,34087,1,0,0:0:0:0:
110,175,34212,6,0,P|136:240|152:309,1,139.999995727539,8|8,0:0|0:0,0:0:0:0:
61,320,34587,1,8,0:0:0:0:
207,203,34712,1,8,0:1:0:0:
276,271,34837,1,0,0:0:0:0:
342,198,34962,2,0,P|332:166|317:111,1,69.9999978637696,8|8,0:0|0:3,0:0:0:0:
131,53,35212,5,8,0:0:0:0:
50,109,35337,2,0,P|39:141|30:176,1,69.9999978637696,8|0,0:1|0:0,0:0:0:0:
61,320,35587,1,8,0:0:0:0:
142,264,35712,2,0,P|153:232|162:197,1,69.9999978637696,8|8,0:1|0:0,0:0:0:0:
231,88,35962,2,0,P|239:122|251:156,1,69.9999978637696,0|0,0:0|0:0,0:0:0:0:
462,239,36212,6,0,P|410:194|342:196,1,139.999995727539,8|8,0:0|0:0,0:0:0:0:
276,271,36587,1,4,0:3:0:0:
373,79,36712,5,8,0:1:0:0:
162,203,36837,1,8,0:0:0:0:
162,203,36899,1,8,0:1:0:0:
162,203,36962,1,8,0:1:0:0:
281,0,37087,1,8,0:1:0:0:
392,365,37212,6,0,P|348:362|303:357,1,89.9999972534181,12|0,0:0|0:0,0:0:0:0:
162,203,37462,2,0,P|206:197|251:194,1,89.9999972534181,8|0,0:1|0:0,0:0:0:0:
194,309,37712,1,8,0:0:0:0:
271,121,37837,1,8,0:0:0:0:
380,271,37962,2,0,P|377:226|370:181,1,89.9999972534181,8|0,0:1|0:0,0:0:0:0:
171,113,38212,6,0,P|164:157|161:202,1,89.9999972534181,8|0,0:0|0:0,0:0:0:0:
261,31,38462,2,0,P|267:75|270:120,1,89.9999972534181,8|8,0:1|0:0,0:0:0:0:
81,31,38712,1,0,0:0:0:0:
164,230,38837,1,8,0:0:0:0:
261,31,38962,2,0,P|305:24|350:21,1,89.9999972534181,8|0,0:1|0:0,0:0:0:0:
254,240,39212,6,0,P|209:233|164:230,1,89.9999972534181,8|0,0:0|0:0,0:0:0:0:
50,332,39462,1,8,0:1:0:0:
99,162,39587,1,0,0:0:0:0:
269,329,39712,2,0,P|310:311|338:276,1,89.9999972534181,8|8,0:0|0:0,0:0:0:0:
164,230,39962,1,8,0:1:0:0:
261,31,40087,1,8,0:0:0:0:
261,31,40150,1,8,0:0:0:0:
261,31,40212,5,12,0:1:0:0:
254,240,40337,1,8,0:0:0:0:
426,98,40462,2,0,P|381:92|336:88,1,89.9999972534181,8|4,0:0|0:3,0:0:0:0:
269,329,40712,5,8,0:1:0:0:
130,121,40837,1,8,0:1:0:0:
70,367,40962,5,8,0:1:0:0:
194,55,41087,1,8,0:1:0:0:
279,300,41212,6,0,P|321:297|384:294,1,80,12|0,0:0|0:0,0:0:0:0:
187,215,41462,2,0,P|229:212|292:209,1,80,8|0,0:0|0:0,0:0:0:0:
125,310,41712,1,8,0:0:0:0:
187,215,41837,1,0,0:0:0:0:
279,300,41962,2,0,P|276:342|273:405,1,80,8|0,0:0|0:0,0:0:0:0:
16,247,42212,6,0,P|42:216|77:200,1,80,8|0,0:0|0:0,0:0:0:0:
158,157,42462,2,0,P|132:126|97:109,1,80,8|0,0:0|0:0,0:0:0:0:
98,288,42712,1,8,0:0:0:0:
3,141,42837,1,0,0:0:0:0:
25,334,42962,1,8,0:0:0:0:
77,200,43087,1,0,0:0:0:0:
278,302,43212,5,12,0:0:0:0:
307,296,43274,1,8,0:0:0:0:
337,291,43337,1,8,0:0:0:0:
366,286,43399,1,8,0:0:0:0:
395,281,43462,2,0,P|375:315|370:354,1,80,10|0,0:0|0:0,0:0:0:0:
484,211,43712,1,8,0:0:0:0:
461,347,43837,1,0,0:0:0:0:
348,164,43962,2,0,P|308:160|268:158,1,80,8|0,0:0|0:0,0:0:0:0:
18,247,44212,5,12,0:0:0:0:
54,261,44274,1,8,0:0:0:0:
94,262,44337,1,8,0:0:0:0:
131,248,44399,1,8,0:0:0:0:
161,222,44462,1,10,0:0:0:0:
39,80,44587,1,0,0:0:0:0:
20,369,44712,5,8,0:1:0:0:
257,274,44837,1,8,0:1:0:0:
77,170,44962,5,8,0:1:0:0:
235,384,45087,1,8,0:1:0:0:
388,142,45212,6,0,P|402:188|410:226,1,69.9999978637696,12|0,0:0|0:0,0:0:0:0:
288,91,45462,2,0,P|274:137|266:175,1,69.9999978637696,8|0,0:1|0:0,0:0:0:0:
479,131,45712,2,0,P|465:92|359:56,1,139.999995727539,8|8,0:0|0:1,0:0:0:0:
388,142,46087,1,0,0:0:0:0:
218,97,46212,6,0,P|253:92|287:90,1,69.9999978637696,8|8,0:0|0:0,0:0:0:0:
163,160,46462,1,8,0:1:0:0:
83,41,46587,2,0,P|117:38|152:33,1,69.9999978637696,8|0,0:0|0:0,0:0:0:0:
28,104,46837,1,8,0:0:0:0:
229,8,46962,1,8,0:1:0:0:
163,160,47087,1,8,0:0:0:0:
374,73,47212,6,0,P|384:110|387:141,1,69.9999978637696,8|8,0:0|0:0,0:0:0:0:
310,266,47462,2,0,P|315:231|325:197,1,69.9999978637696,8|0,0:1|0:0,0:0:0:0:
293,111,47712,1,8,0:0:0:0:
417,238,47837,1,8,0:0:0:0:
173,241,47962,2,0,P|140:232|105:227,1,69.9999978637696,8|8,0:1|0:0,0:0:0:0:
150,31,48212,6,0,P|156:75|156:114,1,69.9999978637696,8|0,0:1|0:0,0:0:0:0:
85,351,48462,1,8,0:1:0:0:
34,315,48545,1,8,0:3:0:0:
14,258,48627,1,4,0:3:0:0:
30,199,48712,6,0,P|79:195|116:189,1,69.9999978637696,8|8,0:1|0:3,0:0:0:0:
174,242,48961,2,0,P|208:237|243:235,1,69.9999978637696,4|8,0:3|0:0,0:0:0:0:
364,94,49212,6,0,P|326:84|286:88,1,80,12|8,0:1|0:0,0:0:0:0:
408,180,49462,1,0,0:0:0:0:
471,75,49587,1,8,0:0:0:0:
397,197,49712,2,0,P|401:245|403:287,1,80,12|8,0:1|0:0,0:0:0:0:
243,233,49962,1,0,0:0:0:0:
311,361,50087,1,8,0:0:0:0:
230,219,50212,6,0,P|189:214|128:209,1,80,12|8,0:1|0:0,0:0:0:0:
7,255,50462,1,0,0:0:0:0:
53,118,50587,1,8,0:0:0:0:
23,267,50712,6,0,P|26:306|31:346,1,80,12|8,0:1|0:0,0:0:0:0:
136,234,50962,1,0,0:0:0:0:
181,365,51087,1,8,0:0:0:0:
408,180,51212,6,0,L|430:385,1,179.999994506836,12|0,0:1|0:0,0:0:0:0:
202,166,51712,6,0,L|180:364,1,200,12|0,0:1|0:0,0:0:0:0:
489,36,52212,6,0,L|513:263,1,220.000006713867,12|0,0:1|0:0,0:0:0:0:
121,22,52712,6,0,L|95:262,1,239.999992675781,12|0,0:1|0:0,0:0:0:0:
512,254,53212,5,2,0:0:0:0:
256,192,53274,12,8,54212,0:0:0:0:
125,75,54712,5,10,0:3:0:0:
59,128,54795,1,8,0:3:0:0:
80,211,54878,1,8,0:3:0:0:
162,236,54962,5,14,0:3:0:0:
183,319,55045,1,4,0:3:0:0:
117,372,55128,1,4,0:3:0:0:
38,302,55212,6,0,L|146:286,1,110.000003356934,12|0,0:0|0:0,0:0:0:0:
469,219,55462,2,0,L|338:198,1,110.000003356934,8|0,0:1|0:0,0:0:0:0:
140,152,55712,1,8,0:0:0:0:
317,50,55837,1,8,0:0:0:0:
244,258,55962,2,0,L|258:367,1,110.000003356934,8|0,0:1|0:0,0:0:0:0:
400,161,56212,6,0,L|415:52,1,110.000003356934,8|0,0:0|0:0,0:0:0:0:
325,222,56462,1,8,0:1:0:0:
510,120,56587,1,8,0:0:0:0:
296,27,56712,2,0,L|186:40,1,110.000003356934,0|8,0:0|0:0,0:0:0:0:
24,223,56962,1,8,0:1:0:0:
84,81,57087,1,0,0:0:0:0:
248,324,57212,6,0,P|356:306|466:295,1,220.000006713867,8|8,0:0|0:1,0:0:0:0:
229,169,57587,1,0,0:0:0:0:
500,111,57712,2,0,P|481:167|464:238,1,110.000003356934,8|8,0:0|0:0,0:0:0:0:
345,26,57962,2,0,P|364:82|381:153,1,110.000003356934,8|0,0:1|0:0,0:0:0:0:
177,264,58212,5,8,0:0:0:0:
247,86,58337,1,0,0:0:0:0:
378,222,58462,2,0,P|440:197|465:152,1,110.000003356934,8|8,0:1|0:0,0:0:0:0:
345,26,58712,1,0,0:0:0:0:
247,234,58837,1,8,0:0:0:0:
142,49,58962,2,0,P|127:106|117:178,1,110.000003356934,8|0,0:1|0:0,0:0:0:0:
367,357,59212,6,0,P|349:255|248:234,1,220.000006713867,12|8,0:0|0:1,0:0:0:0:
374,145,59587,1,0,0:0:0:0:
177,342,59712,2,0,P|232:329|290:317,1,110.000003356934,8|8,0:0|0:0,0:0:0:0:
224,127,59962,2,0,P|237:182|249:240,1,110.000003356934,8|0,0:1|0:0,0:0:0:0:
25,379,60212,6,0,P|12:324|0:266,1,110.000003356934,8|0,0:0|0:0,0:0:0:0:
142,49,60462,1,8,0:1:0:0:
0,144,60587,1,8,0:0:0:0:
247,234,60712,2,0,P|236:180|223:126,1,110.000003356934,0|8,0:0|0:0,0:0:0:0:
89,263,60962,1,8,0:1:0:0:
249,17,61087,1,8,0:0:0:0:
394,358,61212,6,0,L|525:339,1,119.999996337891,12|8,0:1|0:0,0:0:0:0:
464,250,61462,1,8,0:0:0:0:
204,343,61587,2,0,L|335:324,1,119.999996337891,12|8,0:1|0:0,0:0:0:0:
274,235,61837,1,8,0:0:0:0:
14,328,61962,2,0,L|145:309,1,119.999996337891,8|8,0:1|0:0,0:0:0:0:
365,244,62212,5,8,0:1:0:0:
352,186,62274,1,8,0:0:0:0:
306,149,62337,1,8,0:0:0:0:
247,147,62399,1,8,0:0:0:0:
200,182,62462,2,0,P|186:218|186:255,1,59.9999981689454,8|8,0:3|0:0,0:0:0:0:
439,297,62587,2,0,P|453:261|453:224,1,59.9999981689454,4|8,0:3|0:0,0:0:0:0:
395,90,62712,5,4,0:3:0:0:
324,67,62774,1,8,0:0:0:0:
251,49,62837,1,8,0:0:0:0:
180,35,62899,1,8,0:0:0:0:
107,24,62962,2,0,P|91:88|80:147,1,110.000003356934,8|0,0:1|0:0,0:0:0:0:
330,315,63212,6,0,P|383:304|438:296,1,110.000003356934,12|0,0:0|0:0,0:0:0:0:
199,182,63462,2,0,P|145:188|91:199,1,110.000003356934,8|0,0:1|0:0,0:0:0:0:
210,356,63712,1,8,0:0:0:0:
306,149,63837,1,8,0:0:0:0:
469,367,63962,2,0,L|475:257,1,110.000003356934,8|0,0:1|0:0,0:0:0:0:
230,2,64212,6,0,L|236:111,1,110.000003356934,8|0,0:0|0:0,0:0:0:0:
330,314,64462,1,8,0:1:0:0:
381,108,64587,1,8,0:0:0:0:
184,239,64712,2,0,P|132:223|98:180,1,110.000003356934,0|8,0:0|0:0,0:0:0:0:
230,2,64963,1,8,0:1:0:0:
373,199,65088,1,0,0:0:0:0:
6,185,65212,6,0,P|62:97|163:116,1,220.000006713867,8|8,0:0|0:1,0:0:0:0:
36,16,65587,1,0,0:0:0:0:
184,239,65712,2,0,P|237:227|292:219,1,110.000003356934,8|8,0:0|0:0,0:0:0:0:
45,319,65962,2,0,P|99:326|153:337,1,110.000003356934,8|0,0:1|0:0,0:0:0:0:
256,117,66212,5,8,0:0:0:0:
330,314,66337,1,0,0:0:0:0:
502,111,66462,2,0,P|447:98|381:87,1,110.000003356934,8|8,0:1|0:0,0:0:0:0:
184,239,66712,1,0,0:0:0:0:
317,45,66837,1,8,0:0:0:0:
463,201,66962,2,0,P|453:255|441:308,1,110.000003356934,8|0,0:1|0:0,0:0:0:0:
109,225,67212,6,0,P|224:209|331:198,1,220.000006713867,12|8,0:0|0:1,0:0:0:0:
130,121,67587,1,0,0:0:0:0:
32,365,67712,2,0,P|24:310|18:255,1,110.000003356934,8|8,0:0|0:0,0:0:0:0:
264,72,67962,2,0,P|271:126|277:181,1,110.000003356934,8|8,0:1|0:0,0:0:0:0:
10,40,68212,6,0,P|64:32|119:26,1,110.000003356934,8|0,0:0|0:0,0:0:0:0:
184,239,68462,1,8,0:1:0:0:
264,72,68587,1,8,0:0:0:0:
463,201,68712,2,0,P|457:255|449:310,1,110.000003356934,0|8,0:0|0:0,0:0:0:0:
277,181,68962,1,8,0:1:0:0:
444,71,69087,1,8,0:0:0:0:
444,71,69149,1,8,0:0:0:0:
444,71,69212,5,12,0:1:0:0:
157,102,69337,1,8,0:0:0:0:
268,287,69462,1,8,0:0:0:0:
342,19,69587,2,0,P|363:93|378:142,1,119.999996337891,4|8,0:3|0:0,0:0:0:0:
403,269,69837,1,8,0:0:0:0:
156,101,69962,2,0,P|98:117|41:135,1,119.999996337891,8|8,0:1|0:0,0:0:0:0:
128,305,70212,5,8,0:3:0:0:
258,163,70337,1,8,0:3:0:0:
268,287,70462,1,4,0:3:0:0:
156,100,70587,1,4,0:3:0:0:
345,193,70712,1,8,0:1:0:0:
349,164,70774,1,8,0:0:0:0:
345,135,70837,1,8,0:3:0:0:
331,108,70899,1,8,0:0:0:0:
309,87,70962,1,4,0:3:0:0:
145,188,71087,1,4,0:3:0:0:
268,287,71212,6,0,P|356:273|446:264,1,179.999994506836,12|0,0:0|0:0,0:0:0:0:
477,147,71587,1,8,0:0:0:0:
477,147,71649,1,0,0:0:0:0:
477,147,71712,2,0,P|415:87|330:107,1,179.999994506836,8|8,0:1|0:0,0:0:0:0:
390,176,72087,1,0,0:0:0:0:
228,61,72212,5,8,0:0:0:0:
145,188,72337,2,0,P|159:230|170:274,1,89.9999972534181,8|0,0:1|0:0,0:0:0:0:
74,97,72587,1,8,0:0:0:0:
74,97,72649,1,8,0:0:0:0:
74,97,72712,2,0,P|59:139|48:183,1,89.9999972534181,8|0,0:1|0:0,0:0:0:0:
145,6,72962,2,0,P|159:48|170:92,1,89.9999972534181,8|0,0:0|0:0,0:0:0:0:
409,182,73212,6,0,P|322:168|221:158,1,179.999994506836,12|0,0:0|0:0,0:0:0:0:
407,274,73587,1,8,0:0:0:0:
407,274,73650,1,0,0:0:0:0:
407,274,73712,2,0,P|478:243|482:129,1,179.999994506836,8|8,0:1|0:0,0:0:0:0:
409,182,74087,1,0,0:0:0:0:
281,344,74212,5,8,0:0:0:0:
184,218,74337,2,0,L|151:319,1,89.9999972534181,8|0,0:1|0:0,0:0:0:0:
388,268,74587,1,8,0:0:0:0:
291,141,74712,2,0,L|258:242,1,89.9999972534181,8|8,0:1|0:0,0:0:0:0:
381,116,74962,1,8,0:1:0:0:
362,80,75024,1,8,0:1:0:0:
329,55,75087,1,8,0:1:0:0:
289,47,75149,1,8,0:1:0:0:
249,57,75212,6,0,P|196:44|137:33,1,110.000003356934,12|0,0:0|0:0,0:0:0:0:
76,241,75462,2,0,P|129:228|188:217,1,110.000003356934,8|0,0:1|0:0,0:0:0:0:
388,268,75712,1,8,0:0:0:0:
291,141,75837,1,8,0:0:0:0:
95,330,75962,2,0,P|41:326|0:291,1,110.000003356934,8|0,0:1|0:0,0:0:0:0:
141,33,76212,6,0,P|155:86|165:140,1,110.000003356934,8|0,0:0|0:0,0:0:0:0:
0,42,76462,1,8,0:1:0:0:
76,241,76587,1,8,0:0:0:0:
249,57,76712,2,0,P|303:52|358:52,1,110.000003356934,0|8,0:0|0:0,0:0:0:0:
161,259,76962,1,8,0:1:0:0:
165,205,77024,1,8,0:0:0:0:
201,165,77087,1,8,0:0:0:0:
254,156,77149,1,8,0:0:0:0:
302,182,77212,6,0,L|287:311,1,129.999994049073,12|8,0:1|0:0,0:0:0:0:
150,75,77462,2,0,L|165:210,1,129.999994049073,8|8,0:1|0:0,0:0:0:0:
440,39,77712,6,0,L|407:174,1,129.999994049073,8|8,0:1|0:0,0:0:0:0:
16,24,77962,2,0,L|49:159,1,129.999994049073,8|8,0:1|0:0,0:0:0:0:
355,336,78212,5,8,0:1:0:0:
156,132,78337,1,8,0:0:0:0:
398,177,78462,5,8,0:1:0:0:
111,304,78587,1,8,0:0:0:0:
277,54,78712,5,8,0:1:0:0:
368,355,78837,1,8,0:0:0:0:
136,150,78962,5,8,0:1:0:0:
471,252,79087,1,8,0:1:0:0:
107,365,79212,6,0,L|115:235,1,119.999996337891,12|8,0:0|0:0,0:0:0:0:
182,29,79462,1,8,0:1:0:0:
286,213,79587,1,8,0:1:0:0:
332,202,79649,1,8,0:0:0:0:
378,191,79712,6,0,L|454:172,1,59.9999981689454,8|8,0:0|0:0,0:0:0:0:
374,368,79837,2,0,L|298:349,1,59.9999981689454,8|8,0:1|0:1,0:0:0:0:
181,196,79962,1,8,0:1:0:0:
128,166,80024,1,8,0:0:0:0:
69,172,80087,1,8,0:0:0:0:
24,210,80149,1,8,0:0:0:0:
9,266,80212,6,0,P|15:294|21:323,1,59.9999981689454,8|0,0:3|0:0,0:0:0:0:
216,92,80337,2,0,P|206:45|197:8,1,59.9999981689454,4|0,0:3|0:0,0:0:0:0:
0,74,80462,5,8,0:0:0:0:
9,142,80524,1,8,0:0:0:0:
24,210,80587,1,12,0:0:0:0:
37,279,80649,1,12,0:0:0:0:
49,346,80712,6,0,B|81:361|129:333|129:333|127:346|127:346|199:325|241:349,1,209.999993591309,8|0,0:1|0:0,2:0:0:0:
400,336,81212,6,0,P|406:276|415:225,1,110.000003356934,12|0,0:0|0:0,0:0:0:0:
193,34,81462,2,0,P|205:87|216:140,1,110.000003356934,8|0,0:0|0:0,0:0:0:0:
236,346,81712,1,8,0:0:0:0:
383,127,81837,1,0,0:0:0:0:
187,227,81962,2,0,P|144:193|127:142,1,110.000003356934,8|0,0:0|0:0,0:0:0:0:
414,226,82212,6,0,P|393:278|383:331,1,110.000003356934,8|0,0:0|0:0,0:0:0:0:
276,103,82462,2,0,P|296:154|306:207,1,110.000003356934,8|0,0:0|0:0,0:0:0:0:
394,73,82712,1,10,0:0:0:0:
187,227,82837,1,0,0:0:0:0:
276,103,82962,1,10,0:0:0:0:
236,346,83087,1,0,0:0:0:0:
127,142,83212,5,8,0:0:0:0:
306,208,83337,1,0,0:0:0:0:
302,26,83462,2,0,P|254:27|194:33,1,110.000003356934,8|0,0:0|0:0,0:0:0:0:
59,203,83712,2,0,P|37:147|51:93,1,110.000003356934,8|0,0:0|0:0,0:0:0:0:
266,133,83962,2,0,P|272:187|274:242,1,110.000003356934,8|0,0:0|0:0,0:0:0:0:
421,343,84212,5,8,0:0:0:0:
357,149,84337,1,0,0:0:0:0:
173,341,84462,2,0,P|231:333|305:326,1,110.000003356934,8|0,0:0|0:0,0:0:0:0:
512,278,84712,5,8,0:1:0:0:
353,63,84837,1,8,0:3:0:0:
282,327,84962,1,4,0:3:0:0:
125,113,85087,1,8,0:0:0:0:
125,113,85149,1,8,0:0:0:0:
125,113,85212,6,0,P|87:219|74:347,1,220.000006713867,12|0,0:1|0:0,0:0:0:0:
206,168,85587,1,8,0:0:0:0:
5,33,85712,2,0,P|24:86|30:150,1,110.000003356934,8|0,0:1|0:0,0:0:0:0:
185,270,85962,1,0,0:0:0:0:
125,113,86087,1,8,0:1:0:0:
73,325,86212,5,8,0:0:0:0:
284,238,86337,2,0,P|262:199|194:167,1,110.000003356934,8|0,0:1|0:0,0:0:0:0:
262,344,86587,1,8,0:0:0:0:
410,155,86712,2,0,L|391:271,1,110.000003356934,8|0,0:1|0:0,0:0:0:0:
306,33,86962,2,0,L|325:149,1,110.000003356934,0|8,0:0|0:0,0:0:0:0:
438,342,87212,5,12,0:1:0:0:
491,126,87337,1,8,0:0:0:0:
284,238,87462,2,0,P|342:228|403:218,1,110.000003356934,0|8,0:0|0:0,0:0:0:0:
171,84,87712,1,8,0:1:0:0:
262,344,87837,1,8,0:0:0:0:
414,51,87962,2,0,P|356:41|295:31,1,110.000003356934,0|8,0:0|0:0,0:0:0:0:
31,169,88212,5,10,0:1:0:0:
34,115,88274,1,2,0:2:0:0:
69,74,88337,1,10,0:0:0:0:
122,62,88399,1,10,0:0:0:0:
171,84,88462,2,0,P|172:125|173:146,1,55.0000016784668,4|0,0:3|0:0,0:0:0:0:
262,344,88587,2,0,P|261:303|260:282,1,55.0000016784668,4|0,0:3|0:0,0:0:0:0:
305,32,88712,5,8,0:1:0:0:
438,342,88837,1,8,0:0:0:0:
172,138,88962,1,12,0:1:0:0:
