osu file format v14

[General]
AudioFilename: audio.mp3
AudioLeadIn: 0
PreviewTime: 55087
Countdown: 0
SampleSet: Soft
StackLeniency: 0.3
Mode: 0
LetterboxInBreaks: 0
WidescreenStoryboard: 0

[Editor]
Bookmarks: 13212,25212,37212,49212,55212,63212,71212,81212,89212
DistanceSpacing: 1.6
BeatDivisor: 4
GridSize: 4
TimelineZoom: 2.899999

[Metadata]
Title:Los! Los! Los!
TitleUnicode:Los! Los! Los!
Artist:Tanya Degurechaff (CV: Yuki Aoi)
ArtistUnicode:ターニャ・デグレチャフ(CV:悠木碧)
Creator:Logic Agent
Version:Plaubbes' Extra
Source:幼女戦記
Tags:Youjo Senki Saga of Tanya the Evil ED ending TV Size yuuki losloslos Akitoshi Xinely Kalibe Mun pkhg Plaudible Hobbes2 Lasse
BeatmapID:1212692
BeatmapSetID:570679

[Difficulty]
HPDrainRate:6
CircleSize:4
OverallDifficulty:8.7
ApproachRate:9.3
SliderMultiplier:1.8
SliderTickRate:1

[Events]
//Background and Video events
0,0,"792738.jpg",0,0
Video,592,"ed.avi"
//Break Periods
//Storyboard Layer 0 (Background)
//Storyboard Layer 1 (Fail)
//Storyboard Layer 2 (Pass)
//Storyboard Layer 3 (Foreground)
//Storyboard Sound Samples

[TimingPoints]
1212,250,4,2,10,40,1,0
1212,-111.111111111111,4,2,10,40,0,0
5212,-100,4,2,10,50,0,0
7212,-100,4,2,10,53,0,0
9212,-100,4,2,10,55,0,0
11212,-90.9090909090909,4,2,10,57,0,0
11899,-90.9090909090909,4,2,10,57,0,0
11962,-90.9090909090909,4,2,10,57,0,0
12712,-76.9230769230769,4,2,10,57,0,0
13212,-76.9230769230769,4,2,10,60,0,0
13399,-76.9230769230769,4,2,10,60,0,0
13462,-76.9230769230769,4,2,10,60,0,0
13712,-83.3333333333333,4,2,10,60,0,0
14212,-76.9230769230769,4,2,10,60,0,0
14399,-76.9230769230769,4,2,10,60,0,0
14462,-76.9230769230769,4,2,10,60,0,0
14837,-83.3333333333333,4,2,10,60,0,0
17212,-90.9090909090909,4,2,10,60,0,0
21212,-111.111111111111,4,2,10,50,0,0
23212,-100,4,2,10,55,0,0
25212,-111.111111111111,4,2,10,55,0,0
27149,-111.111111111111,4,2,10,55,0,0
27212,-111.111111111111,4,2,10,55,0,0
31149,-111.111111111111,4,2,10,55,0,0
31212,-111.111111111111,4,2,10,55,0,0
33212,-125,4,2,10,50,0,0
37212,-99.9999999999999,4,2,10,60,0,0
41212,-111.111111111111,4,2,10,50,0,0
41399,-111.111111111111,4,2,10,50,0,0
41462,-111.111111111111,4,2,10,50,0,0
45212,-125,4,2,10,60,0,0
49212,-111.111111111111,4,2,10,60,0,0
51212,-99.9999999999999,4,2,10,60,0,0
51712,-83.3333333333333,4,2,10,60,0,0
52212,-71.4285714285714,4,2,10,70,0,0
52712,-62.5,4,2,10,70,0,0
53212,-62.5,4,2,10,60,0,0
53295,-62.5,4,2,10,5,0,0
54212,-62.5,4,2,10,60,0,0
54712,-111.111111111111,4,2,10,50,0,0
54962,-111.111111111111,4,2,10,50,0,0
55212,-83.3333333333333,4,2,10,70,0,1
55399,-83.3333333333333,4,2,10,70,0,1
55462,-76.9230769230769,4,2,10,70,0,1
55712,-83.3333333333333,4,2,10,70,0,1
56399,-83.3333333333333,4,2,10,70,0,1
56462,-83.3333333333333,4,2,10,70,0,1
61212,-76.9230769230769,4,2,10,70,0,1
62212,-76.9230769230769,4,2,10,70,0,1
62712,-83.3333333333333,4,2,10,70,0,0
63149,-83.3333333333333,4,2,10,70,0,0
63212,-83.3333333333333,4,2,10,70,0,1
63399,-83.3333333333333,4,2,10,70,0,1
63462,-83.3333333333333,4,2,10,70,0,1
64399,-83.3333333333333,4,2,10,70,0,1
64462,-83.3333333333333,4,2,10,70,0,1
65399,-83.3333333333333,4,2,10,70,0,1
65462,-83.3333333333333,4,2,10,70,0,1
69212,-76.9230769230769,4,2,10,70,0,1
71212,-99.9999999999999,4,2,10,60,0,0
75212,-83.3333333333333,4,2,10,70,0,1
77212,-76.9230769230769,4,2,10,70,0,1
79212,-83.3333333333333,4,2,10,70,0,1
80712,-166.666666666667,4,2,10,70,0,1
81149,-166.666666666667,4,2,10,70,0,1
81212,-100,4,2,10,60,0,0
87212,-100,4,2,10,60,0,0
88712,-100,4,2,10,60,0,0
89024,-100,4,2,10,5,0,0

[Colours]
Combo1 : 195,195,195
Combo2 : 255,91,104
Combo3 : 253,181,72
Combo4 : 188,129,114

[HitObjects]
152,15,1212,6,0,P|162:69|184:103,1,80.9999975280763,6|0,0:0|0:0,0:0:0:0:
98,128,1462,2,0,P|122:160|155:182,1,80.9999975280763,0|0,0:0|0:0,0:0:0:0:
107,252,1712,2,0,P|158:270|199:268,1,80.9999975280763,2|0,0:0|0:0,0:0:0:0:
176,354,1962,2,0,P|229:344|263:322,1,80.9999975280763,2|0,0:0|0:0,0:0:0:0:
347,261,2212,6,0,P|295:242|254:244,1,80.9999975280763,2|0,0:0|0:0,0:0:0:0:
278,159,2462,2,0,P|224:169|190:191,1,80.9999975280763,0|0,0:0|0:0,0:0:0:0:
184,271,2712,1,2,0:0:0:0:
184,271,2962,1,2,0:0:0:0:
184,271,3212,6,0,P|175:331|175:360,1,80.9999975280763,2|0,0:0|0:0,0:0:0:0:
328,271,3462,2,0,P|337:331|337:360,1,80.9999975280763,0|0,0:0|0:0,0:0:0:0:
146,190,3712,2,0,P|108:237|93:262,1,80.9999975280763,2|0,0:0|0:0,0:0:0:0:
366,190,3962,2,0,P|403:237|418:262,1,80.9999975280763,2|0,0:0|0:0,0:0:0:0:
184,109,4212,6,0,P|175:49|175:20,1,80.9999975280763,2|0,0:0|0:0,0:0:0:0:
328,109,4462,2,0,P|337:49|337:20,1,80.9999975280763,2|0,0:0|0:0,0:0:0:0:
146,190,4712,2,0,P|108:142|93:117,1,80.9999975280763,2|0,0:0|0:0,0:0:0:0:
366,190,4962,2,0,P|403:142|418:117,1,80.9999975280763,2|0,0:0|0:0,0:0:0:0:
256,320,5212,6,0,L|256:128,2,180,12|8|8,0:0|0:0|0:0,0:0:0:0:
346,230,5837,1,0,0:0:0:0:
166,230,5962,2,0,P|139:265|127:311,1,90,8|0,0:0|0:0,0:0:0:0:
256,140,6212,6,0,P|244:96|217:61,1,90,8|0,0:0|0:0,0:0:0:0:
340,101,6462,2,0,P|346:145|335:189,1,90,8|0,0:0|0:0,0:0:0:0:
378,270,6712,2,0,P|409:238|426:197,1,90,10|0,0:0|0:0,0:0:0:0:
286,266,6962,2,0,P|297:309|324:344,1,90,8|0,0:0|0:0,0:0:0:0:
335,188,7212,5,12,0:0:0:0:
335,188,7337,1,0,0:0:0:0:
200,302,7462,2,0,P|195:258|205:215,1,90,8|0,0:0|0:0,0:0:0:0:
160,127,7712,2,0,P|129:159|111:201,1,90,8|0,0:0|0:0,0:0:0:0:
85,69,7962,2,0,P|121:42|164:30,1,90,8|0,0:0|0:0,0:0:0:0:
39,147,8212,5,8,0:0:0:0:
39,147,8337,1,0,0:0:0:0:
206,214,8462,2,0,L|302:199,1,90,8|0,0:0|0:0,0:0:0:0:
424,208,8712,5,10,0:0:0:0:
422,213,8837,1,0,0:0:0:0:
345,312,8962,5,10,0:0:0:0:
347,317,9087,1,0,0:0:0:0:
217,299,9212,6,0,P|154:282|129:253,1,90,12|0,0:0|0:0,0:0:0:0:
193,127,9462,2,0,P|210:169|205:213,1,90,8|0,0:0|0:0,0:0:0:0:
139,371,9712,1,8,0:0:0:0:
139,371,9837,1,0,0:0:0:0:
57,233,9962,2,0,P|103:186|140:179,1,90,8|0,1:2|0:0,0:0:0:0:
441,176,10212,6,0,L|352:191,1,90,8|0,1:2|0:0,0:0:0:0:
205,212,10462,2,0,P|240:239|285:246,1,90,8|0,1:2|0:0,0:0:0:0:
290,70,10712,2,0,L|274:158,1,90,10|0,0:0|0:0,0:0:0:0:
333,357,10962,2,0,P|360:322|367:277,1,90,12|0,0:1|0:0,0:0:0:0:
194,126,11212,5,4,0:0:0:0:
368,110,11337,1,0,0:0:0:0:
283,245,11462,2,0,L|177:262,1,99.0000030212403,0|8,0:0|0:1,0:0:0:0:
275,55,11712,2,0,L|283:155,1,99.0000030212403,8|8,0:0|0:1,0:0:0:0:
105,145,11962,2,0,P|108:96|136:56,1,99.0000030212403,8|8,0:1|0:0,0:0:0:0:
283,245,12212,5,8,0:1:0:0:
194,126,12337,1,8,0:1:0:0:
195,275,12462,1,8,0:1:0:0:
283,154,12587,1,8,0:0:0:0:
265,337,12712,6,0,P|292:346|321:345,1,58.4999973220826,4|8,0:3|0:0,0:0:0:0:
424,222,12837,1,8,0:0:0:0:
424,222,12899,1,8,0:0:0:0:
424,222,12962,2,0,L|432:290,3,58.4999973220826,12|0|0|0,0:1|0:0|0:0|0:0,0:0:0:0:
467,157,13212,6,0,P|464:94|401:143,1,175.499991966248,12|0,0:0|0:0,0:0:0:0:
424,222,13462,2,0,P|356:185|379:297,1,233.999989288331,8|8,0:1|0:0,0:0:0:0:
265,73,13837,1,8,0:0:0:0:
134,200,13962,2,0,P|188:219|251:183,1,107.999996704102,8|0,0:1|0:0,0:0:0:0:
353,295,14212,6,0,L|160:305,1,175.499991966248,8|0,0:0|0:0,0:0:0:0:
128,369,14462,2,0,B|133:200|133:200|83:265,1,233.999989288331,8|0,0:1|0:0,0:0:0:0:
16,336,14837,1,8,0:0:0:0:
212,223,14962,2,0,L|214:112,1,107.999996704102,8|0,0:1|0:0,0:0:0:0:
404,178,15212,6,0,P|315:188|283:164,1,107.999996704102,8|0,0:0|0:0,0:0:0:0:
342,12,15462,2,0,P|361:69|335:129,1,107.999996704102,8|0,0:1|0:0,0:0:0:0:
409,279,15712,2,0,P|390:222|416:162,1,107.999996704102,8|8,0:0|0:0,0:0:0:0:
246,116,15962,2,0,P|335:106|367:130,1,107.999996704102,8|0,0:1|0:0,0:0:0:0:
228,262,16212,6,0,B|246:115|246:115|182:31,1,215.999993408203,8|8,0:0|0:1,0:0:0:0:
33,212,16587,1,8,0:0:0:0:
33,212,16712,2,0,L|154:200,1,107.999996704102,0|8,0:0|0:0,0:0:0:0:
335,272,16962,2,0,L|214:260,1,107.999996704102,8|8,0:1|0:0,0:0:0:0:
310,24,17212,5,12,0:1:0:0:
324,173,17337,2,0,L|335:277,1,99.0000030212403,8|8,0:0|0:0,0:0:0:0:
198,142,17587,5,12,0:1:0:0:
391,119,17712,2,0,L|499:104,1,99.0000030212403,8|8,0:0|0:0,0:0:0:0:
306,28,17962,5,12,0:1:0:0:
320,177,18087,2,0,L|331:281,1,99.0000030212403,8|8,0:0|0:0,0:0:0:0:
194,146,18337,5,12,0:1:0:0:
387,123,18462,2,0,L|495:108,1,99.0000030212403,8|8,0:0|0:0,0:0:0:0:
229,63,18712,6,0,P|166:57|117:93,1,99.0000030212403,12|8,0:1|0:0,0:0:0:0:
53,259,18962,1,12,0:1:0:0:
45,74,19087,1,8,0:0:0:0:
198,247,19212,6,0,L|301:242,1,99.0000030212403,12|8,0:1|0:0,0:0:0:0:
432,238,19462,1,8,0:0:0:0:
229,63,19587,2,0,P|215:139|246:172,1,99.0000030212403,8|8,0:1|0:0,0:0:0:0:
296,242,19837,1,8,0:0:0:0:
300,109,19962,1,4,0:3:0:0:
295,262,20087,1,0,0:0:0:0:
398,97,20212,6,0,L|278:111,1,99.0000030212403,8|8,0:1|0:0,0:0:0:0:
118,223,20462,1,8,0:3:0:0:
294,281,20587,1,8,0:3:0:0:
178,127,20712,1,4,0:3:0:0:
185,322,20837,1,4,0:3:0:0:
293,161,20962,2,0,L|292:48,1,99.0000030212403,4|8,0:3|0:0,0:0:0:0:
118,223,21212,5,12,0:0:0:0:
294,281,21462,1,8,0:0:0:0:
118,208,21712,5,8,0:0:0:0:
293,264,21837,1,0,0:0:0:0:
118,189,21962,1,8,0:0:0:0:
292,246,22212,5,8,0:0:0:0:
118,171,22462,1,8,0:0:0:0:
292,225,22712,2,0,P|246:173|292:74,1,161.999995056153,10|8,0:0|0:0,0:0:0:0:
434,55,23212,5,12,0:0:0:0:
268,90,23337,1,8,0:0:0:0:
418,166,23462,2,0,P|475:161|510:135,1,90,8|8,0:1|0:0,0:0:0:0:
429,272,23712,2,0,P|365:256|340:231,1,90,0|0,0:0|0:0,0:0:0:0:
424,375,23962,2,0,P|488:359|513:334,1,90,0|0,0:0|0:0,0:0:0:0:
323,345,24212,5,8,0:0:0:0:
418,166,24337,1,8,0:1:0:0:
264,243,24462,2,0,L|157:235,1,90,0|0,0:0|0:0,0:0:0:0:
53,110,24712,2,0,L|59:199,1,90,8|8,0:1|0:0,0:0:0:0:
233,170,24962,1,8,0:1:0:0:
120,68,25087,1,0,0:0:0:0:
264,242,25212,6,0,P|257:203|234:171,1,80.9999975280763,12|8,0:0|0:0,0:0:0:0:
98,227,25462,2,0,P|136:241|176:237,1,80.9999975280763,8|0,0:1|0:0,0:0:0:0:
338,169,25712,1,8,0:0:0:0:
194,91,25837,2,0,P|162:116|146:153,1,80.9999975280763,8|0,0:1|0:0,0:0:0:0:
264,242,26087,1,8,0:0:0:0:
412,96,26212,6,0,P|411:43|407:5,1,80.9999975280763,8|8,0:1|0:0,0:0:0:0:
312,69,26462,1,0,0:0:0:0:
439,196,26587,2,0,P|437:263|360:334,1,161.999995056153,8|8,0:0|0:0,0:0:0:0:
230,359,26962,2,0,P|201:325|255:336,1,121.499996292114,8|0,0:1|0:0,0:0:0:0:
254,321,27212,6,0,P|269:268|305:234,1,80.9999975280763,8|8,0:0|0:0,0:0:0:0:
262,153,27462,2,0,P|225:170|199:201,1,80.9999975280763,8|0,0:1|0:0,0:0:0:0:
354,180,27712,1,8,0:0:0:0:
211,69,27837,2,0,P|264:55|311:69,1,80.9999975280763,8|0,0:1|0:0,0:0:0:0:
381,86,28087,1,8,0:0:0:0:
106,145,28212,6,0,P|105:78|110:56,1,80.9999975280763,8|0,0:1|0:0,0:0:0:0:
199,200,28462,1,0,0:0:0:0:
144,293,28587,2,0,P|77:294|55:289,1,80.9999975280763,8|0,0:0|0:0,0:0:0:0:
199,200,28837,1,8,0:0:0:0:
292,255,28962,2,0,P|293:322|288:344,1,80.9999975280763,8|0,0:1|0:0,0:0:0:0:
251,87,29212,6,0,P|303:80|350:96,1,80.9999975280763,12|8,0:0|0:0,0:0:0:0:
292,255,29462,2,0,P|284:215|291:175,1,80.9999975280763,8|0,0:1|0:0,0:0:0:0:
419,46,29712,1,8,0:0:0:0:
460,214,29837,2,0,P|420:221|380:214,1,80.9999975280763,8|0,0:1|0:0,0:0:0:0:
251,87,30087,1,8,0:0:0:0:
199,200,30212,6,0,P|194:266|196:308,1,80.9999975280763,8|8,0:1|0:0,0:0:0:0:
292,255,30462,1,0,0:0:0:0:
106,145,30587,2,0,P|97:253|96:321,1,161.999995056153,8|8,0:0|0:0,0:0:0:0:
200,91,30962,2,0,P|131:40|76:41,1,121.499996292114,8|0,0:1|0:0,0:0:0:0:
20,60,31212,6,0,L|102:36,1,80.9999975280763,12|8,0:0|0:0,0:0:0:0:
256,230,31462,2,0,L|174:206,1,80.9999975280763,8|0,0:1|0:0,0:0:0:0:
0,52,31712,2,0,L|82:28,1,80.9999975280763,8|8,0:0|0:1,0:0:0:0:
276,222,31962,2,0,L|194:198,1,80.9999975280763,0|8,0:0|0:1,0:0:0:0:
384,187,32212,5,8,0:0:0:0:
488,143,32337,2,0,P|497:182|490:227,1,80.9999975280763,8|0,0:1|0:0,0:0:0:0:
276,222,32587,2,0,P|270:182|279:142,1,80.9999975280763,8|0,0:1|0:0,0:0:0:0:
384,284,32837,5,4,0:3:0:0:
384,92,32962,1,4,0:3:0:0:
384,316,33087,1,4,0:3:0:0:
279,142,33212,6,0,P|233:141|194:145,1,72,12|0,0:0|0:0,0:0:0:0:
164,289,33462,2,0,P|165:243|161:204,1,72,8|8,0:0|0:0,0:0:0:0:
17,174,33712,2,0,P|63:175|102:171,1,72,8|0,0:1|0:0,0:0:0:0:
132,27,33962,2,0,P|131:73|135:112,1,72,8|0,0:0|0:0,0:0:0:0:
207,143,34212,5,8,0:0:0:0:
279,142,34337,1,8,0:1:0:0:
342,174,34462,1,8,0:0:0:0:
381,234,34587,1,8,0:0:0:0:
387,305,34712,2,0,P|378:362|367:392,1,72,8|0,0:1|0:0,0:0:0:0:
220,213,34962,2,0,P|210:178|206:142,1,72,8|8,0:0|0:3,0:0:0:0:
342,174,35212,5,8,0:0:0:0:
265,344,35337,2,0,P|218:345|168:338,1,72,8|0,0:1|0:0,0:0:0:0:
338,178,35587,1,8,0:0:0:0:
261,348,35712,2,0,P|214:349|164:342,1,72,8|8,0:1|0:0,0:0:0:0:
148,211,35962,2,0,P|195:210|245:217,1,72,0|0,0:0|0:0,0:0:0:0:
14,260,36212,5,8,0:0:0:0:
13,188,36337,1,8,0:3:0:0:
45,125,36462,1,8,0:0:0:0:
105,86,36587,1,4,0:3:0:0:
176,80,36712,2,0,P|233:71|263:60,1,72,8|8,0:1|0:0,0:0:0:0:
280,56,36899,1,8,0:1:0:0:
280,56,36962,2,0,P|333:35|365:29,1,72,8|8,0:1|0:1,0:0:0:0:
478,31,37212,6,0,P|434:103|497:214,1,180,12|8,0:0|0:1,0:0:0:0:
321,138,37587,1,0,0:0:0:0:
232,304,37712,2,0,P|231:254|225:178,2,90,8|8|8,0:0|0:0|0:1,0:0:0:0:
364,336,38087,1,0,0:0:0:0:
495,213,38212,6,0,P|449:204|397:211,1,90,8|0,0:0|0:0,0:0:0:0:
317,48,38462,2,0,P|315:105|327:162,1,90,8|8,0:1|0:0,0:0:0:0:
96,210,38712,2,0,P|172:252|247:192,1,180,0|8,0:0|0:1,0:0:0:0:
68,77,39087,1,0,0:0:0:0:
258,87,39212,5,8,0:0:0:0:
165,169,39337,1,0,0:0:0:0:
317,220,39462,2,0,P|370:212|424:206,1,90,8|0,0:1|0:0,0:0:0:0:
447,52,39712,2,0,P|461:116|467:172,1,90,8|8,0:0|0:0,0:0:0:0:
306,234,39962,2,0,P|359:226|413:220,1,90,8|8,0:1|0:0,0:0:0:0:
341,67,40212,5,12,0:1:0:0:
464,140,40337,1,8,0:0:0:0:
298,249,40462,2,0,L|186:235,1,90,8|4,0:0|0:3,0:0:0:0:
108,87,40712,5,8,0:1:0:0:
120,213,40837,1,8,0:1:0:0:
93,79,40962,5,8,0:1:0:0:
105,205,41087,1,8,0:1:0:0:
75,72,41212,6,0,L|83:222,1,121.499996292114,12|0,0:0|0:0,0:0:0:0:
96,283,41462,2,0,P|138:332|249:295,1,161.999995056153,8|8,0:0|0:0,0:0:0:0:
329,216,41837,1,0,0:0:0:0:
192,91,41962,2,0,P|189:154|194:201,1,80.9999975280763,8|0,0:0|0:0,0:0:0:0:
349,84,42212,6,0,B|266:59|271:127|172:83,1,161.999995056153,8|8,0:0|0:0,0:0:0:0:
20,124,42587,1,0,0:0:0:0:
149,241,42712,2,0,P|183:254|225:246,1,80.9999975280763,8|0,0:0|0:0,0:0:0:0:
138,361,42962,2,0,P|137:313|152:229,1,121.499996292114,8|0,0:0|0:0,0:0:0:0:
190,171,43212,6,0,P|180:105|133:152,1,161.999995056153,12|8,0:0|0:0,0:0:0:0:
296,217,43587,1,0,0:0:0:0:
468,178,43712,2,0,P|472:128|467:89,1,80.9999975280763,8|0,0:0|0:0,0:0:0:0:
296,297,43962,2,0,P|292:247|297:208,1,80.9999975280763,8|0,0:0|0:0,0:0:0:0:
468,337,44212,6,0,P|479:255|463:162,1,161.999995056153,8|8,0:0|0:0,0:0:0:0:
296,297,44587,1,0,0:0:0:0:
226,160,44712,1,8,0:1:0:0:
226,160,44774,1,0,0:0:0:0:
226,160,44837,1,8,0:1:0:0:
132,349,44962,2,0,P|176:352|238:339,1,80.9999975280763,8|8,0:1|0:1,0:0:0:0:
297,170,45212,6,0,P|240:161|201:159,1,72,12|0,0:0|0:0,0:0:0:0:
131,138,45462,2,0,P|188:129|227:127,1,72,8|0,0:1|0:0,0:0:0:0:
168,272,45712,2,0,P|111:263|72:261,1,72,8|8,0:0|0:0,0:0:0:0:
2,240,45962,2,0,P|59:231|98:229,1,72,8|0,0:1|0:0,0:0:0:0:
290,278,46212,6,0,P|227:307|159:254,1,144,8|8,0:0|0:1,0:0:0:0:
131,138,46587,2,0,P|133:80|131:47,2,72,8|0|8,0:0|0:0|0:0,0:0:0:0:
95,237,46962,2,0,P|95:182|102:138,1,72,8|8,0:1|0:0,0:0:0:0:
354,78,47212,6,0,P|297:69|258:67,1,72,8|8,0:0|0:0,0:0:0:0:
188,46,47462,2,0,P|245:37|284:35,1,72,8|0,0:1|0:0,0:0:0:0:
225,180,47712,2,0,P|168:171|129:169,1,72,8|8,0:0|0:0,0:0:0:0:
59,148,47962,2,0,P|116:139|155:137,1,72,8|8,0:1|0:0,0:0:0:0:
319,154,48212,6,0,P|315:218|320:308,1,144,8|8,0:1|0:1,0:0:0:0:
225,180,48587,2,0,P|225:230|228:282,2,72,8|8|8,0:0|0:1|0:3,0:0:0:0:
262,54,48962,1,4,0:3:0:0:
225,180,49087,1,4,0:3:0:0:
50,114,49212,6,0,P|94:77|127:54,1,80.9999975280763,12|8,0:1|0:0,0:0:0:0:
262,54,49462,2,0,P|208:74|168:96,1,80.9999975280763,0|8,0:0|0:0,0:0:0:0:
52,251,49712,6,0,P|96:214|129:191,1,80.9999975280763,12|8,0:1|0:0,0:0:0:0:
306,161,49962,2,0,P|252:181|212:203,1,80.9999975280763,0|8,0:0|0:0,0:0:0:0:
353,262,50212,5,12,0:1:0:0:
417,171,50337,2,0,P|426:114|427:68,1,80.9999975280763,8|0,0:0|0:0,0:0:0:0:
306,161,50587,1,8,0:0:0:0:
242,252,50712,2,0,P|232:308|231:354,1,80.9999975280763,12|8,0:1|0:0,0:0:0:0:
427,251,50962,2,0,P|423:210|416:170,1,80.9999975280763,0|8,0:0|0:0,0:0:0:0:
241,96,51212,6,0,P|231:150|249:94,1,180,12|0,0:1|0:0,0:0:0:0:
224,79,51712,6,0,P|199:140|306:120,1,215.999993408203,12|0,0:1|0:0,0:0:0:0:
206,60,52212,6,0,P|175:143|322:160,1,251.999992309571,12|0,0:1|0:0,0:0:0:0:
191,41,52712,6,0,P|146:128|291:217,1,288,12|0,0:1|0:0,0:0:0:0:
256,192,53212,12,2,54212,0:0:0:0:
473,191,54712,6,0,P|487:168|495:125,1,53.9999983520508,2|0,0:0|0:0,0:0:0:0:
392,17,54878,6,0,P|356:19|320:34,1,53.9999983520508,0|2,0:0|0:0,0:0:0:0:
273,165,55045,6,0,P|296:207|341:239,1,53.9999983520508,0|0,0:0|0:0,0:0:0:0:
417,141,55212,6,0,P|398:95|357:158,1,161.999995056153,12|0,0:0|0:0,0:0:0:0:
402,217,55462,2,0,P|334:180|357:292,1,233.999989288331,8|8,0:1|0:0,0:0:0:0:
204,84,55837,1,8,0:0:0:0:
29,178,55962,2,0,P|96:197|139:175,1,107.999996704102,8|0,0:1|0:0,0:0:0:0:
204,84,56212,6,0,L|218:283,1,161.999995056153,8|0,0:0|0:0,0:0:0:0:
297,283,56462,2,0,B|125:269|125:269|189:318,1,215.999993408203,8|0,0:1|0:0,0:0:0:0:
269,370,56837,1,8,0:0:0:0:
324,200,56962,2,0,L|195:190,1,107.999996704102,8|0,0:1|0:0,0:0:0:0:
29,178,57212,5,8,0:0:0:0:
159,295,57337,1,0,0:0:0:0:
262,123,57462,2,0,P|207:107|160:128,1,107.999996704102,8|0,0:1|0:0,0:0:0:0:
29,285,57712,5,8,0:0:0:0:
217,192,57837,1,8,0:0:0:0:
35,70,57962,2,0,L|28:190,1,107.999996704102,8|0,0:1|0:0,0:0:0:0:
294,218,58212,6,0,P|262:122|162:126,1,215.999993408203,8|8,0:0|0:1,0:0:0:0:
29,285,58587,1,8,0:0:0:0:
29,285,58712,2,0,P|29:226|30:163,1,107.999996704102,0|8,0:0|0:0,0:0:0:0:
216,299,58962,2,0,P|217:245|215:177,1,107.999996704102,8|0,0:1|0:0,0:0:0:0:
129,40,59212,6,0,P|128:158|129:269,1,215.999993408203,12|8,0:0|0:1,0:0:0:0:
315,165,59587,1,0,0:0:0:0:
315,165,59712,2,0,P|260:165|197:164,1,107.999996704102,8|8,0:0|0:0,0:0:0:0:
20,258,59962,2,0,P|75:258|135:255,1,107.999996704102,8|0,0:1|0:0,0:0:0:0:
304,303,60212,5,8,0:0:0:0:
304,303,60462,2,0,P|377:308|422:282,1,107.999996704102,8|8,0:1|0:0,0:0:0:0:
217,267,60712,5,0,0:0:0:0:
264,76,60837,1,8,0:0:0:0:
377,228,60962,1,8,0:1:0:0:
203,140,61087,1,8,0:0:0:0:
449,56,61212,6,0,L|441:188,1,116.999994644165,12|8,0:1|0:0,0:0:0:0:
368,15,61462,1,8,0:0:0:0:
203,140,61587,6,0,L|211:272,1,116.999994644165,12|8,0:1|0:0,0:0:0:0:
264,76,61837,1,8,0:0:0:0:
91,223,61962,6,0,L|83:355,1,116.999994644165,8|8,0:1|0:0,0:0:0:0:
29,153,62212,5,8,0:1:0:0:
28,134,62274,1,8,0:0:0:0:
27,118,62337,2,0,L|87:126,1,58.4999973220826,8|8,0:0|0:0,0:0:0:0:
170,170,62462,2,0,L|227:162,1,58.4999973220826,8|8,0:3|0:0,0:0:0:0:
303,235,62587,2,0,L|310:177,1,58.4999973220826,4|8,0:3|0:0,0:0:0:0:
212,43,62712,5,4,0:3:0:0:
211,62,62774,1,8,0:0:0:0:
210,78,62837,2,0,L|271:70,1,53.9999983520508,8|8,0:0|0:0,0:0:0:0:
490,116,62962,2,0,P|471:53|438:125,1,161.999995056153,8|8,0:1|0:0,0:0:0:0:
442,168,63212,6,0,P|437:233|419:336,1,161.999995056153,12|0,0:0|0:0,0:0:0:0:
346,341,63462,2,0,P|293:332|256:294,1,107.999996704102,8|0,0:1|0:0,0:0:0:0:
331,147,63712,1,8,0:0:0:0:
336,249,63837,1,8,0:0:0:0:
173,257,63962,2,0,P|206:216|258:202,1,107.999996704102,8|0,0:1|0:0,0:0:0:0:
82,328,64212,6,0,P|85:247|81:166,1,161.999995056153,8|0,0:0|0:0,0:0:0:0:
27,112,64462,2,0,P|88:91|134:110,1,107.999996704102,8|8,0:1|0:0,0:0:0:0:
258,202,64712,1,0,0:0:0:0:
173,257,64837,1,8,0:0:0:0:
312,147,64962,2,0,P|333:208|314:254,1,107.999996704102,8|0,0:1|0:0,0:0:0:0:
413,302,65212,6,0,P|410:211|412:135,1,161.999995056153,8|0,0:0|0:0,0:0:0:0:
356,85,65462,2,0,P|305:71|257:93,1,107.999996704102,8|0,0:1|0:0,0:0:0:0:
248,276,65712,5,8,0:0:0:0:
312,147,65837,1,8,0:0:0:0:
413,302,65962,5,8,0:1:0:0:
312,147,66087,1,0,0:0:0:0:
228,318,66212,6,0,P|118:322|88:226,1,215.999993408203,8|8,0:0|0:1,0:0:0:0:
186,92,66587,2,0,P|238:177|171:252,1,215.999993408203,8|8,0:0|0:0,0:0:0:0:
172,252,66899,1,0,0:0:0:0:
172,252,66962,1,8,0:1:0:0:
321,182,67087,1,0,0:0:0:0:
157,170,67212,6,0,B|-5:151|-5:151|48:129,1,215.999993408203,12|8,0:0|0:1,0:0:0:0:
186,92,67587,1,0,0:0:0:0:
394,125,67712,2,0,P|411:202|385:247,1,107.999996704102,8|8,0:0|0:0,0:0:0:0:
237,239,67962,2,0,P|295:185|347:185,1,107.999996704102,8|8,0:1|0:0,0:0:0:0:
506,168,68212,5,8,0:0:0:0:
415,318,68337,2,0,P|339:294|313:249,1,107.999996704102,0|8,0:0|0:1,0:0:0:0:
218,123,68587,1,8,0:0:0:0:
128,198,68712,2,0,P|121:266|122:327,1,107.999996704102,0|8,0:0|0:0,0:0:0:0:
237,239,68962,1,8,0:1:0:0:
108,82,69087,1,8,0:0:0:0:
108,82,69149,1,8,0:0:0:0:
108,82,69212,5,12,0:1:0:0:
326,157,69337,2,0,L|323:289,1,116.999994644165,8|8,0:0|0:0,0:0:0:0:
120,70,69587,5,4,0:3:0:0:
338,145,69712,2,0,L|335:277,1,116.999994644165,8|8,0:0|0:0,0:0:0:0:
146,312,69962,5,8,0:1:0:0:
132,58,70087,1,8,0:0:0:0:
350,133,70212,6,0,L|347:265,1,116.999994644165,8|8,0:3|0:3,0:0:0:0:
490,297,70462,2,0,P|441:325|384:316,1,116.999994644165,4|4,0:3|0:3,0:0:0:0:
200,333,70711,2,0,P|249:305|306:314,1,116.999994644165,8|8,0:1|0:3,0:0:0:0:
346,383,70962,1,4,0:3:0:0:
368,53,71212,6,0,P|362:145|361:262,1,180,12|0,0:0|0:0,0:0:0:0:
216,309,71587,1,8,0:0:0:0:
216,309,71712,2,0,P|269:307|327:315,1,90,8|0,0:1|0:0,0:0:0:0:
218,219,71962,2,0,P|215:302|218:345,1,90,8|0,0:0|0:0,0:0:0:0:
109,148,72212,6,0,B|63:135|63:135|2:148,2,90,8|8|0,0:0|0:1|0:0,0:0:0:0:
217,219,72587,1,8,0:0:0:0:
218,219,72712,2,0,P|215:302|218:345,1,90,8|0,0:1|0:0,0:0:0:0:
65,312,72962,2,0,P|62:229|65:186,1,90,8|0,0:0|0:0,0:0:0:0:
241,169,73212,6,0,P|235:261|234:378,1,180,12|0,0:0|0:0,0:0:0:0:
473,171,73712,2,0,P|479:263|480:380,1,180,8|8,0:1|0:0,0:0:0:0:
356,264,74087,1,0,0:0:0:0:
353,174,74212,6,0,P|354:237|356:274,1,90,8|8,0:0|0:1,0:0:0:0:
233,348,74462,2,0,P|277:346|322:345,1,90,0|8,0:0|0:0,0:0:0:0:
241,169,74712,2,0,P|196:170|151:171,1,90,8|8,0:1|0:0,0:0:0:0:
71,323,74962,1,8,0:1:0:0:
74,310,75024,1,8,0:1:0:0:
78,297,75087,2,0,L|74:242,1,45,8|8,0:1|0:1,0:0:0:0:
151,170,75212,6,0,B|240:169|240:169|280:188|280:188|397:185,1,215.999993408203,12|8,0:0|0:1,0:0:0:0:
477,97,75587,1,0,0:0:0:0:
291,0,75712,2,0,P|292:58|297:120,1,107.999996704102,8|8,0:0|0:0,0:0:0:0:
481,204,75962,2,0,P|480:146|475:84,1,107.999996704102,8|0,0:1|0:0,0:0:0:0:
210,157,76212,6,0,P|280:203|394:103,1,215.999993408203,8|8,0:0|0:1,0:0:0:0:
209,62,76587,1,8,0:0:0:0:
209,62,76712,2,0,P|140:63|71:70,1,107.999996704102,0|8,0:0|0:0,0:0:0:0:
295,107,76962,2,0,P|364:106|433:99,1,107.999996704102,8|8,0:1|0:0,0:0:0:0:
210,157,77212,6,0,P|210:261|214:319,1,116.999994644165,12|8,0:1|0:0,0:0:0:0:
117,196,77462,1,8,0:1:0:0:
117,196,77587,1,8,0:0:0:0:
295,223,77712,6,0,P|295:119|291:61,1,116.999994644165,8|8,0:1|0:0,0:0:0:0:
216,36,77962,1,8,0:1:0:0:
216,36,78087,1,8,0:0:0:0:
32,145,78212,5,8,0:1:0:0:
294,106,78337,1,8,0:0:0:0:
101,66,78462,5,8,0:1:0:0:
295,223,78587,1,8,0:0:0:0:
15,241,78712,2,0,P|72:233|117:196,1,116.999994644165,8|8,0:1|0:0,0:0:0:0:
29,28,78962,2,0,P|29:125|36:168,1,116.999994644165,8|8,0:1|0:1,0:0:0:0:
99,299,79212,6,0,P|119:207|102:162,1,107.999996704102,12|8,0:0|0:0,0:0:0:0:
185,58,79462,2,0,P|182:111|202:161,2,107.999996704102,8|8|8,0:1|0:1|0:0,0:0:0:0:
364,86,79837,1,8,0:1:0:0:
379,90,79899,1,8,0:1:0:0:
394,94,79962,2,0,L|461:88,3,53.9999983520508,8|8|8|8,0:1|0:0|0:0|0:0,0:0:0:0:
288,172,80212,5,0,0:0:0:0:
288,172,80274,1,0,0:0:0:0:
288,172,80337,2,0,L|342:178,1,53.9999983520508,0|0,0:0|0:0,0:0:0:0:
460,244,80462,1,8,0:0:0:0:
460,244,80524,1,8,0:0:0:0:
460,244,80587,2,0,L|407:250,1,53.9999983520508,8|8,0:0|0:0,0:0:0:0:
230,325,80712,6,0,P|292:307|213:282,1,188.999994232178,8|0,0:1|0:0,0:0:0:0:
223,261,81212,6,0,L|223:81,2,180,12|8|8,0:0|0:0|0:0,0:0:0:0:
133,171,81837,1,0,0:0:0:0:
313,172,81962,2,0,P|339:213|361:269,1,90,8|0,0:0|0:0,0:0:0:0:
223,81,82212,6,0,P|241:39|265:2,1,90,8|0,0:0|0:0,0:0:0:0:
133,171,82462,2,0,P|91:152|54:128,1,90,8|0,0:0|0:0,0:0:0:0:
223,261,82712,5,10,0:0:0:0:
223,376,82837,1,0,0:0:0:0:
243,255,82962,5,10,0:0:0:0:
243,370,83087,1,0,0:0:0:0:
263,249,83212,6,0,P|286:185|283:146,1,90,8|0,0:0|0:0,0:0:0:0:
355,97,83462,2,0,P|374:138|378:183,1,90,8|0,0:0|0:0,0:0:0:0:
263,70,83712,5,8,0:0:0:0:
378,182,83837,1,0,0:0:0:0:
446,69,83962,2,0,P|402:17|366:0,1,90,8|0,0:0|0:0,0:0:0:0:
173,62,84212,6,0,L|283:71,2,90,8|0|8,0:0|0:0|0:0,0:0:0:0:
67,184,84587,1,0,0:0:0:0:
67,184,84649,1,0,0:0:0:0:
67,184,84712,1,8,0:1:0:0:
156,303,84837,1,8,0:3:0:0:
155,154,84962,1,4,0:3:0:0:
67,275,85087,1,8,0:0:0:0:
85,92,85212,6,0,P|139:64|183:66,1,90,12|0,0:1|0:0,0:0:0:0:
312,239,85462,2,0,L|214:213,1,90,0|8,0:0|0:0,0:0:0:0:
334,150,85712,1,8,0:1:0:0:
247,126,85837,1,0,0:0:0:0:
398,215,85962,2,0,P|398:262|372:305,1,90,0|8,0:0|0:1,0:0:0:0:
293,324,86212,5,8,0:0:0:0:
334,150,86337,2,0,P|372:127|417:126,1,90,8|0,0:1|0:0,0:0:0:0:
486,192,86587,1,8,0:0:0:0:
312,239,86712,2,0,P|271:215|247:171,1,90,8|0,0:1|0:0,0:0:0:0:
249,0,86962,2,0,L|269:96,1,90,0|8,0:0|0:0,0:0:0:0:
115,122,87212,5,12,0:1:0:0:
182,60,87337,1,8,0:0:0:0:
28,96,87462,2,0,P|25:140|44:181,1,90,0|8,0:0|0:0,0:0:0:0:
202,148,87712,5,8,0:1:0:0:
95,34,87837,1,8,0:0:0:0:
136,210,87962,2,0,L|125:306,1,90,0|8,0:0|0:0,0:0:0:0:
308,383,88212,5,8,0:1:0:0:
316,373,88274,1,2,0:2:0:0:
324,363,88337,2,0,L|353:325,1,45,8|8,0:0|0:0,0:0:0:0:
407,255,88462,1,4,0:3:0:0:
260,293,88587,1,4,0:3:0:0:
358,168,88712,1,8,0:1:0:0:
352,328,88837,1,8,0:0:0:0:
202,148,88962,5,12,0:1:0:0:
