osu file format v14

[General]
AudioFilename: audio.mp3
AudioLeadIn: 0
PreviewTime: 55087
Countdown: 0
SampleSet: Soft
StackLeniency: 0.3
Mode: 0
LetterboxInBreaks: 0
WidescreenStoryboard: 0

[Editor]
DistanceSpacing: 1
BeatDivisor: 4
GridSize: 4
TimelineZoom: 2

[Metadata]
Title:Los! Los! Los!
TitleUnicode:Los! Los! Los!
Artist:Tanya Degurechaff (CV: Yuki Aoi)
ArtistUnicode:ターニャ・デグレチャフ(CV:悠木碧)
Creator:Logic Agent
Version:Nely's Advanced
Source:幼女戦記
Tags:Youjo Senki Saga of Tanya the Evil ED ending TV Size yuuki losloslos Akitoshi Xinely Kalibe Mun pkhg Plaudible Hobbes2 Lasse
BeatmapID:1214825
BeatmapSetID:570679

[Difficulty]
HPDrainRate:4.5
CircleSize:3.3
OverallDifficulty:5
ApproachRate:6.5
SliderMultiplier:1.1
SliderTickRate:1

[Events]
//Background and Video events
0,0,"792738.jpg",0,0
Video,592,"ed.avi"
//Break Periods
//Storyboard Layer 0 (Background)
//Storyboard Layer 1 (Fail)
//Storyboard Layer 2 (Pass)
//Storyboard Layer 3 (Foreground)
//Storyboard Sound Samples

[TimingPoints]
1212,250,4,2,10,40,1,0
5212,-100,4,2,10,50,0,0
7212,-100,4,2,10,53,0,0
9212,-100,4,2,10,55,0,0
11212,-100,4,2,10,57,0,0
13212,-100,4,2,10,60,0,0
17212,-100,4,2,10,60,0,0
21212,-100,4,2,10,50,0,0
23212,-100,4,2,10,55,0,0
25212,-100,4,2,10,55,0,0
33212,-100,4,2,10,50,0,0
37212,-100,4,2,10,60,0,0
41212,-100,4,2,10,50,0,0
45212,-100,4,2,10,60,0,0
49212,-100,4,2,10,60,0,0
51212,-100,4,2,10,60,0,0
51712,-100,4,2,10,60,0,0
52212,-100,4,2,10,70,0,0
52712,-100,4,2,10,70,0,0
53212,-100,4,2,10,60,0,0
53295,-100,4,2,10,5,0,0
54212,-100,4,2,10,60,0,0
54712,-100,4,2,10,50,0,0
54962,-100,4,2,10,50,0,0
55212,-100,4,2,10,70,0,1
61212,-100,4,2,10,70,0,1
62212,-100,4,2,10,70,0,1
62712,-100,4,2,10,70,0,0
63212,-100,4,2,10,70,0,1
69212,-100,4,2,10,70,0,1
71212,-100,4,2,10,60,0,0
75212,-100,4,2,10,70,0,1
77212,-100,4,2,10,70,0,1
79212,-100,4,2,10,70,0,1
80712,-100,4,2,10,70,0,1
81212,-100,4,2,10,60,0,0
87212,-100,4,2,10,60,0,0
88712,-100,4,2,10,60,0,0
89024,-100,4,2,10,5,0,0

[Colours]
Combo1 : 195,195,195
Combo2 : 255,91,104
Combo3 : 253,181,72
Combo4 : 188,129,114

[HitObjects]
416,332,1212,6,0,P|459:246|401:135,1,220,6|2,0:0|0:0,0:0:0:0:
316,80,1962,1,2,0:0:0:0:
212,40,2212,2,0,P|152:40|104:64,1,110,2|0,0:0|0:0,0:0:0:0:
24,128,2712,1,2,0:0:0:0:
28,236,2962,1,2,0:0:0:0:
40,344,3212,6,0,B|112:360|188:304|188:304|244:344,1,220,2|2,0:0|0:0,0:0:0:0:
344,368,3962,1,2,0:0:0:0:
412,280,4212,2,0,L|404:152,1,110,2|2,0:0|0:0,0:0:0:0:
328,92,4712,2,0,P|280:92|224:124,1,110,2|2,0:0|0:0,0:0:0:0:
144,192,5212,6,0,P|96:192|40:160,1,110,12|8,0:0|0:0,0:0:0:0:
120,84,5712,2,0,L|136:16,2,55,8|0|8,0:0|0:0|0:0,0:0:0:0:
144,192,6212,2,0,P|189:175|252:186,1,110,8|8,0:0|0:0,0:0:0:0:
328,260,6712,1,10,0:0:0:0:
396,176,6962,1,8,0:0:0:0:
328,92,7212,6,0,L|312:24,2,55,12|0|8,0:0|0:0|0:0,0:0:0:0:
396,176,7712,2,0,P|444:168|508:188,1,110,8|8,0:0|0:0,0:0:0:0:
444,276,8212,2,0,P|440:304|440:340,2,55,8|0|8,0:0|0:0|0:0,0:0:0:0:
336,288,8712,2,0,L|216:304,1,110,10|10,0:0|0:0,0:0:0:0:
120,320,9212,6,0,P|104:264|124:212,1,110,12|8,0:0|0:0,0:0:0:0:
156,108,9712,2,0,L|220:108,1,55,8|0,0:0|0:0,0:0:0:0:
268,108,9962,1,8,1:2:0:0:
360,172,10212,2,0,P|376:223|360:275,1,110,8|8,1:2|1:2,0:0:0:0:
268,336,10712,2,0,P|228:332|152:352,1,110,10|12,0:0|0:1,0:0:0:0:
60,304,11212,6,0,L|52:228,1,55,4|2,0:0|0:0,0:0:0:0:
48,196,11462,2,0,P|96:208|168:204,1,110,8|8,0:0|0:0,0:0:0:0:
252,156,11962,1,8,0:0:0:0:
352,200,12212,2,0,P|348:232|356:276,1,55,8|8,0:1|0:1,0:0:0:0:
360,308,12462,2,0,P|372:337|401:371,1,55,8|8,0:1|0:0,0:0:0:0:
440,364,12712,2,0,P|475:340|495:256,1,110,8|8,0:3|0:1,0:0:0:0:
468,172,13212,6,0,L|456:100,1,55,12|0,0:0|0:0,0:0:0:0:
444,64,13462,2,0,P|392:72|336:100,1,110,8|8,0:1|0:0,0:0:0:0:
252,156,13962,1,8,0:1:0:0:
160,96,14212,2,0,P|104:96|44:120,1,110,8|8,0:0|0:1,0:0:0:0:
28,220,14712,2,0,L|4:276,2,55,0|8|8,0:0|0:0|0:1,0:0:0:0:
132,252,15212,6,0,B|188:264|188:264|260:248,1,110,8|8,0:0|0:1,0:0:0:0:
344,220,15712,2,0,L|337:165,1,55,8|8,0:0|0:0,0:0:0:0:
328,112,15962,1,8,0:1:0:0:
436,84,16212,2,0,L|448:208,1,110,8|8,0:0|0:1,0:0:0:0:
412,300,16712,2,0,L|332:300,1,55,0|8,0:0|0:0,0:0:0:0:
308,324,16962,2,0,L|228:324,1,55,8|8,0:1|0:0,0:0:0:0:
200,340,17212,6,0,L|84:340,1,110,12|8,0:1|0:0,0:0:0:0:
36,328,17587,2,0,P|60:272|40:216,1,110,12|8,0:1|0:0,0:0:0:0:
24,176,17962,1,12,0:1:0:0:
92,92,18212,1,8,0:0:0:0:
92,92,18337,2,0,B|136:124|136:124|196:112,1,110,12|8,0:1|0:0,0:0:0:0:
240,88,18712,2,0,B|224:156|224:156|256:196,1,110,12|12,0:1|0:1,0:0:0:0:
332,260,19212,6,0,L|442:260,1,110,12|8,0:1|0:0,0:0:0:0:
496,252,19587,2,0,P|499:194|477:147,1,110,8|8,0:1|0:0,0:0:0:0:
440,108,19962,1,4,0:3:0:0:
360,36,20212,2,0,B|308:28|308:28|250:42,1,110,8|8,0:1|0:3,0:0:0:0:
212,80,20587,1,8,0:3:0:0:
212,80,20712,2,0,P|196:140|216:200,1,110,4|4,0:3|0:3,0:0:0:0:
240,292,21212,6,0,L|112:280,1,110,12|8,0:0|0:0,0:0:0:0:
24,260,21712,2,0,L|4:320,2,55,8|0|8,0:0|0:0|0:0,0:0:0:0:
97,175,22212,2,0,L|225:187,1,110,8|8,0:0|0:0,0:0:0:0:
316,196,22712,2,0,P|336:144|312:80,1,110,10|8,0:0|0:0,0:0:0:0:
220,52,23212,6,0,L|144:56,1,55,12|8,0:0|0:0,0:0:0:0:
112,68,23462,1,8,0:1:0:0:
16,120,23712,2,0,B|-4:192|-4:192|24:232,1,110,10|10,0:0|0:0,0:0:0:0:
92,300,24212,2,0,L|96:356,2,55,8|4|8,0:3|0:3|0:0,0:0:0:0:
156,208,24712,2,0,P|208:196|272:212,1,110,8|8,0:1|0:1,0:0:0:0:
364,248,25212,5,12,0:0:0:0:
440,172,25462,2,0,P|436:112|396:56,1,110,8|8,0:1|0:0,0:0:0:0:
364,44,25837,2,0,P|320:48|296:52,1,55,8|0,0:1|0:0,0:0:0:0:
200,72,26212,1,8,0:1:0:0:
152,172,26462,1,0,0:0:0:0:
152,172,26587,2,0,L|164:300,1,110,8|8,0:0|0:0,0:0:0:0:
168,336,26962,1,8,0:1:0:0:
268,292,27212,6,0,P|336:276|388:296,1,110,8|8,0:0|0:1,0:0:0:0:
472,336,27712,2,0,P|483:282|468:228,1,110,8|0,0:0|0:0,0:0:0:0:
364,192,28212,2,0,B|352:152|352:152|364:76,1,110,8|0,0:1|0:0,0:0:0:0:
384,32,28587,2,0,B|340:48|308:32|308:32|264:44,1,110,8|8,0:0|0:0,0:0:0:0:
232,72,28962,1,8,0:1:0:0:
128,40,29212,5,12,0:0:0:0:
60,124,29462,2,0,P|52:184|76:240,1,110,8|8,0:1|0:0,0:0:0:0:
92,280,29837,2,0,L|156:264,1,55,8|0,0:1|0:0,0:0:0:0:
244,216,30212,2,0,P|300:200|372:220,1,110,8|0,0:1|0:0,0:0:0:0:
392,244,30587,2,0,B|368:212|368:212|404:124,1,110,8|8,0:0|0:0,0:0:0:0:
420,96,30962,1,8,0:1:0:0:
336,24,31212,5,12,0:0:0:0:
228,24,31462,1,8,0:1:0:0:
134,82,31712,1,8,0:0:0:0:
115,190,31962,1,0,0:0:0:0:
172,288,32212,2,0,P|228:272|296:280,1,110,8|0,0:0|0:0,0:0:0:0:
332,288,32587,2,0,P|364:244|360:172,1,110,8|4,0:1|0:3,0:0:0:0:
344,140,32962,1,4,0:3:0:0:
272,56,33212,6,0,L|148:56,1,110,12|8,0:0|0:0,0:0:0:0:
72,120,33712,2,0,L|72:248,1,110,8|8,0:1|0:0,0:0:0:0:
100,336,34212,2,0,P|188:320|224:324,1,110,8|8,0:0|0:0,0:0:0:0:
260,340,34587,1,8,0:0:0:0:
312,352,34712,2,0,L|388:348,1,55,8|0,0:1|0:0,0:0:0:0:
420,336,34962,1,8,0:0:0:0:
476,240,35212,6,0,L|472:168,1,55,8|8,0:0|0:1,0:0:0:0:
468,128,35462,2,0,P|408:152|352:140,1,110,0|8,0:0|0:1,0:0:0:0:
268,92,35962,1,0,0:0:0:0:
192,172,36212,2,0,P|144:184|64:168,1,110,8|8,0:0|0:0,0:0:0:0:
40,144,36587,1,4,0:3:0:0:
40,144,36712,2,0,P|40:88|44:64,1,55,8|8,0:1|0:0,0:0:0:0:
76,48,36962,2,0,P|132:48|156:52,1,55,8|8,0:1|0:1,0:0:0:0:
184,68,37212,6,0,L|300:56,1,110,12|8,0:0|0:1,0:0:0:0:
384,120,37712,2,0,L|372:176,2,55,8|8|8,0:0|0:0|0:1,0:0:0:0:
488,80,38212,2,0,L|508:204,1,110,8|8,0:0|0:1,0:0:0:0:
460,288,38712,2,0,P|400:288|336:320,1,110,0|8,0:0|0:1,0:0:0:0:
248,340,39212,6,0,L|168:332,2,55,8|0|8,0:0|0:0|0:1,0:0:0:0:
276,232,39712,2,0,L|276:176,1,55,8|8,0:0|0:0,0:0:0:0:
276,120,39962,1,8,0:1:0:0:
194,45,40212,2,0,P|130:45|74:85,1,110,12|8,0:1|0:0,0:0:0:0:
46,167,40712,2,0,L|46:235,1,55,8|8,0:1|0:1,0:0:0:0:
55,276,40962,2,0,P|95:296|123:300,1,55,8|8,0:1|0:1,0:0:0:0:
157,279,41212,6,0,P|233:263|273:275,1,110,12|8,0:0|0:0,0:0:0:0:
344,344,41712,2,0,P|397:351|449:335,1,110,8|8,0:0|0:0,0:0:0:0:
502,236,42212,2,0,P|518:183|511:129,1,110,8|8,0:0|0:0,0:0:0:0:
413,79,42712,1,8,0:0:0:0:
307,48,42962,1,8,0:0:0:0:
222,118,43212,6,0,L|222:194,1,55,12|8,0:0|0:0,0:0:0:0:
220,227,43462,2,0,P|168:223|100:235,1,110,10|8,0:0|0:0,0:0:0:0:
24,299,43962,1,8,0:0:0:0:
116,360,44212,2,0,P|168:364|236:352,1,110,12|10,0:0|0:0,0:0:0:0:
332,324,44712,2,0,P|356:280|360:256,1,55,8|8,0:1|0:1,0:0:0:0:
332,228,44962,2,0,P|320:204|316:156,1,55,8|8,0:1|0:1,0:0:0:0:
340,128,45212,6,0,B|292:144|292:144|208:128,1,110,12|8,0:0|0:1,0:0:0:0:
136,84,45712,2,0,L|124:16,2,55,8|8|8,0:0|0:0|0:1,0:0:0:0:
68,172,46212,2,0,L|88:292,1,110,8|8,0:0|0:1,0:0:0:0:
56,328,46587,2,0,P|108:312|184:320,1,110,8|8,0:0|0:0,0:0:0:0:
216,336,46962,1,8,0:1:0:0:
323,360,47212,6,0,P|335:306|323:253,1,110,8|8,0:0|0:1,0:0:0:0:
233,189,47712,2,0,P|220:135|232:82,1,110,8|8,0:0|0:1,0:0:0:0:
333,41,48212,2,0,P|386:28|439:40,1,110,8|8,0:1|0:1,0:0:0:0:
482,74,48587,1,0,0:0:0:0:
507,122,48712,2,0,L|487:190,1,55,8|8,0:1|0:3,0:0:0:0:
444,211,48962,2,0,L|420:271,1,55,4|8,0:3|0:0,0:0:0:0:
378,294,49212,6,0,P|314:310|250:302,1,110,12|0,0:1|0:0,0:0:0:0:
163,283,49712,1,12,0:1:0:0:
108,184,49962,1,0,0:0:0:0:
172,96,50212,2,0,P|236:80|300:88,1,110,12|0,0:1|0:0,0:0:0:0:
328,108,50587,1,8,0:0:0:0:
328,108,50712,2,0,P|308:160|324:224,1,110,12|0,0:1|0:0,0:0:0:0:
401,283,51212,5,12,0:1:0:0:
233,108,51712,1,12,0:1:0:0:
96,307,52212,1,12,0:1:0:0:
315,205,52712,1,12,0:1:0:0:
256,192,53212,12,2,54212,0:0:0:0:
388,252,55212,6,0,L|376:180,1,55,12|0,0:0|0:0,0:0:0:0:
368,144,55462,2,0,P|308:144|260:180,1,110,8|8,0:1|0:0,0:0:0:0:
264,280,55962,1,8,0:1:0:0:
356,336,56212,2,0,P|416:336|464:300,1,110,8|8,0:0|0:1,0:0:0:0:
488,204,56712,2,0,L|488:140,2,55,0|8|8,0:0|0:0|0:1,0:0:0:0:
388,252,57212,6,0,B|340:236|340:236|280:251,1,110,8|8,0:0|0:1,0:0:0:0:
180,288,57712,2,0,L|173:233,1,55,8|8,0:0|0:0,0:0:0:0:
168,180,57962,1,8,0:1:0:0:
156,72,58212,2,0,L|276:64,1,110,8|8,0:0|0:1,0:0:0:0:
364,112,58712,2,0,L|372:184,1,55,0|8,0:0|0:0,0:0:0:0:
388,220,58962,2,0,L|396:292,1,55,8|0,0:1|0:0,0:0:0:0:
392,332,59212,6,0,P|340:320|276:332,1,110,12|8,0:0|0:1,0:0:0:0:
176,348,59712,2,0,L|168:272,1,55,8|8,0:0|0:0,0:0:0:0:
160,240,59962,1,8,0:1:0:0:
142,131,60212,2,0,B|194:146|194:146|246:114,1,110,8|8,0:0|0:1,0:0:0:0:
348,91,60712,2,0,B|360:151|364:199,1,110,0|8,0:0|0:1,0:0:0:0:
331,304,61212,6,0,L|441:304,1,110,12|8,0:1|0:0,0:0:0:0:
481,266,61587,2,0,P|484:208|481:154,1,110,12|8,0:1|0:0,0:0:0:0:
450,110,61962,1,8,0:1:0:0:
360,36,62212,2,0,B|308:28|308:28|250:42,1,110,8|8,0:1|0:3,0:0:0:0:
212,80,62587,1,4,0:3:0:0:
212,80,62712,2,0,P|196:140|216:200,1,110,4|8,0:3|0:1,0:0:0:0:
284,264,63212,6,0,L|393:274,1,110,12|8,0:0|0:1,0:0:0:0:
480,208,63712,2,0,L|488:144,2,55,8|8|8,0:0|0:0|0:1,0:0:0:0:
376,176,64212,2,0,L|266:165,1,110,8|8,0:0|0:1,0:0:0:0:
160,144,64712,2,0,L|152:84,2,55,0|8|8,0:0|0:0|0:1,0:0:0:0:
212,240,65212,6,0,P|196:280|216:368,1,110,8|8,0:0|0:1,0:0:0:0:
256,364,65587,1,0,0:0:0:0:
256,364,65712,2,0,L|388:352,1,110,8|8,0:0|0:1,0:0:0:0:
461,298,66212,2,0,P|477:258|457:170,1,110,8|8,0:0|0:1,0:0:0:0:
392,104,66712,2,0,L|260:108,1,110,0|8,0:0|0:1,0:0:0:0:
172,124,67212,6,0,P|156:216|164:244,1,110,12|8,0:0|0:1,0:0:0:0:
224,320,67712,2,0,L|304:328,1,55,8|8,0:0|0:0,0:0:0:0:
332,336,67962,2,0,L|412:344,1,55,8|8,0:1|0:0,0:0:0:0:
440,348,68212,2,0,L|448:216,1,110,8|8,0:0|0:1,0:0:0:0:
404,136,68712,1,0,0:0:0:0:
328,216,68962,1,8,0:1:0:0:
260,128,69212,6,0,P|204:116|140:148,1,110,12|8,0:1|0:0,0:0:0:0:
108,164,69587,2,0,P|96:224|112:280,1,110,4|8,0:3|0:0,0:0:0:0:
136,316,69962,2,0,L|208:332,1,55,8|8,0:1|0:0,0:0:0:0:
244,332,70212,2,0,B|300:316|300:316|364:336,1,110,8|4,0:3|0:3,0:0:0:0:
404,344,70587,1,4,0:3:0:0:
404,344,70712,2,0,P|420:288|400:224,1,110,8|4,0:1|0:3,0:0:0:0:
356,140,71212,6,0,L|240:136,1,110,12|0,0:0|0:0,0:0:0:0:
152,192,71712,1,8,0:1:0:0:
64,128,71962,1,8,0:0:0:0:
140,48,72212,1,8,0:0:0:0:
140,48,72337,2,0,L|272:44,1,110,8|8,0:1|0:0,0:0:0:0:
304,44,72712,2,0,L|413:47,1,110,8|8,0:1|0:0,0:0:0:0:
448,152,73212,6,0,L|460:280,1,110,12|0,0:0|0:0,0:0:0:0:
380,336,73712,1,8,0:1:0:0:
308,252,73962,1,8,0:0:0:0:
228,328,74212,1,8,0:0:0:0:
228,328,74337,2,0,P|136:316|96:324,1,110,8|8,0:1|0:0,0:0:0:0:
68,332,74712,2,0,L|64:212,1,110,8|8,0:1|0:1,0:0:0:0:
68,112,75212,6,0,P|120:128|184:124,1,110,12|8,0:0|0:1,0:0:0:0:
224,100,75587,2,0,P|278:98|331:114,1,110,0|8,0:0|0:0,0:0:0:0:
372,148,75962,1,8,0:1:0:0:
292,224,76212,2,0,L|288:352,1,110,8|8,0:0|0:1,0:0:0:0:
180,328,76712,2,0,L|183:218,1,110,0|8,0:0|0:1,0:0:0:0:
232,116,77212,6,0,P|280:128|340:124,1,110,12|8,0:1|0:1,0:0:0:0:
392,108,77587,1,8,0:0:0:0:
392,108,77712,2,0,L|396:232,1,110,8|8,0:1|0:1,0:0:0:0:
356,320,78212,2,0,P|305:309|244:320,1,110,8|8,0:1|0:1,0:0:0:0:
192,328,78587,1,8,0:0:0:0:
192,328,78712,2,0,L|184:196,1,110,8|8,0:1|0:1,0:0:0:0:
180,108,79212,5,12,0:0:0:0:
256,192,79337,12,8,80712,0:0:0:0:
324,232,81212,6,0,L|316:108,1,110,12|8,0:0|0:0,0:0:0:0:
212,88,81712,2,0,L|208:32,2,55,8|0|8,0:0|0:0|0:0,0:0:0:0:
140,172,82212,6,0,P|86:161|35:179,1,110,8|8,0:0|0:0,0:0:0:0:
96,272,82712,1,10,0:0:0:0:
204,296,82962,1,10,0:0:0:0:
288,228,83212,6,0,L|284:173,2,55,8|0|8,0:0|0:0|0:0,0:0:0:0:
372,300,83712,2,0,P|427:297|475:271,1,110,8|8,0:0|0:0,0:0:0:0:
448,164,84212,2,0,P|448:136|452:109,2,55,8|0|8,0:0|0:0|0:0,0:0:0:0:
356,224,84712,2,0,L|288:218,1,55,8|8,0:1|0:3,0:0:0:0:
245,217,84962,2,0,L|174:213,1,55,4|8,0:3|0:0,0:0:0:0:
136,216,85212,6,0,P|92:204|28:212,1,110,12|0,0:1|0:0,0:0:0:0:
80,308,85712,2,0,L|72:364,2,55,8|0|0,0:1|0:0|0:0,0:0:0:0:
189,319,86212,2,0,L|313:319,1,110,8|0,0:0|0:0,0:0:0:0:
356,224,86712,2,0,L|468:224,1,110,8|0,0:1|0:0,0:0:0:0:
460,114,87212,6,0,L|460:42,2,55,12|8|0,0:1|0:0|0:0,0:0:0:0:
350,126,87712,2,0,L|234:126,1,110,8|0,0:1|0:0,0:0:0:0:
132,101,88212,2,0,L|136:33,2,55,10|10|4,0:1|0:0|0:3,0:0:0:0:
57,182,88712,1,8,0:1:0:0:
130,264,88962,1,12,0:1:0:0:
