osu file format v14

[General]
AudioFilename: audio.mp3
AudioLeadIn: 0
PreviewTime: 55087
Countdown: 0
SampleSet: Soft
StackLeniency: 0.4
Mode: 0
LetterboxInBreaks: 0
WidescreenStoryboard: 0

[Editor]
Bookmarks: 33212
DistanceSpacing: 0.2
BeatDivisor: 4
GridSize: 32
TimelineZoom: 2.899999

[Metadata]
Title:Los! Los! Los!
TitleUnicode:Los! Los! Los!
Artist:Tanya Degurechaff (CV: Yuki Aoi)
ArtistUnicode:ターニャ・デグレチャフ(CV:悠木碧)
Creator:Logic Agent
Version:Mun's Insane
Source:幼女戦記
Tags:Youjo Senki Saga of Tanya the Evil ED ending TV Size yuuki losloslos Akitoshi Xinely Kalibe Mun pkhg Plaudible Hobbes2 Lasse
BeatmapID:1211730
BeatmapSetID:570679

[Difficulty]
HPDrainRate:6
CircleSize:4
OverallDifficulty:8
ApproachRate:9.2
SliderMultiplier:1.6
SliderTickRate:1

[Events]
//Background and Video events
0,0,"792738.jpg",0,0
Video,592,"ed.avi"
//Break Periods
//Storyboard Layer 0 (Background)
//Storyboard Layer 1 (Fail)
//Storyboard Layer 2 (Pass)
//Storyboard Layer 3 (Foreground)
//Storyboard Sound Samples

[TimingPoints]
1212,250,4,2,10,40,1,0
1212,-142.857142857143,4,2,10,40,0,0
5212,-100,4,2,10,50,0,0
7212,-100,4,2,10,53,0,0
9212,-100,4,2,10,55,0,0
11212,-83.3333333333333,4,2,10,57,0,0
13212,-71.4285714285714,4,2,10,60,0,0
21212,-100,4,2,10,50,0,0
23212,-100,4,2,10,55,0,0
25212,-100,4,2,10,55,0,0
33212,-100,4,2,10,50,0,0
37212,-83.3333333333333,4,2,10,60,0,0
41212,-76.9230769230769,4,2,10,50,0,0
45212,-71.4285714285714,4,2,10,60,0,0
49212,-71.4285714285714,4,2,10,60,0,0
51212,-71.4285714285714,4,2,10,60,0,0
51712,-71.4285714285714,4,2,10,60,0,0
52212,-71.4285714285714,4,2,10,70,0,0
53212,-71.4285714285714,4,2,10,60,0,0
53295,-71.4285714285714,4,2,10,5,0,0
54087,-71.4285714285714,4,2,10,5,0,0
54212,-71.4285714285714,4,2,10,60,0,0
54712,-71.4285714285714,4,2,10,50,0,0
54962,-71.4285714285714,4,2,10,50,0,0
55212,-66.6666666666667,4,2,10,70,0,1
62212,-66.6666666666667,4,2,10,70,0,1
62712,-90.9090909090909,4,2,10,70,0,0
63212,-66.6666666666667,4,2,10,70,0,1
71212,-125,4,2,10,60,0,0
75212,-62.5,4,2,10,70,0,1
77212,-100,4,2,10,70,0,1
78212,-62.5,4,2,10,70,0,1
80712,-62.5,4,2,10,70,0,1
81212,-83.3333333333333,4,2,10,60,0,0
87212,-83.3333333333333,4,2,10,60,0,0
88712,-83.3333333333333,4,2,10,60,0,0
89024,-83.3333333333333,4,2,10,5,0,0

[Colours]
Combo1 : 195,195,195
Combo2 : 255,91,104
Combo3 : 253,181,72
Combo4 : 188,129,114

[HitObjects]
126,151,1212,6,0,L|144:217,3,55.9999982910157,6|0|0|0,0:0|0:0|0:0|0:0,0:0:0:0:
218,237,1712,2,0,L|221:300,1,55.9999982910157,2|0,0:0|0:0,0:0:0:0:
295,329,1962,2,0,L|287:391,1,55.9999982910157,2|0,0:0|0:0,0:0:0:0:
375,182,2212,6,0,L|389:127,3,55.9999982910157,2|0|0|0,0:0|0:0|0:0|0:0,0:0:0:0:
413,260,2712,2,0,B|362:266|362:266|285:228,1,111.999996582031,2|2,0:0|0:0,0:0:0:0:
161,43,3212,6,0,L|146:97,3,55.9999982910157,2|0|0|0,0:0|0:0|0:0|0:0,0:0:0:0:
47,161,3712,2,0,L|60:223,1,55.9999982910157,2|0,0:0|0:0,0:0:0:0:
176,296,3962,2,0,L|187:241,1,55.9999982910157,2|0,0:0|0:0,0:0:0:0:
146,97,4212,6,0,L|157:151,1,55.9999982910157,2|0,0:0|0:0,0:0:0:0:
254,338,4462,2,0,L|265:283,1,55.9999982910157,2|0,0:0|0:0,0:0:0:0:
286,201,4712,1,2,0:0:0:0:
267,119,4837,2,0,P|296:183|369:183,1,139.999995727539,0|0,0:0|0:0,0:0:0:0:
371,180,5212,6,0,L|386:272,1,80,12|0,0:0|0:0,0:0:0:0:
512,244,5462,2,0,L|497:336,1,80,8|0,0:0|0:0,0:0:0:0:
286,201,5712,1,8,0:0:0:0:
381,185,5837,1,0,0:0:0:0:
428,269,5962,2,0,L|415:347,1,80,8|0,0:0|0:0,0:0:0:0:
227,317,6212,6,0,L|313:308,1,80,8|0,0:0|0:0,0:0:0:0:
171,226,6462,2,0,L|85:217,1,80,8|0,0:0|0:0,0:0:0:0:
276,223,6712,2,0,B|308:151|308:151|293:59,1,160,10|8,0:0|0:0,0:0:0:0:
294,70,7212,5,12,0:0:0:0:
389,103,7337,1,0,0:0:0:0:
294,70,7462,2,0,L|206:66,1,80,8|0,0:0|0:0,0:0:0:0:
143,160,7712,2,0,L|231:156,1,80,8|0,0:0|0:0,0:0:0:0:
113,85,7962,2,0,P|76:115|75:201,1,120,8|0,0:0|0:0,0:0:0:0:
71,194,8212,5,8,0:0:0:0:
151,240,8337,1,0,0:0:0:0:
141,335,8462,2,0,L|231:332,1,80,8|0,0:0|0:0,0:0:0:0:
297,186,8712,2,0,L|293:274,1,80,10|0,0:0|0:0,0:0:0:0:
222,156,8962,2,0,P|252:119|338:118,1,120,10|0,0:0|0:0,0:0:0:0:
331,113,9212,6,0,B|406:141|406:141|490:108,1,160,12|8,0:0|0:0,0:0:0:0:
480,111,9712,1,8,0:0:0:0:
511,201,9837,1,0,0:0:0:0:
444,270,9962,2,0,L|462:366,1,80,8|0,1:2|0:0,0:0:0:0:
301,272,10212,6,0,L|364:346,1,80,8|0,1:2|0:0,0:0:0:0:
163,318,10462,2,0,L|255:350,1,80,8|0,1:2|0:0,0:0:0:0:
376,245,10712,2,0,L|283:277,1,80,10|0,0:0|0:0,0:0:0:0:
194,233,10962,2,0,P|182:290|213:340,1,120,12|0,0:1|0:0,0:0:0:0:
205,347,11212,6,0,L|101:350,1,95.9999970703126,4|2,0:0|0:0,0:0:0:0:
301,272,11462,2,0,L|405:275,1,95.9999970703126,8|8,0:0|0:1,0:0:0:0:
224,111,11712,1,8,0:0:0:0:
194,233,11837,1,8,0:1:0:0:
102,148,11962,2,0,B|56:163|56:163|-2:151,1,95.9999970703126,8|8,0:0|0:1,0:0:0:0:
224,111,12212,5,8,0:1:0:0:
102,148,12337,1,8,0:1:0:0:
224,111,12462,2,0,B|270:96|270:96|328:108,1,95.9999970703126,8|8,0:1|0:0,0:0:0:0:
401,200,12712,2,0,L|408:239,14,23.9999992675781,8|0|8|0|4|0|4|0|8|0|2|0|8|0|2,0:3|2:1|0:3|2:1|0:3|2:1|0:3|2:1|0:1|2:1|2:2|2:1|0:1|2:1|2:2,2:1:0:0:
361,265,13212,5,12,0:0:0:0:
265,201,13337,1,0,0:0:0:0:
195,309,13462,2,0,L|69:294,1,111.999996582031,8|0,0:1|0:0,0:0:0:0:
19,190,13712,2,0,B|73:170|73:170|133:185,1,111.999996582031,8|8,0:0|0:0,0:0:0:0:
247,209,13962,2,0,B|303:223|303:223|361:202,1,111.999996582031,8|0,0:1|0:0,0:0:0:0:
468,159,14212,6,0,P|493:94|410:84,1,167.999994873047,8|0,0:0|0:0,0:0:0:0:
410,87,14462,1,8,0:1:0:0:
352,196,14587,1,8,0:0:0:0:
253,121,14712,2,0,L|234:10,1,111.999996582031,0|8,0:0|0:0,0:0:0:0:
410,87,14962,2,0,L|391:197,1,111.999996582031,8|0,0:1|0:0,0:0:0:0:
363,317,15212,6,0,B|305:336|305:336|200:313,1,167.999994873047,8|0,0:0|0:0,0:0:0:0:
192,303,15462,2,0,L|213:183,1,111.999996582031,8|0,0:1|0:0,0:0:0:0:
238,72,15712,1,8,0:0:0:0:
132,164,15837,1,8,0:0:0:0:
238,72,15962,2,0,B|296:53|296:53|401:76,1,167.999994873047,8|0,0:1|0:0,0:0:0:0:
410,87,16212,6,0,L|390:197,1,111.999996582031,8|0,0:0|0:0,0:0:0:0:
367,318,16462,1,8,0:1:0:0:
367,318,16712,1,0,0:0:0:0:
283,262,16837,1,8,0:0:0:0:
182,261,16962,1,8,0:1:0:0:
108,329,17087,1,8,0:0:0:0:
140,169,17212,6,0,L|63:67,1,111.999996582031,12|8,0:1|0:0,0:0:0:0:
126,310,17462,1,8,0:0:0:0:
239,177,17587,2,0,L|223:50,1,111.999996582031,12|8,0:1|0:0,0:0:0:0:
211,288,17837,1,8,0:0:0:0:
318,230,17962,2,0,L|367:112,1,111.999996582031,12|8,0:1|0:0,0:0:0:0:
229,269,18212,5,8,0:0:0:0:
392,297,18337,2,0,P|434:239|345:125,1,223.999993164063,12|8,0:1|0:0,0:0:0:0:
224,172,18712,2,0,B|198:121|198:121|206:51,1,111.999996582031,12|8,0:1|0:0,0:0:0:0:
454,14,18962,2,0,B|479:64|479:64|471:134,1,111.999996582031,12|8,0:1|0:0,0:0:0:0:
464,232,19212,5,12,0:1:0:0:
383,192,19337,1,8,0:0:0:0:
296,215,19462,1,8,0:0:0:0:
250,292,19587,1,8,0:1:0:0:
312,384,19712,6,0,B|352:342|352:342|405:329,1,111.999996582031,8|8,0:0|0:0,0:0:0:0:
402,246,19962,2,0,B|347:231|347:231|310:191,1,111.999996582031,4|0,0:3|0:0,0:0:0:0:
234,236,20212,6,0,B|250:290|250:290|228:359,1,111.999996582031,8|8,0:1|0:0,0:0:0:0:
123,158,20462,1,8,0:3:0:0:
234,236,20587,1,8,0:3:0:0:
123,158,20712,2,0,P|70:139|9:143,1,111.999996582031,4|4,0:3|0:3,0:0:0:0:
0,284,20962,2,0,P|52:302|113:298,1,111.999996582031,4|8,0:3|0:0,0:0:0:0:
222,230,21212,6,0,L|265:391,1,160,12|8,0:0|0:0,0:0:0:0:
394,266,21712,2,0,L|373:188,1,80,8|0,0:0|0:0,0:0:0:0:
309,55,21962,1,8,0:0:0:0:
309,55,22212,6,0,L|139:38,1,160,8|8,0:0|0:0,0:0:0:0:
230,136,22712,2,0,B|249:194|249:194|226:299,1,160,10|8,0:0|0:0,0:0:0:0:
228,291,23212,5,12,0:0:0:0:
111,319,23337,1,8,0:0:0:0:
92,168,23462,2,0,P|130:118|201:121,1,120,8|0,0:1|0:0,0:0:0:0:
198,122,23712,2,0,L|294:126,1,80,10|0,0:0|0:0,0:0:0:0:
92,168,23962,2,0,L|-4:172,1,80,10|0,0:0|0:0,0:0:0:0:
82,57,24212,5,8,0:3:0:0:
92,168,24337,1,4,0:3:0:0:
187,226,24462,2,0,L|283:230,1,80,8|8,0:0|0:0,0:0:0:0:
375,175,24712,1,8,0:1:0:0:
323,65,24837,1,8,0:0:0:0:
328,283,24962,2,0,L|327:367,1,80,8|0,0:1|0:0,0:0:0:0:
462,205,25212,6,0,B|468:162|468:162|449:112,1,80,12|8,0:0|0:0,0:0:0:0:
288,140,25462,2,0,B|282:183|282:183|301:233,1,80,8|0,0:1|0:0,0:0:0:0:
414,284,25712,2,0,L|493:291,1,80,8|8,0:0|0:1,0:0:0:0:
294,217,25962,2,0,L|215:224,1,80,0|8,0:0|0:0,0:0:0:0:
414,284,26212,5,8,0:1:0:0:
462,205,26337,1,8,0:0:0:0:
419,122,26462,1,0,0:0:0:0:
328,103,26587,2,0,B|270:150|270:150|256:254,1,160,8|8,0:0|0:0,0:0:0:0:
194,323,26962,2,0,P|140:295|63:314,1,120,8|0,0:1|0:0,0:0:0:0:
66,316,27212,6,0,L|58:213,1,80,8|8,0:0|0:0,0:0:0:0:
54,101,27462,2,0,L|46:-2,1,80,8|0,0:1|0:0,0:0:0:0:
180,179,27712,2,0,L|186:258,1,80,8|8,0:0|0:1,0:0:0:0:
149,85,27962,1,0,0:0:0:0:
149,85,28087,1,8,0:0:0:0:
245,100,28212,6,0,L|336:120,2,80,8|0|0,0:1|0:0|0:0,0:0:0:0:
149,85,28587,2,0,B|130:143|130:143|153:248,1,160,8|8,0:0|0:0,0:0:0:0:
378,245,28962,2,0,L|366:152,1,80,8|0,0:1|0:0,0:0:0:0:
162,149,29212,6,0,L|180:227,1,80,12|8,0:0|0:0,0:0:0:0:
295,68,29462,2,0,L|283:147,1,80,8|0,0:1|0:0,0:0:0:0:
162,149,29712,1,8,0:0:0:0:
201,49,29837,1,8,0:1:0:0:
162,149,29962,2,0,L|156:290,1,120,0|0,0:0|0:0,0:0:0:0:
156,287,30212,5,8,0:1:0:0:
68,254,30337,2,0,L|50:163,1,80,8|0,0:0|0:0,0:0:0:0:
173,136,30587,2,0,L|166:297,1,160,8|8,0:0|0:0,0:0:0:0:
68,254,30962,2,0,L|50:127,1,120,8|0,0:1|0:0,0:0:0:0:
51,127,31212,6,0,L|134:118,1,80,12|8,0:0|0:0,0:0:0:0:
249,105,31462,2,0,L|332:96,1,80,8|0,0:1|0:0,0:0:0:0:
303,205,31712,2,0,L|220:214,1,80,8|8,0:0|0:1,0:0:0:0:
353,115,31962,1,0,0:0:0:0:
353,115,32087,1,8,0:1:0:0:
410,200,32212,6,0,L|430:300,2,80,8|8|0,0:0|0:1|0:0,0:0:0:0:
456,133,32587,2,0,B|434:56|434:56|360:10,1,160,8|4,0:1|0:3,0:0:0:0:
206,33,32962,2,0,L|186:133,1,80,4|4,0:3|0:3,0:0:0:0:
251,274,33212,6,0,L|252:179,1,80,12|0,0:0|0:0,0:0:0:0:
144,294,33462,2,0,L|129:202,1,80,8|8,0:0|0:0,0:0:0:0:
53,345,33712,5,8,0:1:0:0:
53,345,33962,2,0,L|22:257,1,80,8|0,0:0|0:0,0:0:0:0:
44,150,34212,6,0,L|139:137,1,80,8|8,0:0|0:1,0:0:0:0:
196,31,34462,2,0,L|101:18,1,80,8|8,0:0|0:0,0:0:0:0:
199,122,34712,1,8,0:1:0:0:
275,77,34837,1,0,0:0:0:0:
352,118,34962,2,0,B|392:111|392:111|437:118,1,80,8|8,0:0|0:3,0:0:0:0:
443,228,35212,6,0,L|447:320,1,80,8|8,0:0|0:1,0:0:0:0:
313,233,35462,2,0,L|309:325,1,80,0|8,0:0|0:0,0:0:0:0:
160,348,35712,6,0,L|163:268,1,80,8|8,0:1|0:0,0:0:0:0:
30,353,35962,2,0,L|26:273,1,80,0|0,0:0|0:0,0:0:0:0:
135,107,36212,6,0,L|139:187,1,80,8|8,0:0|0:3,0:0:0:0:
88,46,36462,1,8,0:0:0:0:
189,52,36587,1,4,0:3:0:0:
250,136,36712,2,0,P|336:130|362:102,1,120,8|8,0:1|0:1,0:0:0:0:
366,98,36962,1,8,0:1:0:0:
435,32,37087,1,8,0:1:0:0:
472,122,37212,6,0,L|476:223,1,95.9999970703126,12|0,0:0|0:0,0:0:0:0:
434,336,37462,2,0,B|376:355|376:355|271:332,1,143.999995605469,8|0,0:1|0:0,0:0:0:0:
285,333,37712,1,8,0:0:0:0:
232,241,37837,1,8,0:0:0:0:
127,226,37962,2,0,L|21:222,1,95.9999970703126,8|0,0:1|0:0,0:0:0:0:
285,333,38212,6,0,L|391:337,1,95.9999970703126,8|0,0:0|0:0,0:0:0:0:
447,253,38462,1,8,0:1:0:0:
366,184,38587,1,8,0:0:0:0:
391,81,38712,2,0,L|495:56,1,95.9999970703126,0|8,0:0|0:0,0:0:0:0:
290,109,38962,2,0,B|222:126|222:126|146:99,1,143.999995605469,8|0,0:1|0:0,0:0:0:0:
144,95,39212,5,8,0:0:0:0:
92,11,39337,1,0,0:0:0:0:
197,4,39462,2,0,L|293:-5,1,95.9999970703126,8|0,0:1|0:0,0:0:0:0:
158,105,39712,2,0,L|62:96,1,95.9999970703126,8|8,0:0|0:0,0:0:0:0:
9,9,39962,1,8,0:1:0:0:
62,96,40087,2,0,L|79:163,1,47.9999985351563,8|8,0:0|0:0,0:0:0:0:
39,206,40212,6,0,P|18:259|31:311,1,95.9999970703126,12|8,0:1|0:0,0:0:0:0:
96,384,40462,1,8,0:0:0:0:
137,264,40587,1,4,0:3:0:0:
238,340,40712,1,8,0:1:0:0:
238,340,40837,1,8,0:1:0:0:
243,346,40962,1,8,0:1:0:0:
243,346,41087,1,8,0:1:0:0:
243,346,41212,6,0,B|320:326|320:326|353:254,1,155.999992858887,12|0,0:0|0:0,0:0:0:0:
360,250,41462,2,0,L|464:227,1,103.999995239258,8|0,0:0|0:0,0:0:0:0:
347,136,41712,2,0,L|425:64,1,103.999995239258,8|0,0:0|0:0,0:0:0:0:
279,40,41962,1,8,0:0:0:0:
279,40,42212,6,0,B|216:84|216:84|133:73,1,155.999992858887,8|0,0:0|0:0,0:0:0:0:
127,70,42462,2,0,L|141:183,1,103.999995239258,8|0,0:0|0:0,0:0:0:0:
238,262,42712,2,0,L|224:375,1,103.999995239258,8|0,0:0|0:0,0:0:0:0:
229,180,42962,2,0,P|296:199|315:291,1,155.999992858887,8|0,0:0|0:0,0:0:0:0:
321,285,43212,6,0,L|450:276,1,103.999995239258,12|8,0:0|0:0,0:0:0:0:
312,123,43462,2,0,L|416:199,1,103.999995239258,10|0,0:0|0:0,0:0:0:0:
413,0,43712,2,0,L|433:127,1,103.999995239258,8|0,0:0|0:0,0:0:0:0:
328,225,43962,2,0,L|311:122,1,103.999995239258,8|0,0:0|0:0,0:0:0:0:
154,166,44212,6,0,L|138:269,1,103.999995239258,12|8,0:0|0:0,0:0:0:0:
301,207,44462,2,0,L|284:104,1,103.999995239258,10|0,0:0|0:0,0:0:0:0:
172,41,44712,1,8,0:1:0:0:
172,41,44774,1,0,0:0:0:0:
172,41,44837,1,8,0:1:0:0:
284,104,44962,1,8,0:1:0:0:
86,106,45087,1,8,0:1:0:0:
251,29,45212,6,0,B|352:32|352:32|343:68|362:124|429:142,1,223.999993164063,12|8,0:0|0:1,0:0:0:0:
404,132,45712,1,8,0:0:0:0:
446,53,45837,1,8,0:0:0:0:
357,56,45962,2,0,B|296:78|296:78|194:60,1,167.999994873047,8|0,0:1|0:0,0:0:0:0:
183,59,46212,5,8,0:0:0:0:
85,163,46337,1,8,0:0:0:0:
144,295,46462,2,0,L|169:185,1,111.999996582031,8|8,0:1|0:0,0:0:0:0:
12,255,46712,2,0,L|37:365,1,111.999996582031,0|8,0:0|0:0,0:0:0:0:
80,177,46962,2,0,B|99:119|99:119|76:14,1,167.999994873047,8|0,0:1|0:0,0:0:0:0:
64,14,47212,6,0,L|204:6,1,111.999996582031,8|8,0:0|0:0,0:0:0:0:
323,72,47462,2,0,L|444:80,1,111.999996582031,8|0,0:1|0:0,0:0:0:0:
512,76,47712,1,8,0:0:0:0:
388,0,47837,1,8,0:0:0:0:
373,158,47962,2,0,L|363:284,1,111.999996582031,8|8,0:1|0:0,0:0:0:0:
284,327,48212,6,0,B|179:350|179:350|121:331,1,167.999994873047,8|0,0:1|0:0,0:0:0:0:
112,324,48462,1,8,0:1:0:0:
159,228,48587,1,0,0:0:0:0:
76,140,48712,2,0,L|84:28,1,111.999996582031,8|8,0:1|0:3,0:0:0:0:
284,231,48962,2,0,L|173:240,1,111.999996582031,4|8,0:3|0:0,0:0:0:0:
346,151,49212,6,0,B|325:98|325:98|349:47,1,111.999996582031,12|8,0:1|0:0,0:0:0:0:
385,249,49462,1,0,0:0:0:0:
385,249,49587,1,8,0:0:0:0:
314,321,49712,2,0,L|202:329,1,111.999996582031,12|8,0:1|0:0,0:0:0:0:
110,287,49962,1,0,0:0:0:0:
110,287,50087,1,8,0:0:0:0:
195,226,50212,6,0,L|306:234,2,111.999996582031,12|8|0,0:1|0:0|0:0,0:0:0:0:
102,185,50587,2,0,L|-39:194,1,111.999996582031,8|12,0:0|0:1,0:0:0:0:
0,81,50837,1,8,0:0:0:0:
99,24,50962,2,0,B|182:43|182:43|265:24,1,167.999994873047,0|0,0:0|0:0,0:0:0:0:
271,16,51212,5,12,0:1:0:0:
271,334,51712,1,12,0:1:0:0:
84,77,52212,1,12,0:1:0:0:
386,175,52712,1,12,0:1:0:0:
84,273,53212,1,2,0:0:0:0:
256,192,53274,12,8,54087,0:0:0:0:
256,192,54212,5,12,0:1:0:0:
179,181,54712,5,10,0:3:0:0:
182,210,54795,1,8,0:3:0:0:
196,236,54878,1,8,0:3:0:0:
218,255,54962,5,14,0:3:0:0:
246,264,55045,1,4,0:3:0:0:
275,263,55128,1,4,0:3:0:0:
303,248,55212,6,0,L|449:263,1,120.000004577637,12|0,0:0|0:0,0:0:0:0:
182,210,55462,2,0,B|95:240|95:240|-20:210,1,180.000006866455,8|0,0:1|0:0,0:0:0:0:
0,211,55712,1,8,0:0:0:0:
102,91,55837,1,8,0:0:0:0:
100,233,55962,2,0,L|103:356,1,120.000004577637,8|0,0:1|0:0,0:0:0:0:
0,131,56212,6,0,L|2:11,1,120.000004577637,8|0,0:0|0:0,0:0:0:0:
102,91,56462,1,8,0:1:0:0:
206,14,56587,1,8,0:0:0:0:
292,107,56712,2,0,L|311:265,1,120.000004577637,0|8,0:0|0:0,0:0:0:0:
450,371,56962,2,0,L|464:251,1,120.000004577637,8|0,0:1|0:0,0:0:0:0:
395,151,57212,6,0,B|306:226|306:226|159:146,1,240.000009155274,8|8,0:0|0:1,0:0:0:0:
120,91,57587,1,0,0:0:0:0:
56,192,57712,2,0,L|50:331,1,120.000004577637,8|8,0:0|0:0,0:0:0:0:
187,191,57962,2,0,L|193:330,1,120.000004577637,8|0,0:1|0:0,0:0:0:0:
283,227,58212,6,0,P|197:89|107:124,1,240.000009155274,8|8,0:0|0:1,0:0:0:0:
109,211,58587,1,8,0:0:0:0:
24,98,58712,2,0,L|143:96,1,120.000004577637,0|8,0:0|0:0,0:0:0:0:
228,213,58962,2,0,L|109:211,1,120.000004577637,8|0,0:1|0:0,0:0:0:0:
310,93,59212,6,0,B|362:75|409:110|409:110|432:68|432:68|466:106|533:88,1,240.000009155274,12|8,0:0|0:1,0:0:0:0:
346,180,59587,1,0,0:0:0:0:
465,177,59712,2,0,P|477:253|377:308,1,180.000006866455,8|0,0:0|0:0,0:0:0:0:
386,318,59962,2,0,L|516:326,1,120.000004577637,8|0,0:1|0:0,0:0:0:0:
302,246,60212,6,0,L|172:254,1,120.000004577637,8|0,0:0|0:0,0:0:0:0:
30,225,60462,2,0,P|101:272|92:358,1,180.000006866455,8|0,0:1|0:0,0:0:0:0:
91,373,60712,2,0,L|221:375,1,120.000004577637,0|8,0:0|0:0,0:0:0:0:
302,244,60962,1,8,0:1:0:0:
361,347,61087,1,8,0:0:0:0:
226,296,61212,6,0,B|177:256|112:259|112:259|172:229|184:156,1,240.000009155274,12|8,0:1|0:0,0:0:0:0:
168,16,61587,1,12,0:1:0:0:
91,171,61712,2,0,B|31:155|31:155|-24:178,1,120.000004577637,8|8,0:0|0:0,0:0:0:0:
112,259,61962,2,0,B|172:275|172:275|227:252,1,120.000004577637,8|8,0:1|0:0,0:0:0:0:
331,205,62212,6,0,L|391:167,3,60.0000022888184,8|8|8|8,0:1|0:0|0:0|0:0,0:0:0:0:
332,227,62462,2,0,L|397:211,3,60.0000022888184,8|8|4|8,0:3|0:0|0:3|0:0,0:0:0:0:
331,247,62712,6,0,L|388:252,1,44.0000013427735,4|8,0:3|0:0,0:0:0:0:
324,333,62837,2,0,L|283:320,1,44.0000013427735,8|8,0:0|0:0,0:0:0:0:
239,245,62962,2,0,B|173:244|173:244|104:177,1,132.00000402832,8|0,0:1|0:0,0:0:0:0:
125,219,63212,6,0,L|225:322,1,120.000004577637,12|0,0:0|0:0,0:0:0:0:
252,169,63462,2,0,L|382:201,1,120.000004577637,8|0,0:1|0:0,0:0:0:0:
464,115,63712,1,8,0:0:0:0:
381,201,63837,1,8,0:0:0:0:
481,269,63962,2,0,P|498:336|392:378,1,180.000006866455,8|0,0:1|0:0,0:0:0:0:
399,382,64212,6,0,P|359:320|228:373,1,240.000009155274,8|8,0:0|0:1,0:0:0:0:
193,241,64587,1,8,0:0:0:0:
111,145,64712,2,0,L|-39:130,1,120.000004577637,0|8,0:0|0:0,0:0:0:0:
218,107,64962,2,0,L|336:133,1,120.000004577637,8|0,0:1|0:0,0:0:0:0:
175,168,65212,6,0,P|143:93|276:61,1,240.000009155274,8|8,0:0|0:1,0:0:0:0:
318,239,65587,1,0,0:0:0:0:
186,312,65712,2,0,L|59:315,1,120.000004577637,8|8,0:0|0:0,0:0:0:0:
318,239,65962,2,0,L|445:242,1,120.000004577637,8|0,0:1|0:0,0:0:0:0:
270,332,66212,6,0,B|241:244|241:244|276:85,1,240.000009155274,8|8,0:0|0:1,0:0:0:0:
381,43,66587,1,8,0:0:0:0:
226,224,66712,2,0,L|106:226,1,120.000004577637,0|8,0:0|0:0,0:0:0:0:
387,157,66961,2,0,L|506:159,1,120.000004577637,8|0,0:1|0:0,0:0:0:0:
196,145,67212,6,0,P|277:156|259:299,1,240.000009155274,12|8,0:0|0:1,0:0:0:0:
166,341,67587,1,0,0:0:0:0:
339,349,67712,2,0,L|467:364,1,120.000004577637,8|8,0:0|0:0,0:0:0:0:
393,244,67962,2,0,L|521:229,1,120.000004577637,8|8,0:1|0:0,0:0:0:0:
260,304,68212,6,0,P|315:255|235:125,1,240.000009155274,8|8,0:0|0:1,0:0:0:0:
141,178,68587,1,8,0:0:0:0:
236,215,68712,2,0,L|365:179,1,120.000004577637,0|8,0:0|0:0,0:0:0:0:
133,182,68962,1,8,0:1:0:0:
140,299,69087,2,0,L|76:326,1,60.0000022888184,8|8,0:0|0:0,0:0:0:0:
266,225,69212,6,0,L|395:189,1,120.000004577637,12|8,0:1|0:0,0:0:0:0:
458,114,69462,1,8,0:0:0:0:
363,76,69587,1,4,0:3:0:0:
462,211,69712,1,8,0:0:0:0:
348,329,69837,1,8,0:0:0:0:
377,175,69962,1,8,0:1:0:0:
412,371,70087,1,8,0:0:0:0:
283,371,70212,6,0,B|228:348|228:348|132:355,1,120.000004577637,8|8,0:3|0:3,0:0:0:0:
117,230,70462,2,0,B|164:193|164:193|206:107,1,120.000004577637,4|4,0:3|0:3,0:0:0:0:
322,154,70712,2,0,B|329:213|329:213|383:292,1,120.000004577637,8|8,0:1|0:3,0:0:0:0:
243,265,70962,5,4,0:3:0:0:
363,263,71087,1,4,0:3:0:0:
452,340,71212,6,0,P|443:288|476:221,1,128,12|0,0:0|0:0,0:0:0:0:
474,222,71712,1,8,0:1:0:0:
474,222,71962,2,0,L|478:149,1,64,8|0,0:0|0:0,0:0:0:0:
363,59,72212,5,8,0:0:0:0:
395,181,72337,1,8,0:1:0:0:
458,61,72462,2,0,L|477:0,1,64,0|8,0:0|0:0,0:0:0:0:
363,59,72712,1,8,0:1:0:0:
363,59,72962,2,0,B|320:82|320:82|253:75,1,96,8|0,0:0|0:0,0:0:0:0:
262,74,73212,6,0,L|276:201,1,128,12|0,0:0|0:0,0:0:0:0:
276,201,73712,1,8,0:1:0:0:
276,201,73962,2,0,L|285:286,1,64,8|0,0:0|0:0,0:0:0:0:
199,365,74212,5,8,0:0:0:0:
276,201,74337,2,0,P|331:177|400:197,1,128,8|8,0:1|0:0,0:0:0:0:
200,252,74712,2,0,L|129:257,1,64,8|8,0:1|0:0,0:0:0:0:
276,201,74962,1,8,0:1:0:0:
279,211,75024,1,8,0:1:0:0:
282,218,75087,1,8,0:1:0:0:
254,329,75212,6,0,B|184:351|184:351|58:324,1,192,12|0,0:0|0:0,0:0:0:0:
56,324,75462,2,0,L|46:167,1,128,8|0,0:1|0:0,0:0:0:0:
67,56,75712,2,0,B|83:116|83:116|154:161,1,128,8|8,0:0|0:0,0:0:0:0:
276,122,75962,2,0,P|355:103|390:205,1,192,8|0,0:1|0:0,0:0:0:0:
396,206,76212,6,0,L|400:64,1,128,8|0,0:0|0:0,0:0:0:0:
313,256,76462,2,0,L|316:383,1,128,8|8,0:1|0:0,0:0:0:0:
394,297,76712,1,0,0:0:0:0:
316,175,76837,2,0,B|247:127|204:168|171:168|115:207|52:142,1,256,8|8,0:0|0:0,0:0:0:0:
135,90,77212,6,0,L|136:-25,1,80,12|8,0:1|0:0,0:0:0:0:
194,263,77462,2,0,L|192:342,1,80,8|8,0:1|0:0,0:0:0:0:
256,79,77712,2,0,L|257:-36,1,80,8|8,0:1|0:0,0:0:0:0:
310,267,77962,2,0,L|308:346,1,80,8|8,0:1|0:0,0:0:0:0:
378,205,78212,5,8,0:1:0:0:
284,164,78337,1,8,0:0:0:0:
195,215,78462,2,0,L|191:362,1,128,8|8,0:1|0:0,0:0:0:0:
284,164,78712,2,0,L|287:36,1,128,8|8,0:1|0:0,0:0:0:0:
203,121,78962,1,8,0:1:0:0:
282,262,79087,1,8,0:1:0:0:
365,124,79212,5,12,0:0:0:0:
256,192,79274,12,0,80712,0:0:0:0:
93,231,81212,6,0,L|84:346,1,95.9999970703126,12|0,0:0|0:0,0:0:0:0:
224,203,81462,2,0,L|233:318,1,95.9999970703126,8|0,0:0|0:0,0:0:0:0:
317,124,81712,1,8,0:0:0:0:
203,83,81837,1,0,0:0:0:0:
302,214,81962,2,0,B|371:185|371:185|405:120,1,143.999995605469,8|0,0:0|0:0,0:0:0:0:
404,114,82212,6,0,P|398:191|407:225,1,95.9999970703126,8|0,0:0|0:0,0:0:0:0:
488,348,82462,2,0,P|493:300|485:253,1,95.9999970703126,8|0,0:0|0:0,0:0:0:0:
306,298,82712,2,0,L|402:303,1,95.9999970703126,10|0,0:0|0:0,0:0:0:0:
227,233,82962,2,0,L|132:238,1,95.9999970703126,10|0,0:0|0:0,0:0:0:0:
285,313,83212,5,8,0:0:0:0:
380,305,83337,1,0,0:0:0:0:
428,222,83462,2,0,B|419:173|419:173|380:124,1,95.9999970703126,8|0,0:0|0:0,0:0:0:0:
318,72,83712,2,0,P|226:102|124:72,1,191.999994140625,8|8,0:0|0:0,0:0:0:0:
136,79,84212,5,8,0:0:0:0:
56,132,84337,1,0,0:0:0:0:
136,79,84462,1,8,0:0:0:0:
119,220,84587,1,8,0:0:0:0:
119,220,84649,1,8,0:0:0:0:
119,220,84712,1,8,0:1:0:0:
56,132,84837,5,8,0:3:0:0:
186,179,84962,2,0,L|288:195,1,95.9999970703126,4|8,0:3|0:0,0:0:0:0:
405,181,85212,6,0,B|419:276|419:276|376:361,1,191.999994140625,12|0,0:1|0:0,0:0:0:0:
339,147,85587,2,0,L|353:102,1,47.9999985351563,8|0,0:0|0:0,0:0:0:0:
479,150,85712,2,0,L|498:248,2,95.9999970703126,8|0|0,0:1|0:0|0:0,0:0:0:0:
264,33,86212,6,0,L|136:40,1,95.9999970703126,8|8,0:0|0:1,0:0:0:0:
4,102,86462,2,0,L|132:109,1,95.9999970703126,0|8,0:0|0:0,0:0:0:0:
198,236,86712,1,8,0:1:0:0:
107,203,86837,1,0,0:0:0:0:
35,266,86962,2,0,L|60:371,1,95.9999970703126,0|8,0:0|0:0,0:0:0:0:
198,236,87212,6,0,L|175:142,2,95.9999970703126,12|8|0,0:1|0:0|0:0,0:0:0:0:
260,308,87587,1,8,0:0:0:0:
339,253,87712,2,0,P|425:241|468:350,1,191.999994140625,8|0,0:1|0:0,0:0:0:0:
474,321,88212,6,0,L|471:204,1,95.9999970703126,10|10,0:1|0:0,0:0:0:0:
412,149,88462,2,0,L|409:32,1,95.9999970703126,4|4,0:3|0:3,0:0:0:0:
505,140,88712,1,8,0:1:0:0:
374,228,88837,1,8,0:0:0:0:
294,102,88962,2,0,P|174:70|119:117,1,191.999994140625,12|0,0:1|2:0,0:0:0:0:
