osu file format v14

[General]
AudioFilename: audio.mp3
AudioLeadIn: 0
PreviewTime: 55087
Countdown: 0
SampleSet: None
StackLeniency: 0.3
Mode: 0
LetterboxInBreaks: 0
WidescreenStoryboard: 0

[Editor]
DistanceSpacing: 0.4
BeatDivisor: 4
GridSize: 32
TimelineZoom: 3.399999

[Metadata]
Title:Los! Los! Los!
TitleUnicode:Los! Los! Los!
Artist:Tanya Degurechaff (CV: Yuki Aoi)
ArtistUnicode:ターニャ・デグレチャフ(CV:悠木碧)
Creator:Logic Agent
Version:Lasse's Extra
Source:幼女戦記
Tags:Youjo Senki Saga of Tanya the Evil ED ending TV Size yuuki losloslos Akitoshi Xinely Kalibe Mun pkhg Plaudible Hobbes2 Lasse
BeatmapID:1587090
BeatmapSetID:570679

[Difficulty]
HPDrainRate:6
CircleSize:3.8
OverallDifficulty:9
ApproachRate:9.4
SliderMultiplier:1.76
SliderTickRate:1

[Events]
//Background and Video events
0,0,"792738.jpg",0,0
Video,592,"ed.avi"
//Break Periods
//Storyboard Layer 0 (Background)
//Storyboard Layer 1 (Fail)
//Storyboard Layer 2 (Pass)
//Storyboard Layer 3 (Foreground)
//Storyboard Sound Samples

[TimingPoints]
1212,250,4,2,10,40,1,0
1212,-125,4,2,10,40,0,0
1462,-125,4,2,10,40,0,0
4837,-200,4,2,10,40,0,0
5149,-200,4,2,10,40,0,0
5212,-111.111111111111,4,2,10,50,0,0
5399,-111.111111111111,4,2,10,50,0,0
5462,-111.111111111111,4,2,10,50,0,0
5649,-111.111111111111,4,2,10,50,0,0
5712,-111.111111111111,4,2,10,50,0,0
6149,-111.111111111111,4,2,10,50,0,0
6212,-111.111111111111,4,2,10,50,0,0
6399,-111.111111111111,4,2,10,50,0,0
6462,-111.111111111111,4,2,10,50,0,0
6649,-111.111111111111,4,2,10,50,0,0
6712,-111.111111111111,4,2,10,50,0,0
6899,-111.111111111111,4,2,10,50,0,0
6962,-111.111111111111,4,2,10,50,0,0
7149,-111.111111111111,4,2,10,50,0,0
7212,-111.111111111111,4,2,10,53,0,0
7649,-111.111111111111,4,2,10,53,0,0
7712,-111.111111111111,4,2,10,53,0,0
7899,-111.111111111111,4,2,10,53,0,0
7962,-111.111111111111,4,2,10,53,0,0
8149,-111.111111111111,4,2,10,53,0,0
8212,-111.111111111111,4,2,10,53,0,0
8649,-111.111111111111,4,2,10,53,0,0
8712,-111.111111111111,4,2,10,53,0,0
9212,-99.9999999999999,4,2,10,55,0,0
11212,-99.9999999999999,4,2,10,57,0,0
13212,-90.9090909090909,4,2,10,60,0,0
13399,-90.9090909090909,4,2,10,60,0,0
13462,-90.9090909090909,4,2,10,60,0,0
14399,-90.9090909090909,4,2,10,60,0,0
14462,-90.9090909090909,4,2,10,60,0,0
15399,-90.9090909090909,4,2,10,60,0,0
15462,-90.9090909090909,4,2,10,60,0,0
17212,-100,4,2,10,60,0,0
21212,-111.111111111111,4,2,10,50,0,0
21399,-111.111111111111,4,2,10,50,0,0
21462,-111.111111111111,4,2,10,50,0,0
21649,-111.111111111111,4,2,10,50,0,0
21712,-111.111111111111,4,2,10,50,0,0
22149,-111.111111111111,4,2,10,50,0,0
22212,-111.111111111111,4,2,10,50,0,0
22399,-111.111111111111,4,2,10,50,0,0
22462,-111.111111111111,4,2,10,50,0,0
22649,-111.111111111111,4,2,10,50,0,0
22712,-111.111111111111,4,2,10,50,0,0
22899,-111.111111111111,4,2,10,50,0,0
22962,-111.111111111111,4,2,10,50,0,0
23212,-99.9999999999999,4,2,10,55,0,0
25212,-125,4,2,10,55,0,0
25649,-125,4,2,10,55,0,0
25712,-125,4,2,10,55,0,0
27149,-125,4,2,10,55,0,0
27212,-125,4,2,10,55,0,0
27649,-125,4,2,10,55,0,0
27712,-125,4,2,10,55,0,0
29649,-125,4,2,10,55,0,0
29712,-125,4,2,10,55,0,0
31149,-125,4,2,10,55,0,0
31212,-125,4,2,10,55,0,0
31649,-125,4,2,10,55,0,0
31712,-125,4,2,10,55,0,0
33212,-142.857142857143,4,2,10,50,0,0
37087,-111.111111111111,4,2,10,50,0,0
37212,-111.111111111111,4,2,10,60,0,0
37399,-111.111111111111,4,2,10,60,0,0
37462,-111.111111111111,4,2,10,60,0,0
37649,-111.111111111111,4,2,10,60,0,0
37712,-111.111111111111,4,2,10,60,0,0
38399,-111.111111111111,4,2,10,60,0,0
38462,-111.111111111111,4,2,10,60,0,0
39649,-111.111111111111,4,2,10,60,0,0
39712,-111.111111111111,4,2,10,60,0,0
41212,-125,4,2,10,50,0,0
41399,-125,4,2,10,50,0,0
41462,-125,4,2,10,50,0,0
41649,-125,4,2,10,50,0,0
41712,-125,4,2,10,50,0,0
41899,-125,4,2,10,50,0,0
41962,-125,4,2,10,50,0,0
42149,-125,4,2,10,50,0,0
42212,-125,4,2,10,50,0,0
42399,-125,4,2,10,50,0,0
42462,-125,4,2,10,50,0,0
42899,-125,4,2,10,50,0,0
42962,-125,4,2,10,50,0,0
43149,-125,4,2,10,50,0,0
43212,-125,4,2,10,50,0,0
45212,-142.857142857143,4,2,10,60,0,0
49212,-125,4,2,10,60,0,0
51212,-125,4,2,10,60,0,0
51712,-71.4285714285714,4,2,10,60,0,0
52212,-58.8235294117647,4,2,10,70,0,0
52712,-50,4,2,10,70,0,0
53212,-50,4,2,10,60,0,0
53295,-50,4,2,10,5,0,0
54212,-50,4,2,10,60,0,0
54712,-111.111111111111,4,2,10,50,0,0
54962,-111.111111111111,4,2,10,50,0,0
55212,-83.3333333333333,4,2,10,70,0,1
55399,-83.3333333333333,4,2,10,70,0,1
55462,-83.3333333333333,4,2,10,70,0,1
56399,-83.3333333333333,4,2,10,70,0,1
56462,-83.3333333333333,4,2,10,70,0,1
57399,-83.3333333333333,4,2,10,70,0,1
57462,-83.3333333333333,4,2,10,70,0,1
59399,-83.3333333333333,4,2,10,70,0,1
59462,-83.3333333333333,4,2,10,70,0,1
61212,-66.6666666666667,4,2,10,70,0,1
62212,-66.6666666666667,4,2,10,70,0,1
62712,-90.9090909090909,4,2,10,70,0,0
63149,-90.9090909090909,4,2,10,70,0,0
63212,-83.3333333333333,4,2,10,70,0,1
63399,-83.3333333333333,4,2,10,70,0,1
63462,-83.3333333333333,4,2,10,70,0,1
64399,-83.3333333333333,4,2,10,70,0,1
64462,-83.3333333333333,4,2,10,70,0,1
65399,-83.3333333333333,4,2,10,70,0,1
65462,-83.3333333333333,4,2,10,70,0,1
67399,-83.3333333333333,4,2,10,70,0,1
67462,-83.3333333333333,4,2,10,70,0,1
69212,-66.6666666666667,4,2,10,70,0,1
71212,-125,4,2,10,60,0,0
75212,-100,4,2,10,70,0,0
77212,-83.3333333333333,4,2,10,70,0,1
79212,-83.3333333333333,4,2,10,70,0,1
80712,-181.818181818182,4,2,10,70,0,1
80774,-166.666666666667,4,2,10,20,0,1
81149,-166.666666666667,4,2,10,70,0,1
81212,-100,4,2,10,60,0,0
85212,-90.9090909090909,4,2,10,60,0,0
85399,-90.9090909090909,4,2,10,60,0,0
85462,-90.9090909090909,4,2,10,60,0,0
87212,-83.3333333333333,4,2,10,60,0,0
88712,-83.3333333333333,4,2,10,60,0,0
88962,-1000,4,2,10,60,0,0
89024,-1000,4,2,10,5,0,0

[Colours]
Combo1 : 195,195,195
Combo2 : 255,91,104
Combo3 : 253,181,72
Combo4 : 188,129,114

[HitObjects]
67,79,1212,6,0,B|145:65|129:116|202:97,1,140.8,6|0,0:0|0:0,0:0:0:0:
337,56,1712,1,2,0:0:0:0:
417,171,1962,1,2,0:0:0:0:
183,286,2212,6,0,P|176:251|183:214,1,70.4,2|0,0:0|0:0,0:0:0:0:
328,286,2462,2,0,P|335:251|330:217,1,70.4,0|0,0:0|0:0,0:0:0:0:
256,119,2712,1,2,0:0:0:0:
256,343,2962,1,2,0:0:0:0:
406,123,3212,6,0,B|428:78|411:22|411:22|385:61,1,140.8,2|0,0:0|0:0,0:0:0:0:
256,119,3712,1,2,0:0:0:0:
122,52,3962,1,2,0:0:0:0:
64,247,4212,5,2,0:0:0:0:
448,247,4462,1,2,0:0:0:0:
256,343,4712,1,2,0:0:0:0:
256,343,4837,1,0,0:0:0:0:
256,343,4962,2,0,L|256:273,1,66,2|0,0:0|0:0,0:0:0:0:
307,176,5212,6,0,P|248:178|196:151,1,118.799996374512,12|0,0:0|0:0,0:0:0:0:
372,121,5462,2,0,P|332:164|276:182,1,118.799996374512,8|0,0:0|0:0,0:0:0:0:
379,36,5712,1,8,0:0:0:0:
379,36,5837,1,0,0:0:0:0:
379,36,5962,2,0,P|381:94|354:146,1,118.799996374512,8|0,0:0|0:0,0:0:0:0:
464,121,6212,6,0,P|406:119|354:146,1,118.799996374512,8|0,0:0|0:0,0:0:0:0:
404,217,6462,2,0,P|421:160|464:120,1,118.799996374512,8|0,0:0|0:0,0:0:0:0:
503,271,6712,2,0,P|445:257|403:216,1,118.799996374512,10|0,0:0|0:0,0:0:0:0:
402,324,6962,2,0,P|459:310|502:271,1,118.799996374512,8|0,0:0|0:0,0:0:0:0:
410,225,7212,5,12,0:0:0:0:
410,225,7337,1,0,0:0:0:0:
410,225,7462,2,0,P|354:243|297:230,1,118.799996374512,8|0,0:0|0:0,0:0:0:0:
236,134,7712,2,0,P|279:173|296:229,1,118.799996374512,8|0,0:0|0:0,0:0:0:0:
244,330,7962,2,0,P|256:272|296:229,1,118.799996374512,8|0,0:0|0:0,0:0:0:0:
347,129,8212,5,8,0:0:0:0:
347,129,8337,1,0,0:0:0:0:
347,129,8462,2,0,P|335:187|295:230,1,118.799996374512,8|0,0:0|0:0,0:0:0:0:
236,134,8712,5,10,0:0:0:0:
342,18,8837,1,0,0:0:0:0:
347,129,8962,1,10,0:0:0:0:
231,23,9087,1,0,0:0:0:0:
347,129,9212,6,0,P|404:130|459:126,1,88,12|0,0:0|0:0,0:0:0:0:
231,23,9462,2,0,P|174:22|119:26,1,88,8|0,0:0|0:0,0:0:0:0:
66,183,9712,5,8,0:0:0:0:
236,134,9837,1,0,0:0:0:0:
66,183,9962,2,0,P|65:240|69:295,1,88,8|0,1:2|0:0,0:0:0:0:
364,329,10212,6,0,P|404:312|448:304,1,88,8|0,1:2|0:0,0:0:0:0:
150,295,10462,2,0,P|109:278|65:270,1,88,8|0,1:2|0:0,0:0:0:0:
347,129,10712,6,0,P|387:112|431:104,1,88,10|0,0:0|0:0,0:0:0:0:
137,83,10962,1,12,0:1:0:0:
137,83,11212,5,4,0:0:0:0:
254,214,11337,1,0,0:0:0:0:
82,176,11462,1,0,0:0:0:0:
243,105,11587,1,8,0:1:0:0:
154,257,11712,5,8,0:0:0:0:
243,105,11837,1,8,0:1:0:0:
82,176,11962,1,8,0:1:0:0:
254,214,12087,1,8,0:0:0:0:
425,362,12212,6,0,P|409:348|398:329,1,44,8|8,0:1|0:0,0:0:0:0:
248,343,12337,2,0,P|269:336|291:336,1,44,8|8,0:1|0:0,0:0:0:0:
354,199,12462,2,0,P|349:220|338:239,3,44,8|0|8|0,0:1|0:0|0:0|0:0,0:0:0:0:
263,183,12712,5,2,0:2:0:0:
275,146,12774,1,10,0:2:0:0:
301,118,12837,1,10,0:2:0:0:
335,102,12899,1,10,0:2:0:0:
373,101,12962,1,10,0:2:0:0:
409,114,13024,1,2,2:2:0:0:
437,141,13087,1,2,0:2:0:0:
451,176,13149,1,2,2:2:0:0:
450,213,13212,6,0,P|438:163|451:50,1,145.200004431152,12|0,0:0|0:0,0:0:0:0:
512,22,13462,2,0,P|490:63|444:70,1,96.8000029541017,8|0,0:1|0:0,0:0:0:0:
408,295,13712,2,0,P|361:296|332:260,1,96.8000029541017,8|8,0:0|0:0,0:0:0:0:
119,341,13962,2,0,P|94:301|111:258,1,96.8000029541017,8|0,0:1|0:0,0:0:0:0:
443,69,14212,6,0,B|368:95|368:43|292:59,1,145.200004431152,8|0,0:0|0:0,0:0:0:0:
211,95,14462,1,8,0:1:0:0:
211,95,14587,1,8,0:0:0:0:
337,263,14712,1,0,0:0:0:0:
324,141,14837,1,8,0:0:0:0:
287,356,14962,2,0,P|333:368|380:357,1,96.8000029541017,8|0,0:1|0:0,0:0:0:0:
463,145,15212,6,0,B|365:123|365:123|310:147,1,145.200004431152,8|0,0:0|0:0,0:0:0:0:
255,209,15462,2,0,B|208:222|208:222|140:200,1,96.8000029541017,8|0,0:1|0:0,0:0:0:0:
291,360,15712,1,8,0:0:0:0:
291,360,15837,1,8,0:0:0:0:
162,207,15962,2,0,B|115:194|115:194|47:216,1,96.8000029541017,8|0,0:1|0:0,0:0:0:0:
283,18,16212,6,0,P|361:71|453:48,1,193.600005908203,8|8,0:0|0:1,0:0:0:0:
452,48,16587,1,8,0:0:0:0:
512,244,16712,2,0,P|472:222|413:216,1,96.8000029541017,0|8,0:0|0:0,0:0:0:0:
294,364,16962,1,8,0:1:0:0:
294,364,17087,1,8,0:0:0:0:
243,196,17212,5,12,0:1:0:0:
373,307,17337,1,8,0:0:0:0:
242,196,17462,1,8,0:0:0:0:
294,364,17587,5,12,0:1:0:0:
342,164,17712,1,8,0:0:0:0:
294,364,17837,1,8,0:0:0:0:
169,245,17962,6,0,P|117:231|56:238,1,88,12|8,0:1|0:0,0:0:0:0:
108,359,18212,1,8,0:0:0:0:
242,196,18337,2,0,P|256:144|249:83,2,88,12|0|8,0:1|0:0|0:0,0:0:0:0:
108,359,18712,5,12,0:1:0:0:
83,231,18837,1,8,0:0:0:0:
361,308,18962,1,12,0:1:0:0:
336,180,19087,1,8,0:0:0:0:
108,359,19212,6,0,P|54:359|-2:336,1,88,12|0,0:1|0:0,0:0:0:0:
336,180,19462,2,0,P|389:179|446:202,1,88,8|8,0:0|0:1,0:0:0:0:
206,28,19712,5,8,0:0:0:0:
206,28,19837,1,8,0:0:0:0:
83,231,19962,2,0,P|31:238|-11:241,1,88,4|0,0:3|0:0,0:0:0:0:
297,86,20212,5,8,0:1:0:0:
30,136,20337,1,8,0:0:0:0:
297,86,20462,1,8,0:3:0:0:
83,231,20587,5,8,0:3:0:0:
297,86,20712,2,0,P|349:79|392:75,1,88,4|4,0:3|0:3,0:0:0:0:
90,36,20962,2,0,P|38:29|-5:25,1,88,4|8,0:3|0:0,0:0:0:0:
83,231,21212,6,0,P|142:233|180:184,1,118.799996374512,12|0,0:0|0:0,0:0:0:0:
128,336,21462,2,0,P|159:285|135:228,1,118.799996374512,8|0,0:0|0:0,0:0:0:0:
241,349,21712,1,8,0:0:0:0:
241,349,21837,1,0,0:0:0:0:
241,349,21962,2,0,P|213:296|151:288,1,118.799996374512,8|0,0:0|0:0,0:0:0:0:
241,349,22212,6,0,P|294:321|302:259,1,118.799996374512,8|0,0:0|0:0,0:0:0:0:
265,171,22462,2,0,P|262:230|312:268,1,118.799996374512,8|0,0:0|0:0,0:0:0:0:
265,171,22712,2,0,P|239:119|183:107,1,118.799996374512,10|0,0:0|0:0,0:0:0:0:
127,184,22962,1,8,0:0:0:0:
127,184,23212,5,12,0:0:0:0:
290,64,23337,1,8,0:0:0:0:
304,266,23462,2,0,L|299:372,1,88,8|8,0:1|0:0,0:0:0:0:
127,184,23712,2,0,L|37:126,1,88,0|0,0:0|0:0,0:0:0:0:
290,64,23962,2,0,L|384:15,1,88,0|0,0:0|0:0,0:0:0:0:
458,185,24212,5,8,0:0:0:0:
367,22,24337,1,8,0:1:0:0:
304,266,24462,2,0,P|242:264|200:242,1,88,0|0,0:0|0:0,0:0:0:0:
294,68,24712,5,8,0:1:0:0:
294,68,24837,1,8,0:0:0:0:
383,233,24962,2,0,P|328:262|280:264,1,88,8|0,0:1|0:0,0:0:0:0:
129,151,25212,6,0,P|162:138|197:141,1,70.4,12|0,0:0|0:0,0:0:0:0:
59,228,25462,2,0,P|32:184|29:132,1,105.6,8|0,0:1|0:0,0:0:0:0:
129,151,25712,2,0,P|163:153|196:140,1,70.4,8|8,0:0|0:1,0:0:0:0:
383,233,25962,2,0,P|348:230|315:243,1,70.4,0|8,0:0|0:0,0:0:0:0:
163,370,26212,5,8,0:1:0:0:
163,370,26462,1,0,0:0:0:0:
72,271,26587,2,0,P|132:238|217:250,1,140.8,8|8,0:0|0:0,0:0:0:0:
51,174,26962,2,0,P|82:216|129:239,1,105.6,8|0,0:1|0:0,0:0:0:0:
149,136,27212,6,0,P|150:100|153:66,1,70.4,8|0,0:0|0:0,0:0:0:0:
307,117,27462,2,0,B|359:136|357:106|426:120,1,105.6,8|0,0:1|0:0,0:0:0:0:
405,187,27712,2,0,P|406:151|410:116,1,70.4,8|8,0:0|0:1,0:0:0:0:
319,274,27962,2,0,P|318:215|314:180,1,70.4,0|8,0:0|0:0,0:0:0:0:
129,239,28212,6,0,P|130:298|134:333,2,70.4,8|0|0,0:1|0:0|0:0,0:0:0:0:
307,117,28587,1,8,0:0:0:0:
319,274,28712,2,0,P|321:309|321:344,1,70.4,0|8,0:0|0:0,0:0:0:0:
193,141,28962,1,8,0:1:0:0:
193,141,29212,6,0,P|190:105|191:70,1,70.4,12|0,0:0|0:0,0:0:0:0:
129,239,29462,2,0,P|122:194|102:107,1,105.6,8|0,0:1|0:0,0:0:0:0:
40,141,29712,2,0,P|75:145|109:135,1,70.4,8|8,0:0|0:1,0:0:0:0:
379,40,29962,2,0,P|344:35|310:45,1,70.4,0|8,0:0|0:0,0:0:0:0:
323,276,30212,5,8,0:1:0:0:
413,155,30337,2,0,P|386:134|352:126,1,70.4,8|0,0:0|0:0,0:0:0:0:
189,254,30587,2,0,B|267:242|249:295|325:276,1,140.8,8|8,0:0|0:0,0:0:0:0:
171,350,30962,2,0,P|163:299|189:254,1,105.6,8|0,0:1|0:0,0:0:0:0:
222,176,31212,6,0,P|228:141|219:107,1,70.4,12|8,0:0|0:0,0:0:0:0:
323,276,31462,2,0,P|325:223|346:155,1,105.6,8|0,0:1|0:0,0:0:0:0:
401,120,31712,2,0,P|407:85|398:51,1,70.4,8|8,0:0|0:1,0:0:0:0:
219,107,31962,2,0,P|210:73|217:39,1,70.4,0|8,0:0|0:1,0:0:0:0:
322,276,32212,6,0,P|358:276|392:284,2,70.4,8|8|0,0:0|0:1|0:0,0:0:0:0:
155,348,32587,2,0,P|119:347|85:339,1,70.4,8|0,0:1|0:0,0:0:0:0:
94,87,32837,5,4,0:3:0:0:
135,205,32962,1,4,0:3:0:0:
217,110,33087,1,4,0:3:0:0:
13,182,33212,5,12,0:0:0:0:
13,182,33462,5,8,0:0:0:0:
94,87,33587,1,8,0:0:0:0:
135,205,33712,1,8,0:1:0:0:
135,205,33962,5,8,0:0:0:0:
135,205,34212,6,0,P|175:198|220:203,1,61.5999981201172,8|0,0:0|0:0,0:0:0:0:
94,87,34462,1,8,0:0:0:0:
195,198,34587,2,0,P|225:204|255:204,1,61.5999981201172,8|8,0:0|0:1,0:0:0:0:
377,70,34837,2,0,P|346:63|316:63,2,61.5999981201172,0|8|8,0:0|0:0|0:3,0:0:0:0:
465,157,35212,5,8,0:0:0:0:
377,70,35337,1,8,0:1:0:0:
340,192,35462,1,0,0:0:0:0:
340,192,35712,5,8,0:1:0:0:
377,70,35837,1,8,0:0:0:0:
465,157,35962,1,0,0:0:0:0:
465,157,36212,6,0,B|477:256|477:256|457:233,1,123.199996240234,8|8,0:0|0:0,0:0:0:0:
340,192,36587,2,0,P|309:191|279:198,1,61.5999981201172,4|8,0:3|0:1,0:0:0:0:
176,302,36837,1,8,0:0:0:0:
176,302,36899,1,8,0:1:0:0:
176,302,36962,1,8,0:1:0:0:
161,133,37087,1,8,0:1:0:0:
279,197,37212,6,0,P|298:141|286:84,1,118.799996374512,12|0,0:0|0:0,0:0:0:0:
185,36,37462,2,0,P|228:75|286:84,1,118.799996374512,8|0,0:1|0:0,0:0:0:0:
391,27,37712,1,8,0:0:0:0:
391,27,37837,1,8,0:0:0:0:
357,199,37962,2,0,P|313:203|274:195,1,79.1999975830079,8|0,0:1|0:0,0:0:0:0:
84,206,38212,6,0,P|141:215|185:254,1,118.799996374512,8|0,0:0|0:0,0:0:0:0:
84,206,38462,2,0,P|68:164|66:125,1,79.1999975830079,8|8,0:1|0:0,0:0:0:0:
85,375,38712,2,0,P|99:338|102:299,1,79.1999975830079,0|8,0:0|0:0,0:0:0:0:
83,54,38962,2,0,P|68:90|65:130,1,79.1999975830079,8|0,0:1|0:0,0:0:0:0:
189,258,39212,5,8,0:0:0:0:
189,258,39337,1,0,0:0:0:0:
326,152,39462,2,0,P|346:96|332:39,1,118.799996374512,8|0,0:1|0:0,0:0:0:0:
326,152,39712,2,0,P|363:166|402:168,1,79.1999975830079,8|8,0:0|0:0,0:0:0:0:
498,315,39962,2,0,P|461:301|422:298,1,79.1999975830079,8|8,0:1|0:0,0:0:0:0:
352,337,40149,1,8,0:0:0:0:
335,347,40212,6,0,P|294:349|256:342,1,79.1999975830079,12|8,0:1|0:0,0:0:0:0:
247,148,40462,1,8,0:0:0:0:
247,148,40587,2,0,P|288:145|326:152,1,79.1999975830079,4|8,0:3|0:1,0:0:0:0:
421,298,40837,1,8,0:1:0:0:
325,151,40962,1,8,0:1:0:0:
256,342,41087,1,8,0:1:0:0:
135,179,41212,6,0,P|130:128|150:79,1,105.6,12|0,0:0|0:0,0:0:0:0:
135,179,41462,2,0,P|94:211|72:259,1,105.6,8|0,0:0|0:0,0:0:0:0:
173,273,41712,2,0,P|165:221|134:178,1,105.6,8|0,0:0|0:0,0:0:0:0:
150,78,41962,2,0,P|154:130|134:178,1,105.6,8|0,0:0|0:0,0:0:0:0:
72,258,42212,6,0,P|93:211|135:179,1,105.6,8|0,0:0|0:0,0:0:0:0:
229,171,42462,1,8,0:0:0:0:
229,171,42587,1,0,0:0:0:0:
267,310,42712,2,0,P|224:279|172:272,1,105.6,8|0,0:0|0:0,0:0:0:0:
267,310,42962,2,0,P|309:340|361:347,1,105.6,8|0,0:0|0:0,0:0:0:0:
432,257,43212,6,0,P|443:223|440:188,1,70.4,12|0,0:0|0:0,0:0:0:0:
400,117,43399,1,8,0:0:0:0:
389,103,43462,2,0,P|378:69|381:34,1,70.4,8|0,0:0|0:0,0:0:0:0:
297,179,43712,2,0,P|263:168|228:171,1,70.4,8|0,0:0|0:0,0:0:0:0:
432,257,43962,2,0,P|466:268|501:265,1,70.4,8|0,0:0|0:0,0:0:0:0:
228,170,44212,6,0,P|217:204|220:239,1,70.4,8|0,0:0|0:0,0:0:0:0:
423,325,44462,1,8,0:0:0:0:
423,325,44587,2,0,P|434:291|431:256,1,70.4,0|8,0:0|0:1,0:0:0:0:
219,238,44837,1,8,0:1:0:0:
203,245,44899,1,0,0:0:0:0:
186,252,44962,2,0,P|150:253|117:241,1,70.4,8|8,0:1|0:1,0:0:0:0:
163,87,45212,6,0,P|166:117|168:148,1,61.5999981201172,12|0,0:0|0:0,0:0:0:0:
254,26,45462,2,0,P|251:56|249:87,1,61.5999981201172,8|0,0:1|0:0,0:0:0:0:
91,37,45712,1,8,0:0:0:0:
91,37,45837,1,0,0:0:0:0:
168,148,45962,2,0,P|166:117|162:86,1,61.5999981201172,8|0,0:1|0:0,0:0:0:0:
219,238,46212,6,0,P|249:239|280:243,1,61.5999981201172,8|8,0:0|0:0,0:0:0:0:
168,148,46462,1,8,0:1:0:0:
280,243,46587,2,0,P|347:250|419:242,1,123.199996240234,8|8,0:0|0:0,0:0:0:0:
261,340,46962,1,8,0:1:0:0:
261,340,47087,1,8,0:0:0:0:
402,245,47212,6,0,P|407:207|406:175,1,61.5999981201172,8|8,0:0|0:0,0:0:0:0:
248,87,47462,2,0,P|243:125|244:157,1,61.5999981201172,8|0,0:1|0:0,0:0:0:0:
264,344,47712,1,8,0:0:0:0:
264,344,47837,1,8,0:0:0:0:
402,245,47962,2,0,P|432:245|463:249,1,61.5999981201172,8|8,0:1|0:0,0:0:0:0:
264,344,48212,6,0,P|233:343|202:339,1,61.5999981201172,8|0,0:1|0:0,0:0:0:0:
66,302,48462,2,0,P|41:306|11:311,2,41.0666654134115,8|8|0,0:1|0:3|0:0,0:0:0:0:
119,233,48712,2,0,P|122:202|122:171,1,61.5999981201172,8|8,0:1|0:3,0:0:0:0:
25,308,48962,2,0,P|21:338|21:369,1,61.5999981201172,4|4,0:3|0:3,0:0:0:0:
190,184,49212,6,0,P|156:175|121:171,1,70.4,12|8,0:1|0:0,0:0:0:0:
279,124,49462,1,0,0:0:0:0:
279,124,49587,1,8,0:0:0:0:
121,171,49712,2,0,P|86:166|51:158,1,70.4,12|8,0:1|0:0,0:0:0:0:
279,124,49962,2,0,P|314:129|349:137,1,70.4,0|8,0:0|0:0,0:0:0:0:
174,57,50212,5,12,0:1:0:0:
120,171,50338,2,0,P|116:205|115:241,1,70.4,8|0,0:0|0:0,0:0:0:0:
279,124,50587,1,8,0:0:0:0:
332,238,50713,2,0,P|336:272|337:308,1,70.4,12|8,0:1|0:0,0:0:0:0:
120,311,50962,2,0,P|115:276|114:240,1,70.4,0|8,0:0|0:0,0:0:0:0:
174,57,51212,6,0,P|214:116|287:121,1,140.8,12|0,0:1|0:0,0:0:0:0:
379,67,51712,6,0,P|279:125|302:238,1,246.399992480469,12|0,0:1|0:0,0:0:0:0:
279,368,52212,6,0,P|321:295|155:248,1,299.200005706787,12|0,0:1|0:0,0:0:0:0:
23,223,52712,6,0,P|170:228|108:94,1,352,12|0,0:1|0:0,0:0:0:0:
97,180,53212,5,2,0:0:0:0:
256,192,53274,12,8,54212,0:0:0:0:
44,105,54712,5,2,0:2:0:0:
116,62,54795,1,2,0:2:0:0:
197,82,54878,1,2,0:2:0:0:
240,153,54962,5,2,0:2:0:0:
320,172,55045,1,2,0:2:0:0:
390,128,55128,1,2,0:2:0:0:
314,158,55212,6,0,P|309:246|310:338,1,158.399995166016,12|0,0:0|0:0,0:0:0:0:
411,333,55462,2,0,P|356:316|303:317,1,105.599996777344,8|0,0:1|0:0,0:0:0:0:
51,331,55712,5,8,0:0:0:0:
128,226,55837,1,8,0:0:0:0:
309,316,55962,2,0,P|359:332|411:332,1,105.599996777344,8|0,0:1|0:0,0:0:0:0:
418,48,56212,6,0,B|340:29|342:89|265:61,1,158.399995166016,8|0,0:0|0:0,0:0:0:0:
265,61,56462,1,8,0:1:0:0:
390,128,56587,1,8,0:0:0:0:
128,226,56712,6,0,L|121:120,1,105.599996777344,0|8,0:0|0:0,0:0:0:0:
309,316,56962,2,0,L|315:210,1,105.599996777344,8|0,0:1|0:0,0:0:0:0:
64,71,57212,6,0,P|124:121|202:103,1,158.399995166016,8|0,0:0|0:0,0:0:0:0:
205,4,57462,2,0,P|189:53|198:109,1,105.599996777344,8|0,0:1|0:0,0:0:0:0:
399,268,57712,6,0,P|364:229|310:209,1,105.599996777344,8|8,0:0|0:0,0:0:0:0:
73,305,57962,2,0,P|123:294|167:257,1,105.599996777344,8|0,0:1|0:0,0:0:0:0:
465,352,58212,6,0,P|407:302|453:182,1,211.199993554688,8|8,0:0|0:1,0:0:0:0:
443,186,58587,1,8,0:0:0:0:
301,113,58712,6,0,L|173:104,1,105.599996777344,0|8,0:0|0:0,0:0:0:0:
359,344,58962,2,0,L|486:352,1,105.599996777344,8|0,0:1|0:0,0:0:0:0:
339,46,59212,6,0,B|308:77|308:77|287:206,1,158.399995166016,12|0,0:0|0:0,0:0:0:0:
271,292,59462,2,0,B|287:246|287:246|289:183,1,105.599996777344,8|0,0:1|0:0,0:0:0:0:
129,37,59712,5,8,0:0:0:0:
129,37,59837,1,8,0:0:0:0:
133,285,59962,2,0,B|117:239|117:239|115:182,1,105.599996777344,8|0,0:1|0:0,0:0:0:0:
376,101,60212,6,0,B|325:95|325:95|224:125|224:125|171:117,1,211.199993554688,8|8,0:0|0:1,0:0:0:0:
171,117,60587,1,8,0:0:0:0:
376,101,60712,6,0,L|497:116,1,105.599996777344,0|8,0:0|0:0,0:0:0:0:
217,40,60962,1,8,0:1:0:0:
325,179,61087,1,8,0:0:0:0:
133,285,61212,6,0,P|80:312|26:267,1,132.000005035401,12|8,0:1|0:0,0:0:0:0:
376,101,61462,2,0,P|429:74|483:119,1,132.000005035401,8|12,0:0|0:1,0:0:0:0:
432,384,61712,5,8,0:0:0:0:
325,179,61837,1,8,0:0:0:0:
500,295,61962,5,8,0:1:0:0:
256,266,62087,1,8,0:0:0:0:
481,113,62212,5,8,0:1:0:0:
483,105,62274,1,8,0:0:0:0:
485,97,62337,1,8,0:0:0:0:
485,88,62399,1,8,0:0:0:0:
485,80,62462,1,8,0:3:0:0:
485,72,62524,1,8,0:0:0:0:
485,64,62587,1,4,0:3:0:0:
485,55,62649,1,8,0:0:0:0:
486,47,62712,5,8,0:1:0:0:
452,59,62774,1,8,0:1:0:0:
415,62,62837,1,8,0:1:0:0:
380,57,62899,1,8,0:1:0:0:
345,45,62962,6,2,B|321:38|288:56|288:56|285:40|285:40|252:62|218:52,1,145.200004431152,8|0,0:1|0:0,0:1:0:0:
128,5,63212,6,0,B|98:85|146:80|118:160,1,158.399995166016,12|0,0:0|0:0,0:0:0:0:
15,177,63462,2,0,P|70:160|123:161,1,105.599996777344,8|0,0:1|0:0,0:0:0:0:
347,267,63712,5,8,0:0:0:0:
297,157,63837,1,8,0:0:0:0:
120,288,63962,2,0,P|67:287|17:271,1,105.599996777344,8|0,0:1|0:0,0:0:0:0:
267,69,64212,6,0,B|329:55|371:101|371:101|401:100|430:86,1,158.399995166016,8|0,0:0|0:0,0:0:0:0:
413,92,64462,1,8,0:1:0:0:
297,157,64587,1,8,0:0:0:0:
422,323,64712,6,0,P|439:273|429:221,1,105.599996777344,0|8,0:0|0:0,0:0:0:0:
119,287,64962,2,0,P|109:235|126:186,1,105.599996777344,8|0,0:1|0:0,0:0:0:0:
484,165,65212,6,0,P|419:225|336:205,1,158.399995166016,8|0,0:0|0:0,0:0:0:0:
297,157,65462,1,8,0:1:0:0:
119,287,65587,1,0,0:0:0:0:
258,80,65712,6,0,P|311:73|361:98,1,105.599996777344,8|8,0:0|0:0,0:0:0:0:
158,367,65962,2,0,P|105:374|55:349,1,105.599996777344,8|0,0:1|0:0,0:0:0:0:
127,79,66212,6,0,B|152:189|93:178|118:286,1,211.199993554688,8|8,0:0|0:1,0:0:0:0:
118,286,66587,1,8,0:0:0:0:
127,79,66712,6,0,P|79:57|20:71,1,105.599996777344,0|8,0:0|0:0,0:0:0:0:
219,244,66962,2,0,P|267:266|326:252,1,105.599996777344,8|0,0:1|0:0,0:0:0:0:
455,15,67212,6,0,B|443:58|443:58|456:129|456:129|438:182,1,158.399995166016,12|0,0:0|0:0,0:0:0:0:
445,270,67462,2,0,B|431:231|431:231|444:154,1,105.599996777344,8|0,0:1|0:0,0:0:0:0:
357,352,67712,5,8,0:0:0:0:
357,352,67837,1,8,0:0:0:0:
442,168,67962,2,0,B|456:129|456:129|443:52,1,105.599996777344,8|8,0:1|0:0,0:0:0:0:
170,117,68212,6,0,B|268:165|268:165|370:116,1,211.199993554688,8|8,0:0|0:1,0:0:0:0:
360,120,68587,1,8,0:0:0:0:
114,45,68712,6,0,L|-13:39,1,105.599996777344,0|8,0:0|0:0,0:0:0:0:
218,257,68962,2,0,L|345:263,1,105.599996777344,8|8,0:1|0:0,0:0:0:0:
418,260,69149,1,8,0:0:0:0:
433,245,69212,6,0,P|459:185|443:115,1,132.000005035401,12|8,0:1|0:0,0:0:0:0:
0,162,69462,2,0,P|-17:100|7:40,1,132.000005035401,8|4,0:0|0:3,0:0:0:0:
218,257,69712,5,8,0:0:0:0:
74,110,69837,1,8,0:0:0:0:
127,335,69962,5,8,0:1:0:0:
189,82,70087,1,8,0:0:0:0:
284,306,70212,5,8,0:3:0:0:
400,202,70337,1,8,0:3:0:0:
299,84,70462,1,4,0:3:0:0:
180,187,70587,1,4,0:3:0:0:
297,306,70712,5,8,0:1:0:0:
400,189,70837,1,8,0:3:0:0:
285,84,70962,1,4,0:3:0:0:
179,201,71087,1,4,0:3:0:0:
400,176,71212,6,0,B|432:124|403:66|403:66|390:99,1,140.8,12|0,0:0|0:0,0:0:0:0:
393,89,71587,1,8,0:0:0:0:
249,207,71712,2,0,P|206:202|163:200,1,70.4,8|0,0:1|0:0,0:0:0:0:
297,306,71962,2,0,P|340:311|383:313,1,70.4,8|0,0:0|0:0,0:0:0:0:
183,204,72212,5,8,0:0:0:0:
182,204,72337,2,0,P|147:201|112:197,2,70.4,8|0|8,0:1|0:0|0:0,0:0:0:0:
30,258,72712,2,0,P|8:192|37:127,1,140.8,8|8,0:1|0:0,0:0:0:0:
469,128,73212,6,0,P|490:193|462:259,1,140.8,12|0,0:0|0:0,0:0:0:0:
316,195,73587,1,8,0:0:0:0:
316,195,73649,1,0,0:0:0:0:
316,195,73712,2,0,P|351:191|387:189,1,70.4,8|0,0:1|0:0,0:0:0:0:
257,101,73962,2,0,P|291:104|327:107,1,70.4,8|0,0:0|0:0,0:0:0:0:
174,60,74212,5,8,0:0:0:0:
174,60,74337,2,0,B|153:135|186:133|163:203,1,140.8,8|8,0:1|0:0,0:0:0:0:
30,258,74712,2,0,P|26:223|23:187,1,70.4,8|8,0:1|0:0,0:0:0:0:
174,60,74962,5,8,0:1:0:0:
209,58,75024,1,8,0:1:0:0:
244,57,75087,1,8,0:1:0:0:
279,56,75149,1,8,0:1:0:0:
309,54,75212,6,0,B|352:49|352:49|434:78|434:78|492:75,1,176,12|8,0:0|0:1,0:0:0:0:
479,75,75587,1,0,0:0:0:0:
350,217,75712,2,0,L|344:120,1,88,8|8,0:0|0:0,0:0:0:0:
456,273,75962,2,0,L|462:176,1,88,8|0,0:1|0:0,0:0:0:0:
491,349,76212,6,0,B|448:354|448:354|366:325|366:325|308:328,1,176,8|8,0:0|0:1,0:0:0:0:
320,327,76587,1,8,0:0:0:0:
179,238,76712,2,0,B|222:243|222:243|304:214|304:214|362:217,1,176,0|8,0:0|0:1,0:0:0:0:
208,144,77087,1,8,0:0:0:0:
195,126,77149,1,8,0:0:0:0:
184,106,77212,6,0,P|168:54|191:7,1,105.599996777344,12|8,0:1|0:0,0:0:0:0:
411,268,77462,2,0,P|430:220|413:171,1,105.599996777344,8|8,0:1|0:0,0:0:0:0:
139,330,77712,6,0,L|5:322,1,105.599996777344,8|8,0:1|0:0,0:0:0:0:
373,54,77962,2,0,L|507:62,1,105.599996777344,8|8,0:1|0:0,0:0:0:0:
279,341,78212,5,8,0:1:0:0:
184,106,78337,1,8,0:0:0:0:
139,330,78462,5,8,0:1:0:0:
314,126,78587,1,8,0:0:0:0:
290,358,78712,5,8,0:1:0:0:
173,89,78837,1,8,0:0:0:0:
128,347,78962,5,8,0:1:0:0:
325,109,79086,1,8,0:1:0:0:
386,361,79212,6,0,P|330:377|284:352,1,105.599996777344,12|8,0:0|0:0,0:0:0:0:
325,109,79462,2,0,P|381:93|427:118,2,105.599996777344,8|8|8,0:1|0:1|0:0,0:0:0:0:
256,247,79837,5,8,0:1:0:0:
240,261,79899,1,8,0:1:0:0:
220,268,79962,1,8,0:1:0:0:
199,268,80024,1,8,0:0:0:0:
177,265,80087,1,8,0:0:0:0:
157,258,80149,1,8,0:0:0:0:
136,251,80212,6,0,P|105:255|76:272,1,52.7999983886719,0|0,0:0|0:0,0:0:0:0:
239,371,80337,2,0,P|269:367|299:350,1,52.7999983886719,0|0,0:0|0:0,0:0:0:0:
414,210,80462,1,8,0:0:0:0:
414,210,80524,1,8,0:0:0:0:
414,210,80587,1,8,0:0:0:0:
414,210,80649,1,8,0:0:0:0:
414,210,80712,6,2,B|402:239|417:267|417:267|398:269|398:269|424:311|395:366,1,169.400005169678,8|0,0:1|0:0,0:1:0:0:
289,357,81212,6,0,P|245:353|201:352,1,88,12|0,0:0|0:0,0:0:0:0:
326,214,81462,2,0,P|369:210|413:209,1,88,8|0,0:0|0:0,0:0:0:0:
259,48,81712,5,8,0:0:0:0:
326,214,81837,1,0,0:0:0:0:
259,48,81962,2,0,P|215:44|171:43,1,88,8|0,0:0|0:0,0:0:0:0:
78,257,82212,6,0,P|87:214|94:170,1,88,8|0,0:0|0:0,0:0:0:0:
171,43,82462,2,0,P|178:86|187:129,1,88,8|0,0:0|0:0,0:0:0:0:
254,275,82712,5,10,0:0:0:0:
326,214,82837,1,0,0:0:0:0:
263,143,82962,1,10,0:0:0:0:
193,205,83087,1,0,0:0:0:0:
356,124,83212,5,8,0:0:0:0:
343,307,83337,1,0,0:0:0:0:
356,124,83462,2,0,L|362:27,1,88
254,275,83712,2,0,L|254:367,1,88,8|0,0:0|0:0,0:0:0:0:
174,113,83962,2,0,L|168:25,1,88,8|0,0:0|0:0,0:0:0:0:
87,256,84212,5,8,0:0:0:0:
174,113,84337,1,0,0:0:0:0:
87,256,84462,2,0,P|41:251|0:250,1,88,8|0,0:0|0:0,0:0:0:0:
32,149,84712,5,8,0:1:0:0:
130,184,84837,1,8,0:3:0:0:
168,279,84962,1,4,0:3:0:0:
266,309,85087,1,8,0:0:0:0:
366,225,85212,6,0,P|304:187|231:183,1,145.200004431152,12|0,0:1|0:0,0:0:0:0:
305,188,85462,2,0,P|322:122|309:82,1,96.8000029541017,0|8,0:0|0:0,0:0:0:0:
231,15,85712,1,8,0:1:0:0:
162,109,85837,1,0,0:0:0:0:
55,13,85962,2,0,P|121:30|161:17,1,96.8000029541017,0|8,0:0|0:1,0:0:0:0:
407,106,86212,6,0,P|341:89|301:102,1,96.8000029541017,8|8,0:0|0:1,0:0:0:0:
266,309,86462,2,0,P|332:326|372:313,1,96.8000029541017,0|8,0:0|0:0,0:0:0:0:
416,265,86649,1,0,0:0:0:0:
425,249,86712,2,0,B|455:190|407:106|407:106|398:165,1,193.600005908203,8|0,0:1|0:0,0:0:0:0:
278,194,87087,1,8,0:0:0:0:
119,57,87212,5,12,0:1:0:0:
186,248,87337,1,8,0:0:0:0:
318,95,87462,2,0,P|254:91|206:115,1,105.599996777344,0|8,0:0|0:0,0:0:0:0:
358,319,87712,6,0,P|422:323|470:299,1,105.599996777344,8|8,0:1|0:0,0:0:0:0:
119,57,87962,2,0,P|67:50|17:68,1,105.599996777344,0|8,0:0|0:0,0:0:0:0:
4,239,88212,5,10,0:2:0:0:
3,250,88274,1,2,0:2:0:0:
2,261,88337,1,10,0:0:0:0:
1,272,88399,1,10,0:0:0:0:
0,282,88462,5,4,0:3:0:0:
64,366,88587,1,4,0:3:0:0:
199,329,88712,1,8,0:1:0:0:
233,163,88837,1,8,0:0:0:0:
17,68,88962,6,0,L|-1:67,1,17.6,12|0,0:1|0:0,0:0:0:0:
