osu file format v14

[General]
AudioFilename: audio.mp3
AudioLeadIn: 0
PreviewTime: 55087
Countdown: 0
SampleSet: Soft
StackLeniency: 0.4
Mode: 0
LetterboxInBreaks: 0
WidescreenStoryboard: 0

[Editor]
Bookmarks: 33212
DistanceSpacing: 1.3
BeatDivisor: 4
GridSize: 32
TimelineZoom: 2.899999

[Metadata]
Title:Los! Los! Los!
TitleUnicode:Los! Los! Los!
Artist:Tanya Degurechaff (CV: Yuki Aoi)
ArtistUnicode:ターニャ・デグレチャフ(CV:悠木碧)
Creator:Logic Agent
Version:Kalibe's Insane
Source:幼女戦記
Tags:Youjo Senki Saga of Tanya the Evil ED ending TV Size yuuki losloslos Akitoshi Xinely Kalibe Mun pkhg Plaudible Hobbes2 Lasse
BeatmapID:1212291
BeatmapSetID:570679

[Difficulty]
HPDrainRate:6
CircleSize:4
OverallDifficulty:7.5
ApproachRate:9
SliderMultiplier:1.46
SliderTickRate:1

[Events]
//Background and Video events
0,0,"792738.jpg",0,0
Video,592,"ed.avi"
//Break Periods
//Storyboard Layer 0 (Background)
//Storyboard Layer 1 (Fail)
//Storyboard Layer 2 (Pass)
//Storyboard Layer 3 (Foreground)
//Storyboard Sound Samples

[TimingPoints]
1212,250,4,2,10,40,1,0
1212,-125,4,2,10,40,0,0
5212,-111.111111111111,4,2,10,50,0,0
7212,-111.111111111111,4,2,10,53,0,0
9212,-111.111111111111,4,2,10,55,0,0
11212,-100,4,2,10,57,0,0
13212,-90.9090909090909,4,2,10,60,0,0
21212,-100,4,2,10,50,0,0
23212,-100,4,2,10,55,0,0
25212,-111.111111111111,4,2,10,55,0,0
33212,-125,4,2,10,50,0,0
37212,-100,4,2,10,60,0,0
41212,-100,4,2,10,50,0,0
45212,-111.111111111111,4,2,10,60,0,0
49212,-111.111111111111,4,2,10,60,0,0
51212,-100,4,2,10,60,0,0
51712,-100,4,2,10,60,0,0
52212,-100,4,2,10,70,0,0
53212,-200,4,2,10,60,0,0
53274,-200,4,2,10,60,0,0
53295,-200,4,2,10,5,0,0
54149,-200,4,2,10,5,0,0
54212,-200,4,2,10,60,0,0
54712,-133.333333333333,4,2,10,50,0,0
54962,-133.333333333333,4,2,10,50,0,0
55212,-90.9090909090909,4,2,10,70,0,1
62212,-90.9090909090909,4,2,10,70,0,1
62712,-111.111111111111,4,2,10,70,0,0
63212,-90.9090909090909,4,2,10,70,0,1
71212,-125,4,2,10,60,0,0
75212,-90.9090909090909,4,2,10,70,0,1
77212,-90.9090909090909,4,2,10,70,0,1
78212,-90.9090909090909,4,2,10,70,0,1
80712,-90.9090909090909,4,2,10,70,0,1
81212,-100,4,2,10,60,0,0
87212,-100,4,2,10,60,0,0
88712,-100,4,2,10,60,0,0
89024,-100,4,2,10,5,0,0

[Colours]
Combo1 : 195,195,195
Combo2 : 255,91,104
Combo3 : 253,181,72
Combo4 : 188,129,114

[HitObjects]
47,302,1212,6,0,B|176:269|136:380|276:333,1,233.6,6|2,0:0|0:0,0:0:0:0:
397,286,1962,1,2,0:0:0:0:
269,227,2212,2,0,P|326:233|376:206,1,116.8,2|0,0:0|0:0,0:0:0:0:
492,127,2712,2,0,P|434:133|384:106,1,116.8,2|2,0:0|0:0,0:0:0:0:
275,17,3212,6,0,B|254:81|254:81|280:172|280:172|256:246,1,233.6,2|2,0:0|0:0,0:0:0:0:
392,197,3962,1,2,0:0:0:0:
465,316,4212,2,0,B|419:279|419:279|355:287,1,116.8,2|2,0:0|0:0,0:0:0:0:
233,341,4712,1,2,0:0:0:0:
233,341,4837,2,0,L|115:308,1,116.8,0|0,0:0|0:0,0:0:0:0:
48,263,5212,6,0,P|32:191|65:138,1,131.39999598999,12|8,0:0|0:0,0:0:0:0:
219,200,5712,2,0,P|174:207|136:216,1,65.6999979949952,8|0,0:0|0:0,0:0:0:0:
206,115,5962,2,0,P|250:122|289:131,1,65.6999979949952,8|0,0:0|0:0,0:0:0:0:
349,197,6212,6,0,P|416:169|483:173,1,131.39999598999,8|8,0:0|0:0,0:0:0:0:
473,170,6712,2,0,B|449:114|499:102|466:41,1,131.39999598999,10|8,0:0|0:0,0:0:0:0:
282,61,7212,6,0,P|275:93|270:125,1,65.6999979949952,12|0,0:0|0:0,0:0:0:0:
349,197,7462,1,8,0:0:0:0:
184,243,7712,1,8,0:0:0:0:
324,340,7962,2,0,P|250:310|193:331,1,131.39999598999,8|8,0:0|0:0,0:0:0:0:
129,367,8337,5,0,0:0:0:0:
129,367,8462,2,0,P|86:366|56:353,1,65.6999979949952,8|0,0:0|0:0,0:0:0:0:
16,286,8712,2,0,P|59:284|87:272,1,65.6999979949952,10|0,0:0|0:0,0:0:0:0:
154,233,8962,1,10,0:0:0:0:
26,118,9212,6,0,P|105:132|184:152,1,131.39999598999,12|8,0:0|0:0,0:0:0:0:
309,71,9712,2,0,P|261:80|234:90,1,65.6999979949952,8|0,0:0|0:0,0:0:0:0:
362,168,9962,2,0,P|330:158|298:153,1,65.6999979949952,8|0,1:2|0:0,0:0:0:0:
207,250,10212,6,0,P|276:225|340:241,1,131.39999598999,8|8,1:2|1:2,0:0:0:0:
331,236,10712,2,0,B|396:265|396:206|472:241,1,131.39999598999,10|12,0:0|0:1,0:0:0:0:
315,361,11212,6,0,P|265:350|234:345,1,73,4|0,0:0|0:0,0:0:0:0:
195,263,11462,2,0,P|108:297|58:273,1,146,0|8,0:0|0:0,0:0:0:0:
14,197,11837,1,8,0:1:0:0:
85,134,11962,2,0,P|120:124|174:131,1,73,8|8,0:1|0:0,0:0:0:0:
311,202,12212,6,0,P|251:190|217:186,1,73,8|8,0:1|0:1,0:0:0:0:
211,67,12462,2,0,P|246:74|282:80,1,73,8|8,0:1|0:0,0:0:0:0:
363,131,12712,1,4,0:3:0:0:
458,94,12837,2,0,L|450:45,2,36.5,8|8|12,0:0|0:0|0:1,0:0:0:0:
476,194,13087,1,0,0:0:0:0:
496,308,13212,6,0,P|401:263|340:280,1,160.600004901123,12|8,0:0|0:1,0:0:0:0:
266,322,13587,1,0,0:0:0:0:
266,322,13712,2,0,L|168:296,1,80.3000024505616,8|8,0:0|0:0,0:0:0:0:
219,210,13962,2,0,P|168:218|139:224,1,80.3000024505616,8|0,0:1|0:0,0:0:0:0:
43,310,14212,6,0,P|135:277|201:315,1,160.600004901123,8|8,0:0|0:1,0:0:0:0:
264,361,14587,2,0,B|323:355|323:355|359:374|359:374|429:368,1,160.600004901123,8|8,0:0|0:0,0:0:0:0:
496,308,14962,2,0,P|450:303|414:279,1,80.3000024505616,8|0,0:1|0:0,0:0:0:0:
317,250,15212,6,0,P|394:239|479:230,1,160.600004901123,8|8,0:0|0:1,0:0:0:0:
352,165,15587,2,0,P|391:159|431:154,1,80.3000024505616,0|8,0:0|0:0,0:0:0:0:
489,77,15837,1,8,0:0:0:0:
489,77,15962,2,0,P|441:72|404:65,1,80.3000024505616,8|0,0:1|0:0,0:0:0:0:
324,21,16212,6,0,P|240:63|174:40,1,160.600004901123,8|8,0:0|0:1,0:0:0:0:
87,19,16587,2,0,B|124:118|124:118|101:172,1,160.600004901123,8|8,0:0|0:0,0:0:0:0:
23,111,16962,1,8,0:1:0:0:
102,168,17087,1,8,0:0:0:0:
4,236,17212,6,0,B|84:204|71:281|167:238,1,160.600004901123,12|8,0:1|0:0,0:0:0:0:
220,168,17587,1,12,0:1:0:0:
220,168,17712,2,0,B|259:164|259:164|300:182,1,80.3000024505616,8|8,0:0|0:0,0:0:0:0:
401,242,17962,2,0,B|362:238|362:238|321:256,1,80.3000024505616,12|8,0:1|0:0,0:0:0:0:
192,320,18212,5,8,0:0:0:0:
271,374,18337,2,0,P|374:336|434:343,1,160.600004901123,12|8,0:1|0:0,0:0:0:0:
475,219,18712,2,0,P|440:239|390:239,1,80.3000024505616,12|8,0:1|0:0,0:0:0:0:
340,135,18962,2,0,P|379:137|414:157,1,80.3000024505616,12|8,0:1|0:0,0:0:0:0:
296,273,19212,6,0,P|197:246|125:226,1,160.600004901123,12|8,0:1|0:0,0:0:0:0:
206,158,19587,1,8,0:1:0:0:
206,158,19712,2,0,P|145:145|114:137,1,80.3000024505616,8|8,0:0|0:0,0:0:0:0:
0,96,19962,2,0,P|61:83|92:75,1,80.3000024505616,4|0,0:3|0:0,0:0:0:0:
184,24,20212,5,8,0:1:0:0:
184,24,20337,1,8,0:0:0:0:
256,99,20462,2,0,L|237:191,1,80.3000024505616,8|8,0:3|0:3,0:0:0:0:
185,319,20712,2,0,P|175:277|164:232,2,80.3000024505616,4|4|4,0:3|0:3|0:3,0:0:0:0:
272,260,21087,1,8,0:0:0:0:
314,347,21212,6,0,P|240:305|181:320,1,146,12|8,0:0|0:0,0:0:0:0:
17,364,21712,2,0,L|2:282,1,73,8|0,0:0|0:0,0:0:0:0:
170,248,21962,2,0,L|186:321,1,73,8|0,0:0|0:0,0:0:0:0:
108,381,22212,6,0,P|91:289|80:225,1,146,8|8,0:0|0:0,0:0:0:0:
257,160,22712,2,0,B|178:130|192:195|112:163,1,146,10|8,0:0|0:0,0:0:0:0:
117,165,23212,6,0,P|101:125|105:83,1,73,12|8,0:0|0:0,0:0:0:0:
174,32,23462,2,0,B|273:17|273:17|324:57,1,146,8|0,0:1|0:0,0:0:0:0:
368,120,23837,1,0,0:0:0:0:
462,111,23962,2,0,P|449:153|439:186,1,73,0|0,0:0|0:0,0:0:0:0:
278,233,24212,6,0,P|267:198|256:163,1,73,8|8,0:0|0:1,0:0:0:0:
364,200,24462,2,0,L|353:280,1,73,0|0,0:0|0:0,0:0:0:0:
268,315,24712,1,8,0:1:0:0:
268,315,24837,1,8,0:0:0:0:
347,367,24962,1,8,0:1:0:0:
347,367,25212,6,0,P|384:363|425:358,1,65.6999979949952,12|8,0:0|0:0,0:0:0:0:
482,298,25462,2,0,L|336:268,1,131.39999598999,8|8,0:1|0:0,0:0:0:0:
278,233,25837,1,8,0:1:0:0:
270,244,25962,2,0,P|214:252|190:257,1,65.6999979949952,0|8,0:0|0:0,0:0:0:0:
134,314,26212,6,0,P|51:321|7:283,1,131.39999598999,8|0,0:1|0:0,0:0:0:0:
0,192,26587,2,0,P|55:159|118:172,1,131.39999598999,8|8,0:0|0:0,0:0:0:0:
192,96,26962,2,0,P|202:131|209:168,1,65.6999979949952,8|0,0:1|0:0,0:0:0:0:
140,243,27212,6,0,P|183:248|212:255,1,65.6999979949952,8|8,0:0|0:0,0:0:0:0:
261,334,27462,2,0,B|307:312|307:312|396:331,1,131.39999598999,8|8,0:1|0:0,0:0:0:0:
451,264,27837,1,8,0:1:0:0:
439,256,27962,2,0,L|369:241,1,65.6999979949952,0|8,0:0|0:0,0:0:0:0:
230,183,28212,6,0,P|308:188|356:154,1,131.39999598999,8|0,0:1|0:0,0:0:0:0:
391,77,28587,2,0,B|344:65|344:65|308:77|308:77|257:65,1,131.39999598999,8|8,0:0|0:0,0:0:0:0:
190,12,28962,1,8,0:1:0:0:
19,80,29212,6,0,P|64:65|105:63,1,65.6999979949952,12|8,0:0|0:0,0:0:0:0:
194,169,29462,2,0,P|125:138|51:151,1,131.39999598999,8|8,0:1|0:0,0:0:0:0:
6,212,29837,1,8,0:1:0:0:
6,224,29962,2,0,P|17:267|26:303,1,65.6999979949952,0|8,0:0|0:0,0:0:0:0:
128,224,30212,5,8,0:1:0:0:
96,352,30337,2,0,B|153:324|153:324|225:338,1,131.39999598999,8|8,0:0|0:0,0:0:0:0:
288,256,30712,2,0,L|212:242,1,65.6999979949952,0|8,0:0|0:0,0:0:0:0:
322,379,30962,2,0,L|414:360,1,65.6999979949952,8|0,0:1|0:0,0:0:0:0:
512,302,31212,6,0,P|455:312|387:277,1,131.39999598999,12|8,0:0|0:1,0:0:0:0:
340,203,31587,1,0,0:0:0:0:
414,149,31712,2,0,P|451:161|488:174,2,65.6999979949952,8|8|0,0:0|0:1|0:0,0:0:0:0:
337,97,32087,1,8,0:1:0:0:
249,124,32212,5,8,0:0:0:0:
288,231,32337,2,0,P|210:198|155:194,1,131.39999598999,8|8,0:1|0:1,0:0:0:0:
91,250,32712,2,0,L|7:267,1,65.6999979949952,0|4,0:0|0:3,0:0:0:0:
4,170,32962,2,0,P|12:130|20:96,1,65.6999979949952,4|4,0:3|0:3,0:0:0:0:
137,79,33212,6,0,P|151:134|163:192,1,116.8,12|8,0:0|0:0,0:0:0:0:
192,366,33712,1,8,0:1:0:0:
301,230,33962,2,0,L|364:247,1,58.4,8|0,0:0|0:0,0:0:0:0:
420,334,34212,5,8,0:0:0:0:
333,361,34337,2,0,P|259:341|209:327,1,116.8,8|8,0:1|0:0,0:0:0:0:
125,261,34712,2,0,P|112:283|105:321,1,58.4,8|0,0:1|0:0,0:0:0:0:
262,239,34962,2,0,P|240:226|202:219,1,58.4,8|8,0:0|0:3,0:0:0:0:
59,182,35212,5,8,0:0:0:0:
16,270,35337,2,0,P|84:281|134:255,1,116.8,8|8,0:1|0:0,0:0:0:0:
215,161,35712,2,0,L|207:221,1,58.4,8|8,0:1|0:0,0:0:0:0:
83,104,35962,2,0,L|75:161,1,58.4,0|0,0:0|0:0,0:0:0:0:
192,32,36212,5,8,0:0:0:0:
256,96,36337,2,0,P|320:72|368:71,1,116.8,8|4,0:3|0:3,0:0:0:0:
466,135,36712,1,8,0:1:0:0:
357,177,36837,2,0,L|321:166,2,29.2,8|8|8,0:0|0:1|0:1,0:0:0:0:
432,221,37087,1,8,0:1:0:0:
371,297,37212,6,0,P|287:313|203:334,1,146,12|8,0:0|0:1,0:0:0:0:
134,268,37587,1,0,0:0:0:0:
285,232,37712,2,0,P|227:218|184:208,1,73,8|8,0:0|0:0,0:0:0:0:
64,160,37962,2,0,P|107:153|165:143,1,73,8|0,0:1|0:0,0:0:0:0:
299,65,38212,6,0,P|216:94|158:73,1,146,8|8,0:0|0:1,0:0:0:0:
63,36,38587,1,8,0:0:0:0:
63,36,38712,2,0,L|44:111,1,73,0|8,0:0|0:0,0:0:0:0:
142,156,38962,1,8,0:1:0:0:
44,205,39087,1,0,0:0:0:0:
134,268,39212,6,0,P|183:253|216:246,1,73,8|0,0:0|0:0,0:0:0:0:
64,352,39462,2,0,P|158:360|228:388,1,146,8|8,0:1|0:0,0:0:0:0:
320,320,39837,1,8,0:0:0:0:
412,378,39962,2,0,P|422:337|434:297,1,73,8|8,0:1|0:0,0:0:0:0:
296,212,40212,6,0,L|314:293,1,73,12|8,0:1|0:0,0:0:0:0:
486,162,40462,2,0,L|473:233,1,73,8|4,0:0|0:3,0:0:0:0:
295,190,40712,5,8,0:1:0:0:
295,190,40837,1,8,0:1:0:0:
218,245,40962,1,8,0:1:0:0:
127,217,41087,1,8,0:1:0:0:
123,322,41212,6,0,P|33:326|-13:278,1,146,12|8,0:0|0:0,0:0:0:0:
31,190,41587,1,0,0:0:0:0:
132,232,41712,2,0,P|176:241|221:252,1,73,8|0,0:0|0:0,0:0:0:0:
93,151,41962,2,0,P|57:158|21:166,1,73,8|0,0:0|0:0,0:0:0:0:
162,73,42212,6,0,P|248:108|311:95,1,146,8|8,0:0|0:0,0:0:0:0:
405,57,42587,1,0,0:0:0:0:
512,160,42712,2,0,B|451:128|422:186|365:152,1,146,8|8,0:0|0:0,0:0:0:0:
269,201,43087,1,0,0:0:0:0:
448,288,43212,6,0,P|399:274|369:265,1,73,12|0,0:0|0:0,0:0:0:0:
199,221,43462,2,0,P|234:210|269:200,1,73,8|0,0:0|0:0,0:0:0:0:
352,352,43712,2,0,B|298:337|298:337|257:349|257:349|202:333,1,146,8|8,0:0|0:0,0:0:0:0:
135,255,44087,1,0,0:0:0:0:
49,337,44212,6,0,P|28:290|24:245,1,73,8|0,0:0|0:0,0:0:0:0:
123,121,44462,2,0,P|153:209|131:261,1,146,8|8,0:0|0:1,0:0:0:0:
49,337,44837,1,8,0:1:0:0:
135,255,44962,1,8,0:1:0:0:
32,192,45087,1,8,0:1:0:0:
123,121,45212,6,0,L|214:106,1,65.6999979949952,12|0,0:0|0:0,0:0:0:0:
304,85,45462,2,0,P|266:135|284:199,1,131.39999598999,8|8,0:1|0:0,0:0:0:0:
352,279,45837,1,8,0:0:0:0:
222,298,45962,2,0,L|363:278,1,131.39999598999,8|8,0:1|0:0,0:0:0:0:
503,248,46337,6,0,L|427:232,1,65.6999979949952,8|8,0:0|0:1,0:0:0:0:
338,148,46587,2,0,P|409:137|486:127,1,131.39999598999,8|8,0:0|0:0,0:0:0:0:
396,38,46962,1,8,0:1:0:0:
396,38,47212,6,0,P|334:26|303:22,1,65.6999979949952,8|8,0:0|0:0,0:0:0:0:
243,85,47462,2,0,P|164:109|115:91,1,131.39999598999,8|8,0:1|0:0,0:0:0:0:
26,32,47837,1,8,0:0:0:0:
26,32,47962,2,0,L|49:167,1,131.39999598999,8|8,0:1|0:1,0:0:0:0:
96,320,48337,5,0,0:0:0:0:
0,256,48462,2,0,L|49:241,1,43.7999986633301,8|8,0:1|0:3,0:0:0:0:
94,173,48628,1,8,0:0:0:0:
94,173,48712,2,0,P|126:182|158:191,1,65.6999979949952,8|8,0:1|0:3,0:0:0:0:
266,126,48962,2,0,P|275:158|284:190,1,65.6999979949952,4|4,0:3|0:3,0:0:0:0:
308,328,49212,6,0,B|354:340|388:349|388:349|443:326,1,131.39999598999,12|0,0:1|0:0,0:0:0:0:
217,224,49712,2,0,B|171:236|137:245|137:245|82:222,1,131.39999598999,12|0,0:1|0:0,0:0:0:0:
164,141,50087,1,8,0:0:0:0:
236,235,50212,6,0,P|315:248|371:209,1,131.39999598999,12|0,0:1|0:0,0:0:0:0:
449,159,50587,1,8,0:0:0:0:
449,159,50712,2,0,L|363:138,1,65.6999979949952,12|8,0:1|0:0,0:0:0:0:
320,51,50962,2,0,L|390:37,1,65.6999979949952,0|8,0:0|0:0,0:0:0:0:
239,101,51212,6,0,P|213:182|238:238,1,146,12|0,0:1|0:0,0:0:0:0:
358,288,51712,2,0,P|306:238|235:234,1,146,12|0,0:1|0:0,0:0:0:0:
138,327,52212,6,0,P|213:288|235:230,1,146,12|0,0:1|0:0,0:0:0:0:
239,101,52712,2,0,P|213:182|238:238,1,146,12|0,0:1|0:0,0:0:0:0:
358,288,53212,6,0,B|292:242|220:282|220:282|153:325|82:275,1,292,2|12,0:0|0:1,0:0:0:0:
84,276,54712,6,0,L|71:231,1,36.5000013923646,2|0,0:0|0:0,2:0:0:0:
160,192,54878,2,0,L|169:148,1,36.5000013923646,0|2,0:0|0:0,2:0:0:0:
80,104,55045,2,0,L|68:51,1,36.5000013923646,0|0,0:0|0:0,2:0:0:0:
190,34,55212,6,0,L|159:196,1,160.600004901123,12|8,0:0|0:1,0:0:0:0:
84,276,55587,1,0,0:0:0:0:
127,361,55712,2,0,P|175:346|223:340,1,80.3000024505616,8|8,0:0|0:0,0:0:0:0:
159,191,55962,2,0,P|203:206|240:212,1,80.3000024505616,8|0,0:1|0:0,0:0:0:0:
332,310,56212,6,0,P|429:322|481:280,1,160.600004901123,8|8,0:0|0:1,0:0:0:0:
498,182,56587,2,0,B|446:169|446:169|405:185|405:185|343:170,1,160.600004901123,8|8,0:0|0:0,0:0:0:0:
384,64,56962,2,0,L|278:79,1,80.3000024505616,8|0,0:1|0:0,0:0:0:0:
166,42,57212,6,0,B|133:140|133:140|161:195,1,160.600004901123,8|8,0:0|0:1,0:0:0:0:
223,133,57587,1,0,0:0:0:0:
74,201,57712,2,0,B|65:243|65:243|80:289,1,80.3000024505616,8|8,0:0|0:0,0:0:0:0:
245,221,57962,2,0,L|149:237,1,80.3000024505616,8|0,0:1|0:0,0:0:0:0:
0,310,58212,6,0,P|57:307|174:364,1,160.600004901123,8|8,0:0|0:1,0:0:0:0:
242,376,58587,2,0,B|216:298|282:310|242:216,1,160.600004901123,8|8,0:0|0:0,0:0:0:0:
352,320,58962,2,0,P|395:331|443:343,1,80.3000024505616,8|0,0:1|0:0,0:0:0:0:
384,193,59212,6,0,P|308:239|242:219,1,160.600004901123,12|8,0:0|0:1,0:0:0:0:
156,157,59587,1,0,0:0:0:0:
156,157,59712,2,0,P|147:106|157:77,1,80.3000024505616,8|8,0:0|0:0,0:0:0:0:
256,111,59962,2,0,P|298:101|357:88,1,80.3000024505616,8|0,0:1|0:0,0:0:0:0:
480,64,60212,6,0,B|461:120|461:120|479:170|479:170|462:225,1,160.600004901123,8|8,0:0|0:1,0:0:0:0:
470,329,60587,2,0,P|377:282|306:301,1,160.600004901123,8|8,0:0|0:0,0:0:0:0:
230,353,60962,2,0,P|211:310|217:256,1,80.3000024505616,8|8,0:1|0:0,0:0:0:0:
309,176,61212,6,0,P|394:196|489:223,1,160.600004901123,12|8,0:1|0:0,0:0:0:0:
325,291,61587,1,12,0:1:0:0:
215,243,61712,2,0,P|151:251|124:259,1,80.3000024505616,8|8,0:0|0:0,0:0:0:0:
23,337,61962,2,0,P|27:283|38:241,1,80.3000024505616,8|8,0:1|0:0,0:0:0:0:
145,166,62212,6,0,L|193:174,3,40.1500012252808,8|8|8|8,0:1|0:0|0:0|0:0,0:0:0:0:
73,128,62462,2,0,L|31:138,3,40.1500012252808,8|8|4|8,0:3|0:0|0:3|0:0,0:0:0:0:
144,79,62712,6,0,L|287:101,1,131.39999598999,4|8,0:3|0:1,0:0:0:0:
370,188,63087,1,0,0:0:0:0:
512,160,63212,6,0,P|434:145|370:189,1,160.600004901123,12|8,0:0|0:1,0:0:0:0:
256,288,63587,1,0,0:0:0:0:
256,288,63712,2,0,L|170:267,1,80.3000024505616,8|8,0:0|0:0,0:0:0:0:
292,169,63962,2,0,L|371:188,1,80.3000024505616,8|0,0:1|0:0,0:0:0:0:
395,325,64212,6,0,P|317:274|248:293,1,160.600004901123,8|8,0:0|0:1,0:0:0:0:
114,359,64587,2,0,P|148:276|107:214,1,160.600004901123,8|8,0:0|0:0,0:0:0:0:
16,118,64962,2,0,P|63:134|106:126,1,80.3000024505616,8|0,0:1|0:0,0:0:0:0:
208,88,65212,6,0,P|124:98|61:53,1,160.600004901123,8|8,0:0|0:1,0:0:0:0:
0,140,65587,1,0,0:0:0:0:
78,211,65712,2,0,P|129:202|171:194,1,80.3000024505616,8|8,0:0|0:0,0:0:0:0:
287,102,65962,2,0,P|236:93|194:85,1,80.3000024505616,8|0,0:1|0:0,0:0:0:0:
240,262,66212,6,0,P|335:285|411:240,1,160.600004901123,8|8,0:0|0:1,0:0:0:0:
492,216,66587,2,0,B|441:201|399:229|399:229|358:213|363:177,1,160.600004901123,8|8,0:0|0:0,0:0:0:0:
459,292,66962,2,0,P|468:343|454:379,1,80.3000024505616,8|0,0:1|0:0,0:0:0:0:
344,328,67212,6,0,P|328:236|366:179,1,160.600004901123,12|8,0:0|0:1,0:0:0:0:
480,96,67587,1,0,0:0:0:0:
480,96,67712,2,0,P|420:84|378:76,1,80.3000024505616,8|8,0:0|0:0,0:0:0:0:
253,176,67962,2,0,P|292:168|331:160,1,80.3000024505616,8|8,0:1|0:0,0:0:0:0:
170,95,68212,6,0,P|126:182|146:235,1,160.600004901123,8|8,0:0|0:1,0:0:0:0:
256,352,68587,2,0,P|157:331|76:317,1,160.600004901123,8|8,0:0|0:0,0:0:0:0:
0,263,68962,1,8,0:1:0:0:
37,156,69087,1,8,0:0:0:0:
146,235,69212,6,0,P|191:224|261:209,1,80.3000024505616,12|8,0:1|0:0,0:0:0:0:
410,177,69462,2,0,P|364:166|295:151,1,80.3000024505616,8|4,0:0|0:3,0:0:0:0:
235,20,69712,2,0,P|224:65|209:135,1,80.3000024505616,8|8,0:0|0:0,0:0:0:0:
315,252,69962,1,8,0:1:0:0:
315,252,70087,1,8,0:0:0:0:
315,252,70212,6,0,P|410:224|476:244,1,160.600004901123,8|4,0:3|0:3,0:0:0:0:
331,159,70587,1,4,0:3:0:0:
435,99,70712,1,8,0:1:0:0:
224,217,70962,1,4,0:3:0:0:
224,217,71212,6,0,B|153:183|125:257|49:205,1,175.2,12|8,0:0|0:0,0:0:0:0:
55,209,71712,2,0,P|27:145|48:91,2,116.8,8|8|8,0:1|0:0|0:0,0:0:0:0:
154,124,72337,6,0,L|33:101,1,116.8,8|8,0:1|0:0,0:0:0:0:
93,33,72712,2,0,L|214:56,1,116.8,8|8,0:1|0:0,0:0:0:0:
239,137,73087,1,0,0:0:0:0:
332,66,73212,6,0,B|373:147|304:161|341:239,1,175.2,12|8,0:0|0:0,0:0:0:0:
447,343,73712,2,0,P|394:308|337:311,1,116.8,8|8,0:1|0:0,0:0:0:0:
119,380,74212,5,8,0:0:0:0:
119,380,74337,2,0,P|176:379|223:346,1,116.8,8|8,0:1|0:0,0:0:0:0:
281,243,74712,2,0,L|356:232,1,58.4,8|8,0:1|0:0,0:0:0:0:
155,184,74962,1,8,0:1:0:0:
161,201,75024,1,8,0:1:0:0:
167,218,75087,1,8,0:1:0:0:
172,235,75149,1,8,0:1:0:0:
180,258,75212,6,0,L|354:233,1,160.600004901123,12|8,0:0|0:1,0:0:0:0:
428,167,75587,1,0,0:0:0:0:
328,114,75712,2,0,P|276:122|227:150,1,80.3000024505616,8|8,0:0|0:0,0:0:0:0:
78,164,75962,2,0,P|117:168|154:183,1,80.3000024505616,8|0,0:1|0:0,0:0:0:0:
314,318,76212,6,0,P|226:254|169:261,1,160.600004901123,8|8,0:0|0:1,0:0:0:0:
65,316,76587,2,0,B|80:261|80:261|62:219|62:219|78:161,1,160.600004901123,8|8,0:0|0:0,0:0:0:0:
5,75,76962,2,0,B|50:87|50:87|96:74,1,80.3000024505616,8|8,0:1|0:0,0:0:0:0:
118,68,77149,1,8,0:0:0:0:
118,68,77212,6,0,B|185:43|198:110|285:68,1,160.600004901123,12|8,0:1|0:1,0:0:0:0:
372,128,77587,1,8,0:0:0:0:
268,171,77712,2,0,P|357:168|419:210,1,160.600004901123,8|8,0:1|0:1,0:0:0:0:
469,303,78087,1,8,0:0:0:0:
469,303,78212,6,0,L|377:278,1,80.3000024505616,8|8,0:1|0:0,0:0:0:0:
268,171,78462,2,0,P|245:208|247:252,1,80.3000024505616,8|8,0:1|0:0,0:0:0:0:
336,356,78712,2,0,B|271:340|271:340|230:355|230:355|173:342,1,160.600004901123,8|8,0:1|0:1,0:0:0:0:
244,243,79087,1,8,0:1:0:0:
179,171,79212,6,0,P|84:140|27:165,1,160.600004901123,12|8,0:0|0:1,0:0:0:0:
24,266,79587,2,0,P|36:307|48:349,1,80.3000024505616,8|8,0:1|0:0,0:0:0:0:
159,330,79837,5,8,0:1:0:0:
159,330,79899,1,8,0:1:0:0:
159,330,79962,2,0,L|208:318,3,40.1500012252808,8|8|8|8,0:1|0:0|0:0|0:0,0:0:0:0:
139,258,80212,2,0,L|178:249,3,40.1500012252808,0|0|0|0,0:0|0:0|0:0|0:0,0:0:0:0:
122,184,80462,2,0,L|164:176,3,40.1500012252808,8|8|8|8,0:0|0:0|0:0|0:0,0:0:0:0:
183,142,80712,1,8,0:1:0:0:
183,142,81212,6,0,P|271:167|329:145,1,146,12|8,0:0|0:0,0:0:0:0:
105,81,81712,2,0,P|92:108|83:164,1,73,8|0,0:0|0:0,0:0:0:0:
118,238,81962,2,0,P|160:234|203:225,1,73,8|0,0:0|0:0,0:0:0:0:
23,304,82212,6,0,P|114:318|186:340,1,146,8|8,0:0|0:0,0:0:0:0:
340,263,82712,2,0,P|304:271|269:264,1,73,10|0,0:0|0:0,0:0:0:0:
120,155,82962,2,0,P|156:157|188:175,1,73,10|0,0:0|0:0,0:0:0:0:
270,265,83212,6,0,P|261:229|268:194,1,73,8|0,0:0|0:0,0:0:0:0:
356,158,83462,2,0,P|267:140|195:126,1,146,8|8,0:0|0:0,0:0:0:0:
120,155,83837,1,0,0:0:0:0:
135,247,83962,2,0,P|215:280|279:257,1,146,8|8,0:0|0:0,0:0:0:0:
366,228,84337,5,0,0:0:0:0:
366,228,84462,2,0,P|365:181|346:144,1,73,8|0,0:0|0:0,0:0:0:0:
342,306,84712,2,0,P|389:305|426:286,1,73,8|8,0:1|0:3,0:0:0:0:
447,206,84962,1,4,0:3:0:0:
355,157,85087,1,8,0:0:0:0:
477,107,85212,6,0,P|378:88|332:79,1,146,12|0,0:1|0:0,0:0:0:0:
247,28,85587,1,8,0:0:0:0:
247,28,85712,2,0,P|189:35|155:45,1,73,8|0,0:1|0:0,0:0:0:0:
32,96,85962,2,0,P|90:103|124:113,1,73,0|8,0:0|0:1,0:0:0:0:
222,179,86212,5,8,0:0:0:0:
138,238,86337,2,0,P|51:208|-4:213,1,146,8|8,0:1|0:0,0:0:0:0:
10,307,86712,2,0,B|88:282|71:348|163:317,1,146,8|0,0:1|0:0,0:0:0:0:
224,256,87087,1,8,0:0:0:0:
338,331,87212,6,0,P|350:288|344:243,1,73,12|8,0:1|0:0,0:0:0:0:
272,176,87462,2,0,P|344:215|404:200,1,146,0|8,0:0|0:1,0:0:0:0:
512,137,87837,1,8,0:0:0:0:
512,137,87962,2,0,L|421:117,1,73,0|8,0:0|0:0,0:0:0:0:
290,66,88212,6,0,L|332:57,4,36.5,8|2|8|8|4,0:1|0:2|0:0|0:0|0:3,0:0:0:0:
249,191,88587,1,4,0:3:0:0:
160,32,88712,6,0,P|176:77|182:123,1,73,8|8,0:1|0:0,0:0:0:0:
96,256,88962,2,0,P|104:220|117:186,1,73,12|0,0:1|0:0,0:0:0:0:
