osu file format v14

[General]
AudioFilename: audio.mp3
AudioLeadIn: 0
PreviewTime: 55087
Countdown: 0
SampleSet: Soft
StackLeniency: 0.5
Mode: 0
LetterboxInBreaks: 0
WidescreenStoryboard: 0

[Editor]
DistanceSpacing: 1.6
BeatDivisor: 4
GridSize: 32
TimelineZoom: 3.599999

[Metadata]
Title:Los! Los! Los!
TitleUnicode:Los! Los! Los!
Artist:Tanya Degurechaff (CV: Yuki Aoi)
ArtistUnicode:ターニャ・デグレチャフ(CV:悠木碧)
Creator:Logic Agent
Version:Hard
Source:幼女戦記
Tags:Youjo Senki Saga of Tanya the Evil ED ending TV Size yuuki losloslos Akitoshi Xinely Kalibe Mun pkhg Plaudible Hobbes2 Lasse
BeatmapID:1219573
BeatmapSetID:570679

[Difficulty]
HPDrainRate:5
CircleSize:4
OverallDifficulty:6.7
ApproachRate:8
SliderMultiplier:1.3
SliderTickRate:1

[Events]
//Background and Video events
0,0,"792738.jpg",0,0
Video,592,"ed.avi"
//Break Periods
//Storyboard Layer 0 (Background)
//Storyboard Layer 1 (Fail)
//Storyboard Layer 2 (Pass)
//Storyboard Layer 3 (Foreground)
//Storyboard Sound Samples

[TimingPoints]
1212,250.0,4,2,10,40,1,0
1212,-111.111111111111,4,2,10,40,0,0
5212,-111.111111111111,4,2,10,50,0,0
7212,-111.111111111111,4,2,10,53,0,0
9212,-111.111111111111,4,2,10,55,0,0
11212,-111.111111111111,4,2,10,57,0,0
13212,-100.0,4,2,10,60,0,0
21212,-111.111111111111,4,2,10,50,0,0
23212,-111.111111111111,4,2,10,55,0,0
33212,-125.0,4,2,10,50,0,0
37212,-100.0,4,2,10,60,0,0
41212,-100.0,4,2,10,50,0,0
45212,-111.111111111111,4,2,10,60,0,0
52212,-111.111111111111,4,2,10,70,0,0
53212,-111.111111111111,4,2,10,60,0,0
53295,-111.111111111111,4,2,10,5,0,0
54212,-111.111111111111,4,2,10,60,0,0
54712,-111.111111111111,4,2,10,50,0,0
55212,-100.0,4,2,10,70,0,1
62712,-100.0,4,2,10,70,0,0
63212,-100.0,4,2,10,70,0,1
71212,-100.0,4,2,10,60,0,0
75212,-100.0,4,2,10,70,0,1
79212,-100.0,4,2,10,70,0,1
80712,-100.0,4,2,10,70,0,0
81212,-100.0,4,2,10,60,0,0
89024,-100.0,4,2,10,5,0,0
89212,-100.0,4,2,10,5,0,0

[Colours]
Combo1 : 195,195,195
Combo2 : 255,91,104
Combo3 : 253,181,72
Combo4 : 188,129,114

[HitObjects]
70,93,1212,6,0,L|83:156,1,58.4999982147217,6|0,0:0|0:0,0:0:0:0:
152,178,1462,2,0,L|139:241,1,58.4999982147217,0|0,0:0|0:0,0:0:0:0:
109,305,1712,2,0,P|157:273|214:278,1,116.999996429443,2|2,0:0|0:0,0:0:0:0:
348,350,2212,6,0,P|350:293|354:213,1,116.999996429443,2|0,0:0|0:0,0:0:0:0:
438,107,2712,2,0,P|440:165|442:223,1,116.999996429443,2|2,0:0|0:0,0:0:0:0:
334,117,3212,6,0,L|265:105,1,58.4999982147217,2|0,0:0|0:0,0:0:0:0:
234,43,3462,2,0,L|176:53,1,58.4999982147217,0|0,0:0|0:0,0:0:0:0:
109,89,3712,2,0,P|106:147|104:205,1,116.999996429443,2|2,0:0|0:0,0:0:0:0:
230,289,4212,6,0,P|265:243|321:231,2,116.999996429443,2|2|2,0:0|0:0|0:0,0:0:0:0:
287,147,4962,1,2,0:0:0:0:
400,264,5212,6,0,L|473:248,1,58.4999982147217,12|0,0:0|0:0,0:0:0:0:
497,180,5462,2,0,L|424:164,1,58.4999982147217,8|0,0:0|0:0,0:0:0:0:
400,96,5712,2,0,L|473:80,2,58.4999982147217,8|0|8,0:0|0:0|0:0,0:0:0:0:
321,231,6212,6,0,P|262:222|190:215,1,116.999996429443,8|8,0:0|0:0,0:0:0:0:
66,129,6712,2,0,P|100:85|182:92,1,116.999996429443,10|8,0:0|0:0,0:0:0:0:
221,131,7087,1,0,0:0:0:0:
221,131,7212,6,0,L|290:120,1,58.4999982147217,12|0,0:0|0:0,0:0:0:0:
320,51,7462,2,0,L|377:60,1,58.4999982147217,8|0,0:0|0:0,0:0:0:0:
420,133,7712,2,0,P|452:99|455:28,1,116.999996429443,8|8,0:0|0:0,0:0:0:0:
326,131,8212,6,0,L|345:200,1,58.4999982147217,8|0,0:0|0:0,0:0:0:0:
416,222,8462,2,0,L|397:291,1,58.4999982147217,8|0,0:0|0:0,0:0:0:0:
356,347,8712,2,0,L|242:315,1,116.999996429443,10|10,0:0|0:0,0:0:0:0:
68,248,9212,6,0,L|181:216,2,116.999996429443,12|8|8,0:0|0:0|0:0,0:0:0:0:
181,99,9962,1,8,1:2:0:0:
241,275,10212,6,0,P|264:221|247:166,1,116.999996429443,8|8,1:2|1:2,0:0:0:0:
75,240,10712,2,0,P|51:293|69:349,1,116.999996429443,10|12,0:0|0:1,0:0:0:0:
241,275,11212,6,0,P|303:268|373:264,1,116.999996429443,4|8,0:0|0:0,0:0:0:0:
437,312,11587,1,8,0:1:0:0:
487,233,11712,2,0,P|485:203|481:174,2,58.4999982147217,8|8|8,0:0|0:1|0:0,0:0:0:0:
423,56,12212,6,0,P|393:57|364:61,1,58.4999982147217,8|8,0:1|0:1,0:0:0:0:
286,113,12462,2,0,P|256:111|227:107,1,58.4999982147217,8|8,0:1|0:0,0:0:0:0:
166,37,12712,2,0,P|136:38|107:42,1,58.4999982147217,8|4,0:3|0:3,0:0:0:0:
39,107,12962,1,8,0:1:0:0:
160,275,13212,6,0,P|161:210|159:145,1,130,12|8,0:0|0:1,0:0:0:0:
72,203,13587,1,0,0:0:0:0:
72,203,13712,2,0,P|71:235|71:267,2,65,8|8|8,0:0|0:0|0:1,0:0:0:0:
226,343,14212,6,0,P|275:303|339:307,1,130,8|8,0:0|0:1,0:0:0:0:
418,375,14587,1,8,0:0:0:0:
488,298,14712,2,0,P|489:270|491:231,1,65,0|8,0:0|0:0,0:0:0:0:
409,168,14962,2,0,P|407:140|406:101,1,65,8|0,0:1|0:0,0:0:0:0:
313,56,15212,6,0,P|260:14|196:15,2,130,8|8|8,0:0|0:1|0:0,0:0:0:0:
228,110,15837,1,8,0:0:0:0:
228,110,15962,2,0,L|237:187,1,65,8|0,0:1|0:0,0:0:0:0:
159,247,16212,6,0,L|143:117,1,130,8|8,0:0|0:1,0:0:0:0:
65,49,16587,1,8,0:0:0:0:
65,49,16712,2,0,L|49:124,1,65,0|8,0:0|0:0,0:0:0:0:
15,210,16962,1,8,0:1:0:0:
168,325,17212,6,0,P|209:277|272:276,1,130,12|8,0:1|0:0,0:0:0:0:
322,367,17587,2,0,P|387:349|448:337,1,130,12|8,0:1|0:0,0:0:0:0:
508,251,17962,2,0,P|475:242|444:236,1,65,12|8,0:1|0:0,0:0:0:0:
342,211,18212,1,8,0:0:0:0:
342,211,18337,6,0,P|343:138|346:74,1,130,12|8,0:1|0:0,0:0:0:0:
255,27,18712,2,0,P|256:59|256:91,1,65,12|8,0:1|0:0,0:0:0:0:
171,151,18962,2,0,P|171:118|172:86,1,65,12|8,0:1|0:0,0:0:0:0:
84,142,19212,6,0,P|101:203|155:236,1,130,12|8,0:1|0:0,0:0:0:0:
251,194,19587,1,8,0:1:0:0:
312,277,19712,2,0,P|299:316|290:349,2,65,8|8|4,0:0|0:0|0:3,0:0:0:0:
496,180,20212,6,0,P|457:167|424:158,1,65,8|8,0:1|0:0,0:0:0:0:
363,83,20462,2,0,P|331:91|301:102,1,65,8|8,0:3|0:3,0:0:0:0:
251,194,20712,2,0,P|212:181|179:172,2,65,4|4|4,0:3|0:3|0:3,0:0:0:0:
434,160,21212,6,0,P|421:222|411:290,2,116.999996429443,12|8|8,0:0|0:0|0:0,0:0:0:0:
363,83,21837,1,0,0:0:0:0:
363,83,21962,1,8,0:0:0:0:
251,194,22212,6,0,P|196:210|144:185,1,116.999996429443,8|8,0:0|0:0,0:0:0:0:
40,28,22712,2,0,P|56:93|65:153,1,116.999996429443,10|8,0:0|0:0,0:0:0:0:
33,231,23087,1,0,0:0:0:0:
33,231,23212,6,0,P|25:263|20:293,1,58.4999982147217,12|8,0:0|0:0,0:0:0:0:
114,287,23462,2,0,P|121:315|125:344,1,58.4999982147217,8|8,0:1|0:0,0:0:0:0:
208,300,23712,2,0,P|253:265|311:264,1,116.999996429443,10|10,0:0|0:0,0:0:0:0:
381,327,24087,1,0,0:0:0:0:
462,280,24212,6,0,L|470:214,1,58.4999982147217,8|4,0:3|0:3,0:0:0:0:
383,181,24462,2,0,L|375:122,1,58.4999982147217,8|8,0:0|0:0,0:0:0:0:
464,91,24712,2,0,L|471:32,2,58.4999982147217,8|8|8,0:1|0:0|0:1,0:0:0:0:
303,163,25212,6,0,P|246:149|188:143,1,116.999996429443,12|8,0:0|0:1,0:0:0:0:
54,257,25712,2,0,P|60:285|63:314,1,58.4999982147217,8|8,0:0|0:1,0:0:0:0:
144,349,25962,2,0,P|146:319|153:291,1,58.4999982147217,0|8,0:0|0:0,0:0:0:0:
218,231,26212,6,0,P|262:195|320:189,1,116.999996429443,8|0,0:1|0:0,0:0:0:0:
360,268,26587,2,0,P|315:304|257:310,1,116.999996429443,8|8,0:0|0:0,0:0:0:0:
170,297,26962,1,8,0:1:0:0:
43,175,27212,6,0,P|40:123|43:39,1,116.999996429443,8|8,0:0|0:1,0:0:0:0:
127,38,27587,1,0,0:0:0:0:
127,38,27712,2,0,P|125:64|127:106,2,58.4999982147217,8|8|0,0:0|0:1|0:0,0:0:0:0:
256,156,28212,6,0,P|312:149|341:101,1,116.999996429443,8|0,0:1|0:0,0:0:0:0:
403,163,28587,2,0,P|386:207|370:288,1,116.999996429443,8|8,0:0|0:0,0:0:0:0:
385,361,28962,1,8,0:1:0:0:
258,239,29212,5,12,0:0:0:0:
138,367,29462,2,0,P|80:357|21:352,1,116.999996429443,8|8,0:1|0:0,0:0:0:0:
10,264,29837,1,8,0:1:0:0:
10,264,29962,1,0,0:0:0:0:
184,288,30212,6,0,P|212:283|242:280,2,58.4999982147217,8|8|0,0:1|0:0|0:0,0:0:0:0:
110,238,30587,2,0,P|84:186|89:128,1,116.999996429443,8|8,0:0|0:0,0:0:0:0:
162,79,30962,2,0,P|175:53|172:24,1,58.4999982147217,8|0,0:1|0:0,0:0:0:0:
257,47,31212,6,0,L|395:32,1,116.999996429443,12|8,0:0|0:1,0:0:0:0:
442,88,31587,1,0,0:0:0:0:
442,88,31712,2,0,L|430:153,1,58.4999982147217,8|8,0:0|0:1,0:0:0:0:
346,168,31962,2,0,L|358:233,1,58.4999982147217,0|8,0:0|0:1,0:0:0:0:
429,274,32212,6,0,L|417:339,2,58.4999982147217,8|8|0,0:0|0:1|0:0,0:0:0:0:
492,212,32587,1,8,0:1:0:0:
342,304,32837,1,4,0:3:0:0:
342,304,32962,2,0,L|284:293,1,58.4999982147217,4|4,0:3|0:3,0:0:0:0:
229,231,33212,6,0,P|203:275|208:326,1,104,12|8,0:0|0:0,0:0:0:0:
396,365,33712,2,0,P|422:320|417:269,1,104,8|8,0:1|0:0,0:0:0:0:
386,192,34087,1,0,0:0:0:0:
386,192,34212,6,0,L|268:170,1,104,8|8,0:0|0:0,0:0:0:0:
201,158,34587,1,8,0:0:0:0:
249,90,34712,2,0,L|308:101,1,52,8|0,0:1|0:0,0:0:0:0:
357,38,34962,2,0,L|416:49,1,52,8|8,0:0|0:3,0:0:0:0:
473,99,35212,6,0,P|457:155|446:213,1,104,8|0,0:0|0:0,0:0:0:0:
383,250,35587,1,8,0:0:0:0:
383,250,35712,2,0,P|391:278|396:307,1,52,8|8,0:1|0:0,0:0:0:0:
329,352,35962,1,0,0:0:0:0:
272,194,36212,6,0,P|233:162|182:161,1,104,8|8,0:0|0:0,0:0:0:0:
116,212,36587,1,4,0:3:0:0:
41,175,36712,2,0,L|47:122,1,52,8|8,0:1|0:0,0:0:0:0:
124,94,36962,2,0,L|118:42,1,52,8|8,0:1|0:1,0:0:0:0:
220,59,37212,6,0,P|292:48|365:41,2,130,12|8|8,0:0|0:1|0:0,0:0:0:0:
179,155,37837,1,8,0:0:0:0:
179,155,37962,2,0,P|184:191|188:227,1,65,8|0,0:1|0:0,0:0:0:0:
193,324,38212,6,0,P|229:318|265:315,1,65,8|0,0:0|0:0,0:0:0:0:
327,237,38462,2,0,P|359:240|391:245,1,65,8|8,0:1|0:0,0:0:0:0:
481,296,38712,2,0,P|490:231|497:167,1,130,0|8,0:0|0:1,0:0:0:0:
448,75,39087,1,0,0:0:0:0:
354,119,39212,6,0,P|290:113|243:69,2,130,8|8|8,0:0|0:1|0:0,0:0:0:0:
412,206,39837,1,8,0:0:0:0:
412,206,39962,1,8,0:1:0:0:
250,336,40212,6,0,P|248:283|238:200,1,130,12|8,0:1|0:0,0:0:0:0:
155,143,40587,1,4,0:3:0:0:
155,143,40712,2,0,P|154:169|149:211,1,65,8|8,0:1|0:1,0:0:0:0:
68,274,40962,1,8,0:1:0:0:
26,178,41087,1,8,0:1:0:0:
83,85,41212,6,0,P|118:58|215:74,1,130,12|8,0:0|0:0,0:0:0:0:
305,243,41712,2,0,L|229:229,1,65,8|0,0:0|0:0,0:0:0:0:
291,331,41962,2,0,L|367:317,1,65,8|0,0:0|0:0,0:0:0:0:
396,223,42212,6,0,P|373:180|297:150,1,130,8|8,0:0|0:0,0:0:0:0:
241,231,42587,1,0,0:0:0:0:
165,159,42712,2,0,L|184:92,2,65,8|0|8,0:0|0:0|0:0,0:0:0:0:
321,20,43212,5,12,0:0:0:0:
321,20,43337,1,8,0:0:0:0:
321,20,43462,2,0,L|356:145,1,130,10|8,0:0|0:0,0:0:0:0:
422,221,43837,1,0,0:0:0:0:
422,221,43962,2,0,L|404:283,1,65,8|0,0:0|0:0,0:0:0:0:
322,348,44212,5,12,0:0:0:0:
322,348,44337,1,8,0:0:0:0:
322,348,44462,2,0,P|272:307|208:305,1,130,10|8,0:0|0:1,0:0:0:0:
121,363,44837,1,8,0:1:0:0:
27,317,44962,1,8,0:1:0:0:
19,212,45087,1,8,0:1:0:0:
105,153,45212,6,0,P|175:144|239:139,1,116.999996429443,12|8,0:0|0:1,0:0:0:0:
314,151,45587,1,0,0:0:0:0:
314,151,45712,2,0,P|311:180|307:209,1,58.4999982147217,8|8,0:0|0:0,0:0:0:0:
212,235,45962,2,0,P|214:264|218:293,1,58.4999982147217,8|0,0:1|0:0,0:0:0:0:
301,338,46212,6,0,P|353:360|408:344,1,116.999996429443,8|8,0:0|0:1,0:0:0:0:
472,276,46587,2,0,P|474:217|472:159,1,116.999996429443,8|8,0:0|0:0,0:0:0:0:
386,119,46962,2,0,P|386:148|385:177,1,58.4999982147217,8|8,0:1|0:0,0:0:0:0:
313,237,47212,6,0,P|263:203|207:204,2,116.999996429443,8|8|8,0:0|0:1|0:0,0:0:0:0:
235,291,47837,1,8,0:0:0:0:
235,291,47962,2,0,L|158:288,1,58.4999982147217,8|8,0:1|0:0,0:0:0:0:
109,353,48212,6,0,L|32:356,1,58.4999982147217,8|0,0:1|0:0,0:0:0:0:
19,267,48462,2,0,L|10:227,2,38.9999988098145,8|8|8,0:1|0:3|0:0,0:0:0:0:
62,269,48712,2,0,L|120:266,1,58.4999982147217,8|8,0:1|0:3,0:0:0:0:
191,205,48962,2,0,L|249:207,1,58.4999982147217,4|8,0:3|0:0,0:0:0:0:
310,278,49212,6,0,P|337:234|325:153,1,116.999996429443,12|0,0:1|0:0,0:0:0:0:
177,66,49712,2,0,P|114:52|44:39,1,116.999996429443,12|0,0:1|0:0,0:0:0:0:
9,120,50087,1,8,0:0:0:0:
59,211,50212,6,0,P|105:177|163:173,1,116.999996429443,12|0,0:1|0:0,0:0:0:0:
231,238,50587,1,8,0:0:0:0:
311,189,50712,2,0,P|348:182|391:181,1,58.4999982147217,12|8,0:1|0:0,0:0:0:0:
462,187,50962,2,0,P|459:157|453:129,1,58.4999982147217,0|8,0:0|0:0,0:0:0:0:
385,64,51211,5,12,0:1:0:0:
385,348,51712,1,12,0:1:0:0:
218,118,52212,1,12,0:1:0:0:
488,206,52712,1,12,0:1:0:0:
218,293,53212,5,2,0:0:0:0:
256,192,53274,12,8,54212,0:0:0:0:
82,171,54712,6,0,L|101:228,2,38.9999988098145,10|8|8,0:3|0:3|0:3,2:0:0:0:
148,136,54962,2,0,L|160:99,2,38.9999988098145,14|4|4,0:3|0:3|0:3,2:0:0:0:
203,184,55212,6,0,P|255:147|318:152,1,130,12|8,0:0|0:1,0:0:0:0:
392,217,55587,1,0,0:0:0:0:
335,296,55712,2,0,L|260:289,1,65,8|8,0:0|0:0,0:0:0:0:
185,339,55962,2,0,L|120:345,1,65,8|0,0:1|0:0,0:0:0:0:
46,279,56212,6,0,P|43:214|45:149,1,130,8|8,0:0|0:1,0:0:0:0:
113,78,56587,1,8,0:0:0:0:
180,147,56712,2,0,P|214:143|246:137,1,65,0|8,0:0|0:0,0:0:0:0:
286,49,56962,2,0,P|318:52|350:58,1,65,8|0,0:1|0:0,0:0:0:0:
403,144,57212,6,0,P|444:96|447:32,2,130,8|8|8,0:0|0:1|0:0,0:0:0:0:
350,58,57837,1,8,0:0:0:0:
280,126,57962,2,0,P|292:155|302:186,1,65,8|0,0:1|0:0,0:0:0:0:
240,262,58212,6,0,P|273:227|372:225,1,130,8|8,0:0|0:1,0:0:0:0:
443,246,58587,1,8,0:0:0:0:
443,246,58712,2,0,L|416:326,1,65,0|8,0:0|0:0,0:0:0:0:
344,366,58962,2,0,L|323:304,1,65,8|0,0:1|0:0,0:0:0:0:
238,351,59212,6,0,P|174:339|95:328,1,130,12|8,0:0|0:1,0:0:0:0:
35,266,59587,1,0,0:0:0:0:
87,184,59712,2,0,P|142:212|198:183,1,130,8|8,0:0|0:1,0:0:0:0:
247,99,60087,1,0,0:0:0:0:
298,181,60212,6,0,L|377:170,1,65,8|0,0:0|0:0,0:0:0:0:
425,97,60462,2,0,L|346:86,1,65,8|8,0:1|0:0,0:0:0:0:
422,12,60712,2,0,L|487:4,2,65,0|8|8,0:0|0:0|0:1,0:0:0:0:
236,34,61212,6,0,L|249:111,1,65,12|8,0:1|0:0,0:0:0:0:
255,195,61462,1,8,0:0:0:0:
169,240,61587,2,0,L|156:163,1,65,12|8,0:1|0:0,0:0:0:0:
150,79,61837,1,8,0:0:0:0:
53,59,61962,2,0,L|64:124,1,65,8|8,0:1|0:0,0:0:0:0:
72,220,62212,6,0,L|45:242,4,32.5,8|8|8|8|8,0:1|0:0|0:0|0:0|0:3,0:0:0:0:
141,158,62587,1,4,0:3:0:0:
169,240,62712,2,0,L|293:217,1,97.5,4|8,0:3|0:0,0:0:0:0:
298,257,62962,2,0,L|361:244,1,65,8|0,0:1|0:0,0:0:0:0:
454,201,63212,6,0,P|408:155|345:145,1,130,12|8,0:0|0:1,0:0:0:0:
257,88,63587,1,0,0:0:0:0:
199,174,63712,2,0,L|207:239,1,65,8|8,0:0|0:0,0:0:0:0:
177,338,63962,2,0,L|112:346,1,65,8|0,0:1|0:0,0:0:0:0:
43,259,64212,6,0,P|41:190|34:124,1,130,8|8,0:0|0:1,0:0:0:0:
25,32,64587,1,8,0:0:0:0:
113,71,64712,2,0,P|116:103|117:135,1,65,0|8,0:0|0:0,0:0:0:0:
210,108,64962,2,0,P|210:75|214:43,1,65,8|0,0:1|0:0,0:0:0:0:
306,74,65212,6,0,P|356:34|420:35,2,130,8|8|8,0:0|0:1|0:0,0:0:0:0:
210,108,65837,1,8,0:0:0:0:
267,186,65962,2,0,L|344:176,1,65,8|0,0:1|0:0,0:0:0:0:
429,170,66212,6,0,P|463:224|474:288,1,130,8|8,0:0|0:1,0:0:0:0:
410,361,66587,1,8,0:0:0:0:
410,361,66712,2,0,L|334:357,1,65,0|8,0:0|0:0,0:0:0:0:
283,281,66962,2,0,L|218:284,1,65,8|0,0:1|0:0,0:0:0:0:
124,254,67212,6,0,P|65:234|35:176,1,130,12|8,0:0|0:1,0:0:0:0:
70,85,67587,1,0,0:0:0:0:
164,110,67712,2,0,P|228:109|293:106,1,130,8|8,0:0|0:1,0:0:0:0:
369,43,68087,1,8,0:0:0:0:
386,136,68212,6,0,L|405:211,1,65,8|0,0:0|0:0,0:0:0:0:
303,199,68462,2,0,L|287:262,1,65,8|8,0:1|0:0,0:0:0:0:
188,262,68712,2,0,L|203:325,2,65,0|8|8,0:0|0:0|0:1,0:0:0:0:
63,111,69212,6,0,P|111:69|174:63,1,130,12|8,0:1|0:0,0:0:0:0:
223,142,69587,2,0,P|190:197|187:261,1,130,4|8,0:3|0:0,0:0:0:0:
273,306,69962,2,0,L|272:229,1,65,8|8,0:1|0:0,0:0:0:0:
338,168,70212,5,8,0:3:0:0:
338,168,70337,1,8,0:3:0:0:
338,168,70462,2,0,L|410:158,1,65,4|4,0:3|0:3,0:0:0:0:
464,84,70712,2,0,L|428:79,4,32.5,8|8|8|8|4,0:1|0:0|0:3|0:0|0:3,0:0:0:0:
479,278,71212,6,0,P|425:248|355:257,1,130,12|0,0:0|0:0,0:0:0:0:
273,306,71587,2,0,L|318:327,2,32.5,8|0|8,0:0|0:0|0:1,0:0:0:0:
244,126,71962,1,8,0:0:0:0:
109,248,72212,5,8,0:0:0:0:
109,248,72337,2,0,P|100:183|93:129,1,97.5,8|0,0:1|0:0,0:0:0:0:
65,117,72587,2,0,P|69:84|73:57,2,32.5,8|8|8,0:0|0:0|0:1,0:0:0:0:
210,227,72962,1,8,0:0:0:0:
328,90,73212,6,0,P|287:44|216:39,1,130,12|0,0:0|0:0,0:0:0:0:
244,126,73587,2,0,L|274:170,2,32.5,8|0|8,0:0|0:0|0:1,0:0:0:0:
389,15,73962,1,8,0:0:0:0:
468,178,74212,5,8,0:0:0:0:
467,178,74337,2,0,P|447:222|433:268,1,97.5,8|0,0:1|0:0,0:0:0:0:
398,298,74587,2,0,P|392:282|385:268,2,32.5,8|0|8,0:0|0:0|0:1,0:0:0:0:
272,165,74962,2,0,P|264:179|259:194,2,32.5,8|8|8,0:1|0:1|0:1,0:0:0:0:
313,75,75212,6,0,P|254:53|177:40,2,130,12|8|8,0:0|0:1|0:0,0:0:0:0:
375,149,75837,1,8,0:0:0:0:
461,103,75962,2,0,P|472:132|478:171,1,65,8|0,0:1|0:0,0:0:0:0:
468,262,76212,6,0,P|411:232|348:243,1,130,8|8,0:0|0:1,0:0:0:0:
287,320,76587,1,8,0:0:0:0:
203,270,76712,2,0,L|199:203,1,65,0|8,0:0|0:0,0:0:0:0:
102,194,76962,2,0,L|105:129,1,65,8|8,0:1|0:0,0:0:0:0:
162,40,77212,6,0,P|223:35|296:32,1,130,12|8,0:1|0:1,0:0:0:0:
367,104,77587,1,8,0:0:0:0:
287,171,77712,2,0,P|256:168|220:167,1,65,8|8,0:1|0:0,0:0:0:0:
247,267,77962,2,0,P|279:264|311:263,1,65,8|8,0:1|0:0,0:0:0:0:
376,343,78212,6,0,P|412:291|410:227,1,130,8|8,0:1|0:1,0:0:0:0:
311,263,78587,1,8,0:0:0:0:
233,192,78712,2,0,P|235:160|240:128,1,65,8|8,0:1|0:0,0:0:0:0:
325,68,78962,1,8,0:1:0:0:
375,158,79087,1,8,0:1:0:0:
311,263,79212,5,12,0:0:0:0:
256,192,79274,12,8,80712,0:0:0:0:
65,85,81212,6,0,P|50:149|41:215,2,130,12|8|8,0:0|0:0|0:0,0:0:0:0:
156,50,81837,1,0,0:0:0:0:
156,50,81962,2,0,P|148:82|144:115,1,65,8|0,0:0|0:0,0:0:0:0:
200,193,82212,6,0,P|231:185|263:181,1,65,8|0,0:0|0:0,0:0:0:0:
334,113,82462,2,0,P|366:117|397:124,1,65,8|0,0:0|0:0,0:0:0:0:
432,216,82712,2,0,P|463:208|495:204,2,65,10|0|10,0:0|0:0|0:0,0:0:0:0:
369,290,83087,1,0,0:0:0:0:
273,269,83212,6,0,P|267:204|260:139,1,130,8|8,0:0|0:0,0:0:0:0:
184,77,83587,1,0,0:0:0:0:
184,77,83712,2,0,P|180:109|177:141,1,65,8|0,0:0|0:0,0:0:0:0:
83,169,83962,2,0,P|79:201|76:233,1,65,8|0,0:0|0:0,0:0:0:0:
136,311,84212,5,8,0:0:0:0:
136,311,84337,1,0,0:0:0:0:
136,311,84462,2,0,L|226:305,1,65,8|0,0:0|0:0,0:0:0:0:
296,327,84712,2,0,L|291:262,1,65,8|8,0:1|0:3,0:0:0:0:
387,246,84962,2,0,L|391:181,1,65,4|8,0:3|0:0,0:0:0:0:
312,122,85212,6,0,P|363:84|426:86,1,130,12|0,0:1|0:0,0:0:0:0:
465,304,85712,2,0,P|413:342|350:340,1,130,8|0,0:1|0:0,0:0:0:0:
270,284,86087,1,8,0:1:0:0:
187,336,86212,6,0,L|109:326,2,65,8|8|0,0:0|0:1|0:0,0:0:0:0:
175,239,86587,1,8,0:0:0:0:
79,219,86712,2,0,P|71:189|70:154,1,65,8|0,0:1|0:0,0:0:0:0:
165,132,86962,2,0,P|173:102|173:67,1,65,0|8,0:0|0:0,0:0:0:0:
261,108,87212,6,0,P|312:69|376:71,1,130,12|0,0:1|0:0,0:0:0:0:
436,149,87587,1,8,0:0:0:0:
436,149,87712,2,0,P|417:174|399:212,1,65,8|8,0:1|0:0,0:0:0:0:
327,267,87962,2,0,P|346:292|364:330,1,65,0|8,0:0|0:0,0:0:0:0:
267,347,88212,6,0,L|217:333,2,32.5,10|2|10,0:1|0:2|0:0,0:0:0:0:
327,267,88462,2,0,L|396:259,1,65,4|4,0:3|0:3,0:0:0:0:
480,219,88712,5,8,0:1:0:0:
261,108,88962,1,12,0:1:0:0:
