osu file format v14

[General]
AudioFilename: audio.mp3
AudioLeadIn: 0
PreviewTime: 55087
Countdown: 0
SampleSet: Soft
StackLeniency: 0.3
Mode: 0
LetterboxInBreaks: 0
WidescreenStoryboard: 0

[Editor]
DistanceSpacing: 1
BeatDivisor: 2
GridSize: 32
TimelineZoom: 3.399999

[Metadata]
Title:Los! Los! Los!
TitleUnicode:Los! Los! Los!
Artist:Tanya Degurechaff (CV: Yuki Aoi)
ArtistUnicode:ターニャ・デグレチャフ(CV:悠木碧)
Creator:Logic Agent
Version:Easy
Source:幼女戦記
Tags:Youjo Senki Saga of Tanya the Evil ED ending TV Size yuuki losloslos Akitoshi Xinely Kalibe Mun pkhg Plaudible Hobbes2 Lasse
BeatmapID:1210471
BeatmapSetID:570679

[Difficulty]
HPDrainRate:2
CircleSize:3
OverallDifficulty:2
ApproachRate:3
SliderMultiplier:0.699999999999999
SliderTickRate:1

[Events]
//Background and Video events
0,0,"792738.jpg",0,0
Video,592,"ed.avi"
//Break Periods
2,21412,23772
//Storyboard Layer 0 (Background)
//Storyboard Layer 1 (Fail)
//Storyboard Layer 2 (Pass)
//Storyboard Layer 3 (Foreground)
//Storyboard Sound Samples

[TimingPoints]
1212,250,4,2,10,40,1,0
1212,-100,4,2,10,40,0,0
5212,-100,4,2,10,50,0,0
7212,-100,4,2,10,53,0,0
9212,-100,4,2,10,55,0,0
11212,-100,4,2,10,57,0,0
13212,-100,4,2,10,60,0,0
17212,-100,4,2,10,60,0,0
21212,-100,4,2,10,50,0,0
23212,-100,4,2,10,55,0,0
25212,-100,4,2,10,55,0,0
33212,-100,4,2,10,50,0,0
37212,-100,4,2,10,60,0,0
41212,-100,4,2,10,50,0,0
45212,-100,4,2,10,60,0,0
49212,-100,4,2,10,60,0,0
51212,-100,4,2,10,60,0,0
51712,-100,4,2,10,60,0,0
52212,-100,4,2,10,70,0,0
52712,-100,4,2,10,70,0,0
53212,-100,4,2,10,60,0,0
53295,-100,4,2,10,5,0,0
54212,-100,4,2,10,60,0,0
54712,-100,4,2,10,50,0,0
54962,-100,4,2,10,50,0,0
55212,-100,4,2,10,70,0,1
61212,-100,4,2,10,70,0,1
62212,-100,4,2,10,70,0,1
62712,-100,4,2,10,70,0,0
63212,-100,4,2,10,70,0,1
69212,-100,4,2,10,70,0,1
71212,-100,4,2,10,60,0,0
75212,-100,4,2,10,70,0,1
77212,-100,4,2,10,70,0,1
79212,-100,4,2,10,70,0,1
80712,-100,4,2,10,70,0,1
81212,-100,4,2,10,60,0,0
87212,-100,4,2,10,60,0,0
88712,-100,4,2,10,60,0,0
89024,-100,4,2,10,5,0,0

[Colours]
Combo1 : 195,195,195
Combo2 : 255,91,104
Combo3 : 253,181,72
Combo4 : 188,129,114

[HitObjects]
14,173,1212,6,0,P|49:58|149:124,1,280,6|2,0:0|0:0,0:0:0:0:
108,258,2712,1,2,0:0:0:0:
213,349,3212,2,0,B|304:325|304:325|380:365|380:365|474:333,1,280,2|2,0:0|0:0,0:0:0:0:
379,230,4712,1,2,0:0:0:0:
501,160,5212,6,0,P|499:91|493:21,2,140,12|8|8,0:0|0:0|0:0,0:0:0:0:
386,80,6712,1,10,0:0:0:0:
258,140,7212,2,0,P|191:132|148:78,1,140,12|8,0:0|0:0,0:0:0:0:
23,14,8212,2,0,P|40:85|48:151,1,140,8|10,0:0|0:0,0:0:0:0:
69,290,9212,6,0,P|136:272|205:259,2,140,12|8|8,0:0|0:0|1:2,0:0:0:0:
120,159,10712,1,10,0:0:0:0:
250,106,11212,6,0,P|358:31|478:95,1,280,4|8,0:0|0:1,0:0:0:0:
487,233,12712,1,8,0:3:0:0:
369,162,13212,6,0,P|325:216|300:281,1,140,12|8,0:0|0:0,0:0:0:0:
186,363,14212,2,0,L|47:348,1,140,8|0,0:0|0:0,0:0:0:0:
18,210,15212,2,0,P|53:146|117:112,2,140,8|8|8,0:0|0:0|0:0,0:0:0:0:
154,250,16712,1,0,0:0:0:0:
204,119,17212,6,0,P|317:152|386:91,1,210,12|12,0:1|0:1,0:0:0:0:
453,55,18212,1,8,0:0:0:0:
484,220,18712,1,12,0:1:0:0:
428,348,19212,2,0,P|368:312|299:305,1,140,12|8,0:1|0:0,0:0:0:0:
165,346,20212,1,8,0:1:0:0:
78,235,20712,1,4,0:3:0:0:
193,155,21212,5,12,0:0:0:0:
88,74,25212,6,0,P|130:130|139:198,1,140,12|8,0:0|0:0,0:0:0:0:
105,319,26212,2,0,P|156:310|208:304,2,105,8|8|8,0:1|0:0|0:1,0:0:0:0:
44,260,27212,1,8,0:0:0:0:
20,122,27712,1,8,0:0:0:0:
123,27,28212,2,0,P|187:110|291:95,1,210,8|8,0:1|0:1,0:0:0:0:
356,60,29212,6,0,P|337:127|324:196,1,140,12|8,0:0|0:0,0:0:0:0:
359,330,30212,2,0,P|308:315|256:305,2,105,8|8|8,0:1|0:0|0:1,0:0:0:0:
433,290,31212,1,12,0:0:0:0:
359,170,31712,1,8,0:0:0:0:
488,116,32212,2,0,P|452:59|309:44,1,210,8|4,0:0|0:3,0:0:0:0:
245,79,33212,6,0,P|171:63|96:52,1,140,12|8,0:0|0:1,0:0:0:0:
8,153,34212,1,8,0:0:0:0:
96,261,34712,1,8,0:1:0:0:
214,177,35212,2,0,P|230:252|242:317,1,140,8|8,0:0|0:1,0:0:0:0:
377,348,36212,2,0,P|354:245|335:142,1,210,8|8,0:0|0:1,0:0:0:0:
343,58,37212,6,0,P|287:99|220:89,1,140,12|8,0:0|0:0,0:0:0:0:
83,62,38212,2,0,P|116:123|136:190,1,140,8|0,0:0|0:0,0:0:0:0:
120,329,39212,1,8,0:0:0:0:
244,265,39712,1,8,0:0:0:0:
369,327,40212,2,0,P|360:260|341:177,1,140,12|8,0:1|0:1,0:0:0:0:
290,59,41212,6,0,P|354:36|416:65,1,140,12|8,0:0|0:0,0:0:0:0:
342,189,42212,2,0,L|199:201,1,140,8|8,0:0|0:0,0:0:0:0:
108,97,43212,1,12,0:0:0:0:
60,228,43712,1,8,0:0:0:0:
12,359,44212,2,0,P|109:319|213:327,1,210,12|8,0:0|0:1,0:0:0:0:
280,375,45212,6,0,P|345:365|424:355,1,140,12|8,0:0|0:0,0:0:0:0:
453,219,46212,2,0,P|401:212|350:204,2,105,8|8|8,0:0|0:0|0:1,0:0:0:0:
504,152,47212,1,8,0:0:0:0:
415,43,47712,1,8,0:0:0:0:
278,74,48212,2,0,P|224:69|164:61,2,105,8|8|4,0:1|0:0|0:3,0:0:0:0:
347,121,49212,6,0,L|327:265,1,140,12|12,0:1|0:1,0:0:0:0:
219,347,50212,2,0,L|200:208,1,140,12|12,0:1|0:1,0:0:0:0:
183,69,51212,6,0,P|112:46|50:62,2,140,12|12|12,0:1|0:1|0:1,0:0:0:0:
110,188,52712,1,12,0:1:0:0:
256,192,53212,12,2,54212,0:0:0:0:
401,47,55212,6,0,L|430:186,1,140,12|8,0:0|0:0,0:0:0:0:
398,262,55962,1,8,0:1:0:0:
311,258,56212,2,0,L|282:120,1,140,8|0,0:0|0:0,0:0:0:0:
166,42,57212,2,0,P|96:43|37:79,1,140,8|8,0:0|0:0,0:0:0:0:
4,214,58212,6,0,P|51:263|56:332,2,140,8|0|12,0:0|0:0|0:0,0:0:0:0:
105,98,59712,1,8,0:0:0:0:
165,224,60212,2,0,P|233:204|302:203,1,140,8|0,0:0|0:0,0:0:0:0:
406,295,61212,6,0,P|410:241|420:183,2,105,12|12|8,0:1|0:1|0:1,0:0:0:0:
346,353,62212,2,0,P|268:340|200:335,1,140,8|4,0:1|0:3,0:0:0:0:
70,364,63212,6,0,P|38:304|45:235,1,140,12|8,0:0|0:0,0:0:0:0:
118,193,63962,1,8,0:1:0:0:
140,112,64212,2,0,P|84:103|-2:88,1,140,8|0,0:0|0:0,0:0:0:0:
8,228,65212,2,0,P|76:240|146:251,1,140,8|8,0:0|0:0,0:0:0:0:
282,285,66212,6,0,P|323:228|329:160,2,140,8|0|12,0:0|0:0|0:0,0:0:0:0:
198,171,67712,1,8,0:0:0:0:
257,44,68212,2,0,P|328:44|396:50,1,140,8|0,0:0|0:0,0:0:0:0:
475,77,68962,1,8,0:1:0:0:
483,160,69212,6,0,P|456:214|440:257,2,105,12|4|8,0:1|0:3|0:1,0:0:0:0:
403,133,70212,2,0,P|328:162|258:146,1,140,8|8,0:3|0:1,0:0:0:0:
177,48,71212,6,0,P|54:37|59:161,1,280,12|8,0:0|0:0,0:0:0:0:
181,228,72712,1,8,0:1:0:0:
178,371,73212,6,0,P|122:357|25:343,1,140,12|8,0:0|0:1,0:0:0:0:
2,209,74212,2,0,P|71:198|139:182,1,140,8|8,0:0|0:1,0:0:0:0:
278,194,75212,6,0,P|289:126|261:63,2,140,12|8|8,0:0|0:0|0:0,0:0:0:0:
139,181,76712,1,0,0:0:0:0:
176,315,77212,6,0,P|236:353|315:345,1,140,12|8,0:1|0:1,0:0:0:0:
355,220,78212,1,8,0:1:0:0:
435,334,78712,1,8,0:1:0:0:
490,205,79212,6,0,P|419:100|277:110,1,280,12|8,0:0|0:3,0:0:0:0:
355,220,80712,1,8,0:1:0:0:
215,204,81212,6,0,P|201:135|178:69,2,140,12|8|8,0:0|0:0|0:0,0:0:0:0:
75,219,82712,1,10,0:0:0:0:
134,345,83212,6,0,P|203:328|269:314,1,140,8|8,0:0|0:0,0:0:0:0:
410,279,84212,2,0,P|418:210|379:153,1,140,8|8,0:0|0:1,0:0:0:0:
265,86,85212,6,0,P|199:80|112:68,2,140,12|8|8,0:1|0:1|0:0,0:0:0:0:
395,35,86712,1,8,0:1:0:0:
432,169,87212,6,0,P|403:291|282:257,1,280,12|10,0:1|0:1,0:0:0:0:
191,150,88712,2,0,L|155:210,1,69.9999999999999,8|12,0:1|0:1,0:0:0:0:
