osu file format v14

[General]
AudioFilename: audio.mp3
AudioLeadIn: 0
PreviewTime: 55087
Countdown: 0
SampleSet: Soft
StackLeniency: 0.3
Mode: 0
LetterboxInBreaks: 0
WidescreenStoryboard: 0

[Editor]
DistanceSpacing: 1
BeatDivisor: 4
GridSize: 32
TimelineZoom: 2

[Metadata]
Title:Los! Los! Los!
TitleUnicode:Los! Los! Los!
Artist:Tanya Degurechaff (CV: Yuki Aoi)
ArtistUnicode:ターニャ・デグレチャフ(CV:悠木碧)
Creator:Logic Agent
Version:Akitoshi's Normal
Source:幼女戦記
Tags:Youjo Senki Saga of Tanya the Evil ED ending TV Size yuuki losloslos Akitoshi Xinely Kalibe Mun pkhg Plaudible Hobbes2 Lasse
BeatmapID:1214824
BeatmapSetID:570679

[Difficulty]
HPDrainRate:4
CircleSize:3
OverallDifficulty:4
ApproachRate:5
SliderMultiplier:0.899999999999999
SliderTickRate:1

[Events]
//Background and Video events
0,0,"792738.jpg",0,0
Video,592,"ed.avi"
//Break Periods
2,21412,24012
//Storyboard Layer 0 (Background)
//Storyboard Layer 1 (Fail)
//Storyboard Layer 2 (Pass)
//Storyboard Layer 3 (Foreground)
//Storyboard Sound Samples

[TimingPoints]
1212,250,4,2,10,40,1,0
1212,-100,4,2,10,40,0,0
5212,-100,4,2,10,50,0,0
7212,-100,4,2,10,53,0,0
9212,-100,4,2,10,55,0,0
11212,-100,4,2,10,57,0,0
13212,-100,4,2,10,60,0,0
17212,-100,4,2,10,60,0,0
21212,-100,4,2,10,50,0,0
23212,-100,4,2,10,55,0,0
25212,-100,4,2,10,55,0,0
33212,-100,4,2,10,50,0,0
37212,-100,4,2,10,60,0,0
41212,-100,4,2,10,50,0,0
45212,-100,4,2,10,60,0,0
49212,-100,4,2,10,60,0,0
51212,-100,4,2,10,60,0,0
51712,-100,4,2,10,60,0,0
52212,-100,4,2,10,70,0,0
52712,-100,4,2,10,70,0,0
53212,-100,4,2,10,60,0,0
53295,-100,4,2,10,5,0,0
54212,-100,4,2,10,60,0,0
54712,-100,4,2,10,50,0,0
54962,-100,4,2,10,50,0,0
55212,-100,4,2,10,70,0,1
61212,-100,4,2,10,70,0,1
62212,-100,4,2,10,70,0,1
62712,-100,4,2,10,70,0,0
63212,-100,4,2,10,70,0,1
69212,-100,4,2,10,70,0,1
71212,-100,4,2,10,60,0,0
75212,-100,4,2,10,70,0,1
77212,-100,4,2,10,70,0,1
79212,-100,4,2,10,70,0,1
80712,-100,4,2,10,70,0,1
81212,-100,4,2,10,60,0,0
87212,-100,4,2,10,60,0,0
88712,-100,4,2,10,60,0,0
89024,-100,4,2,10,5,0,0

[Colours]
Combo1 : 195,195,195
Combo2 : 255,91,104
Combo3 : 253,181,72
Combo4 : 188,129,114

[HitObjects]
49,142,1212,6,0,B|102:148|102:148|171:125|171:125|235:131,1,180,6|2,0:0|0:0,0:0:0:0:
377,224,2212,2,0,B|324:218|324:218|255:241|255:241|191:235,1,180,2|2,0:0|0:0,0:0:0:0:
116,264,2962,1,2,0:0:0:0:
181,326,3212,6,0,P|232:354|364:328,1,180,2|2,0:0|0:0,0:0:0:0:
475,211,4212,2,0,B|487:93|487:93|435:42,1,180,2|2,0:0|0:0,0:0:0:0:
364,10,4962,1,2,0:0:0:0:
285,54,5212,6,0,B|220:60|220:60|175:45|175:45|108:49,1,180,12|8,0:0|0:0,0:0:0:0:
37,104,5962,1,8,0:0:0:0:
11,190,6212,2,0,P|13:234|39:275,1,89.9999999999999,8|8,0:0|0:0,0:0:0:0:
118,309,6712,2,0,P|162:307|203:281,1,89.9999999999999,10|8,0:0|0:0,0:0:0:0:
257,214,7212,6,0,B|341:191|354:246|438:215,1,180,12|8,0:0|0:0,0:0:0:0:
494,149,7962,1,8,0:0:0:0:
437,78,8212,2,0,P|394:64|343:71,1,89.9999999999999,8|8,0:0|0:0,0:0:0:0:
272,113,8712,2,0,L|172:112,1,89.9999999999999,10|10,0:0|0:0,0:0:0:0:
92,109,9212,6,0,P|88:65|102:14,2,89.9999999999999,12|8|8,0:0|0:0|0:0,0:0:0:0:
129,191,9962,1,8,1:2:0:0:
184,261,10212,2,0,L|182:365,1,89.9999999999999,8|8,1:2|1:2,0:0:0:0:
271,360,10712,2,0,L|273:256,1,89.9999999999999,10|12,0:0|0:1,0:0:0:0:
280,180,11212,6,0,P|324:188|380:181,2,89.9999999999999,4|0|8,0:0|0:0|0:0,0:0:0:0:
211,121,11962,1,8,0:1:0:0:
147,57,12212,2,0,L|37:61,1,89.9999999999999,8|8,0:1|0:1,0:0:0:0:
4,133,12712,1,4,0:2:0:0:
4,223,12962,1,12,0:1:0:0:
57,295,13212,6,0,B|104:309|145:288|145:288|183:267|243:283,1,180,12|8,0:0|0:0,0:0:0:0:
309,327,13962,1,8,0:1:0:0:
398,313,14212,2,0,L|393:218,1,89.9999999999999,8|8,0:0|0:1,0:0:0:0:
330,158,14712,2,0,L|325:63,1,89.9999999999999,0|8,0:0|0:1,0:0:0:0:
244,27,15212,6,0,B|194:20|163:54|163:54|116:36|71:66,1,180,8|8,0:0|0:0,0:0:0:0:
19,133,15962,1,8,0:1:0:0:
19,223,16212,2,0,L|28:317,1,89.9999999999999,8|8,0:0|0:1,0:0:0:0:
99,366,16712,1,0,0:0:0:0:
188,352,16962,1,8,0:1:0:0:
226,270,17212,6,0,B|276:261|276:261|352:285|352:285|410:274,1,180,12|8,0:1|0:0,0:0:0:0:
466,213,17962,1,12,0:1:0:0:
429,130,18212,2,0,P|356:83|251:111,1,180,8|12,0:0|0:1,0:0:0:0:
195,151,18962,1,12,0:1:0:0:
125,207,19212,6,0,L|28:205,1,89.9999999999999,12|8,0:1|0:0,0:0:0:0:
33,295,19712,2,0,L|130:297,1,89.9999999999999,8|4,0:0|0:3,0:0:0:0:
213,298,20212,2,0,B|261:290|279:243|279:243|313:282|372:273,1,180,8|4,0:1|0:3,0:0:0:0:
471,133,21212,5,12,0:0:0:0:
471,133,25212,6,0,B|382:109|375:174|278:139,1,180,12|8,0:0|0:0,0:0:0:0:
211,110,25962,1,0,0:0:0:0:
163,186,26212,2,0,B|154:267|154:267|174:326,2,135,8|8|8,0:1|0:0|0:1,0:0:0:0:
211,110,27212,6,0,P|275:86|380:129,1,180,8|8,0:0|0:0,0:0:0:0:
421,201,27962,1,0,0:0:0:0:
386,283,28212,2,0,L|247:289,2,135,8|8|8,0:1|0:0|0:1,0:0:0:0:
421,201,29212,6,0,P|438:134|373:34,1,180,12|8,0:0|0:0,0:0:0:0:
298,21,29962,1,0,0:0:0:0:
221,69,30212,2,0,L|86:59,2,135,8|8|8,0:1|0:0|0:1,0:0:0:0:
303,104,31212,6,0,P|310:147|302:202,1,89.9999999999999,6|8,0:0|0:1,0:0:0:0:
221,227,31712,2,0,P|214:270|222:325,1,89.9999999999999,8|8,0:0|0:1,0:0:0:0:
134,346,32212,2,0,P|74:353|-11:325,2,135,8|8|4,0:0|0:1|0:3,0:0:0:0:
219,315,33212,6,0,B|279:309|279:309|336:340|336:340|409:333,1,180,12|8,0:0|0:1,0:0:0:0:
475,303,33962,1,8,0:0:0:0:
510,220,34212,2,0,L|501:114,2,89.9999999999999,8|8|8,0:0|0:0|0:1,0:0:0:0:
332,247,35212,6,0,B|200:253|200:253|140:227,1,180,8|8,0:0|0:1,0:0:0:0:
78,187,35962,1,0,0:0:0:0:
24,114,36212,2,0,P|31:64|55:27,2,89.9999999999999,8|8|8,0:0|0:0|0:1,0:0:0:0:
203,127,37212,6,0,P|293:118|393:111,1,180,12|8,0:0|0:0,0:0:0:0:
459,157,37962,1,8,0:1:0:0:
499,237,38212,2,0,P|504:279|478:325,1,89.9999999999999,8|8,0:0|0:1,0:0:0:0:
398,353,38712,2,0,P|356:358|310:332,1,89.9999999999999,0|8,0:0|0:1,0:0:0:0:
248,276,39212,6,0,B|198:270|198:270|114:288|114:288|54:280,1,180,8|8,0:0|0:0,0:0:0:0:
15,210,39962,1,8,0:1:0:0:
37,122,40212,2,0,P|85:99|139:102,1,89.9999999999999,12|8,0:1|0:0,0:0:0:0:
207,123,40712,2,0,P|255:146|309:143,1,89.9999999999999,8|8,0:1|0:1,0:0:0:0:
373,109,41212,6,0,L|366:15,2,89.9999999999999,12|8|8,0:0|0:0|0:0,0:0:0:0:
373,198,41962,1,8,0:0:0:0:
336,280,42212,2,0,P|291:285|241:273,1,89.9999999999999,8|8,0:0|0:0,0:0:0:0:
172,226,42712,2,0,P|127:220|77:232,1,89.9999999999999,8|8,0:0|0:0,0:0:0:0:
11,284,43212,6,0,L|18:375,2,89.9999999999999,12|8|8,0:0|0:0|0:0,0:0:0:0:
4,193,43962,1,8,0:0:0:0:
33,108,44212,2,0,B|77:116|77:116|132:106,1,89.9999999999999,8|8,0:0|0:0,0:0:0:0:
198,61,44712,1,8,0:1:0:0:
286,43,44962,1,8,0:1:0:0:
372,69,45212,6,0,P|402:141|362:231,1,180,12|8,0:0|0:0,0:0:0:0:
274,246,45962,1,8,0:1:0:0:
184,233,46212,2,0,B|175:321|175:321|196:380,2,135,8|8|8,0:0|0:0|0:1,0:0:0:0:
202,145,47212,6,0,P|150:87|39:93,1,180,8|8,0:0|0:0,0:0:0:0:
12,165,47962,1,8,0:1:0:0:
55,243,48212,2,0,L|40:382,2,135,8|8|4,0:1|0:0|0:3,0:0:0:0:
116,177,49212,6,0,B|203:147|205:215|302:175,1,180,12|12,0:1|0:1,0:0:0:0:
369,133,49962,1,0,0:0:0:0:
450,170,50212,2,0,P|489:220|470:335,1,180,12|12,0:1|0:1,0:0:0:0:
391,366,50962,1,0,0:0:0:0:
301,358,51212,5,12,0:1:0:0:
291,179,51712,1,12,0:1:0:0:
112,198,52212,1,12,0:1:0:0:
122,377,52712,1,12,0:1:0:0:
256,192,53212,12,2,54212,0:0:0:0:
206,100,55212,6,0,P|292:73|380:119,1,180,12|8,0:0|0:0,0:0:0:0:
423,181,55962,1,8,0:1:0:0:
396,267,56212,2,0,L|292:269,1,89.9999999999999,8|8,0:0|0:1,0:0:0:0:
242,332,56712,2,0,L|138:334,1,89.9999999999999,0|8,0:0|0:1,0:0:0:0:
70,294,57212,6,0,B|53:160|53:160|76:106,1,180,8|8,0:0|0:0,0:0:0:0:
121,43,57962,1,8,0:1:0:0:
203,79,58212,2,0,P|250:85|303:74,1,89.9999999999999,8|8,0:0|0:1,0:0:0:0:
371,35,58712,1,0,0:0:0:0:
454,68,58962,1,8,0:1:0:0:
482,153,59212,6,0,L|474:336,1,180,12|8,0:0|0:0,0:0:0:0:
391,367,59962,1,8,0:1:0:0:
320,310,60212,2,0,P|271:300|220:303,1,89.9999999999999,8|8,0:0|0:1,0:0:0:0:
146,331,60712,2,0,P|97:341|46:338,1,89.9999999999999,0|8,0:0|0:1,0:0:0:0:
12,261,61212,6,0,L|21:164,1,89.9999999999999,12|8,0:1|0:0,0:0:0:0:
43,84,61712,1,8,0:0:0:0:
125,48,61962,1,8,0:1:0:0:
210,76,62212,2,0,B|231:134|204:193|204:193|222:264,1,180,8|4,0:1|0:3,0:0:0:0:
242,337,62962,1,8,0:1:0:0:
328,360,63212,6,0,P|396:338|440:240,1,180,12|8,0:0|0:0,0:0:0:0:
426,155,63962,1,8,0:1:0:0:
378,78,64212,2,0,L|276:74,1,89.9999999999999,8|8,0:0|0:1,0:0:0:0:
213,125,64712,2,0,L|111:121,1,89.9999999999999,0|8,0:0|0:1,0:0:0:0:
47,169,65212,6,0,B|19:223|40:295|40:295|81:327,1,180,8|8,0:0|0:0,0:0:0:0:
162,361,65962,1,8,0:1:0:0:
234,308,66212,2,0,B|299:300|345:338|345:338|405:312,1,180,8|0,0:0|0:0,0:0:0:0:
486,283,66962,1,8,0:1:0:0:
505,195,67212,6,0,B|511:67|511:67|459:34,1,180,12|8,0:0|0:0,0:0:0:0:
380,13,67962,1,8,0:1:0:0:
305,62,68212,2,0,B|261:73|261:73|200:63,1,89.9999999999999,8|8,0:0|0:1,0:0:0:0:
128,47,68712,1,0,0:0:0:0:
45,83,68962,1,8,0:1:0:0:
28,171,69212,6,0,L|35:271,1,89.9999999999999,12|8,0:1|0:0,0:0:0:0:
88,333,69712,1,8,0:0:0:0:
175,355,69962,1,8,0:1:0:0:
251,307,70212,2,0,B|342:277|336:342|438:307,1,180,8|8,0:3|0:1,0:0:0:0:
490,246,70962,1,4,0:3:0:0:
426,182,71212,6,0,B|375:174|375:174|300:191|300:191|238:183,1,180,12|8,0:0|0:1,0:0:0:0:
185,120,71962,1,8,0:0:0:0:
248,56,72212,2,0,P|329:19|422:36,1,180,8|8,0:0|0:1,0:0:0:0:
447,210,73212,6,0,B|423:278|423:278|463:323|441:382,1,180,12|8,0:0|0:1,0:0:0:0:
359,342,73962,1,8,0:0:0:0:
277,379,74212,2,0,B|256:323|296:278|296:278|272:210,1,180,8|8,0:0|0:1,0:0:0:0:
228,132,74962,1,8,0:1:0:0:
162,70,75212,6,0,P|103:71|16:163,1,180,12|8,0:0|0:0,0:0:0:0:
34,239,75962,1,8,0:1:0:0:
94,305,76212,2,0,L|185:296,1,89.9999999999999,8|8,0:0|0:1,0:0:0:0:
247,232,76712,2,0,L|338:223,1,89.9999999999999,0|8,0:0|0:1,0:0:0:0:
400,159,77212,6,0,P|427:225|365:309,1,180,12|8,0:1|0:1,0:0:0:0:
279,316,77962,1,8,0:1:0:0:
247,232,78212,2,0,L|247:125,1,89.9999999999999,8|8,0:1|0:1,0:0:0:0:
183,78,78712,1,8,0:1:0:0:
93,78,78962,1,8,0:1:0:0:
29,141,79212,6,0,B|22:270|22:270|35:339,1,180,12|8,0:0|0:0,0:0:0:0:
103,373,79962,1,8,0:1:0:0:
176,320,80212,2,0,B|237:308|287:343|287:343|357:318,1,180,0|8,0:0|0:1,0:0:0:0:
353,142,81212,6,0,B|267:114|267:114|173:128,1,180,12|8,0:0|0:0,0:0:0:0:
89,143,81962,1,8,0:0:0:0:
24,205,82212,2,0,P|15:249|35:304,1,89.9999999999999,8|8,0:0|0:0,0:0:0:0:
89,357,82712,2,0,P|133:366|188:346,1,89.9999999999999,10|10,0:0|0:0,0:0:0:0:
233,285,83212,6,0,B|288:275|288:275|356:303|356:303|425:288,1,180,8|8,0:0|0:0,0:0:0:0:
467,226,83962,1,8,0:0:0:0:
436,141,84212,2,0,P|390:124|336:130,1,89.9999999999999,8|8,0:0|0:0,0:0:0:0:
263,151,84712,2,0,P|217:168|163:162,1,89.9999999999999,8|4,0:1|0:3,0:0:0:0:
122,93,85212,6,0,P|87:150|143:251,1,180,12|8,0:1|0:1,0:0:0:0:
210,287,85962,1,0,0:0:0:0:
286,239,86212,2,0,P|331:229|385:243,1,89.9999999999999,8|0,0:0|0:0,0:0:0:0:
377,327,86712,2,0,P|332:337|278:323,1,89.9999999999999,8|0,0:1|0:0,0:0:0:0:
210,287,87212,6,0,B|183:243|209:192|209:192|195:103,1,180,12|8,0:1|0:1,0:0:0:0:
137,44,87962,1,0,0:0:0:0:
70,104,88212,2,0,L|85:211,1,89.9999999999999,8|4,0:1|0:3,0:0:0:0:
95,282,88712,1,8,0:1:0:0:
35,349,88962,1,12,0:1:0:0:
