osu file format v14

[General]
AudioFilename: audio.mp3
AudioLeadIn: 0
PreviewTime: 55376
Countdown: 1
SampleSet: Normal
StackLeniency: 0.7
Mode: 0
LetterboxInBreaks: 0
WidescreenStoryboard: 0

[Editor]
DistanceSpacing: 1.7
BeatDivisor: 4
GridSize: 4
TimelineZoom: 1.7

[Metadata]
Title:Los! Los! Los!
TitleUnicode:Los! Los! Los!
Artist:Tanya Degurechaff (CV: Yuki Aoi)
ArtistUnicode:ターニャ・デグレチャフ (CV: 悠木碧)
Creator:Feruver
Version:Blitzkrieg
Source:
Tags:
BeatmapID:1888468
BeatmapSetID:904751

[Difficulty]
HPDrainRate:4.5
CircleSize:3.9
OverallDifficulty:9.2
ApproachRate:10
SliderMultiplier:1.8
SliderTickRate:1

[Events]
//Background and Video events
0,0,"831644.jpg",0,0
//Break Periods
2,144576,151926
2,202576,203926
//Storyboard Layer 0 (Background)
//Storyboard Layer 1 (Fail)
//Storyboard Layer 2 (Pass)
//Storyboard Layer 3 (Foreground)
//Storyboard Sound Samples

[TimingPoints]
376,250,4,1,1,50,1,0
1376,-133.333333333333,4,1,1,45,0,0
5376,-111.111111111111,4,2,1,45,0,0
9376,-90.9090909090909,4,2,1,55,0,0
13313,-90.9090909090909,4,1,1,5,0,0
13376,-68.9655172413793,4,1,1,75,0,0
19376,-83.3333333333333,4,1,1,65,0,0
21376,-83.3333333333333,4,1,1,50,0,0
25313,-83.3333333333333,4,1,1,5,0,0
25376,-100,4,1,1,50,0,0
27313,-100,4,1,1,5,0,0
27376,-100,4,1,1,50,0,0
29313,-100,4,1,1,5,0,0
29376,-100,4,1,1,50,0,0
30938,-100,4,1,1,5,0,0
31001,-100,4,1,1,50,0,0
31313,-100,4,1,1,5,0,0
31376,-100,4,1,1,50,0,0
33376,-133.333333333333,4,1,1,50,0,0
37376,-100,4,1,1,50,0,0
51376,-133.333333333333,4,1,1,50,0,0
51876,-160,4,1,1,50,0,0
52376,-200,4,1,1,50,0,0
52876,-263.157894736842,4,1,1,50,0,0
53376,-666.666666666667,4,1,1,50,0,0
54313,-666.666666666667,4,1,1,5,0,0
54376,-5000,4,1,1,50,0,0
55313,-1000,4,1,1,5,0,0
55376,-58.8235294117647,4,1,1,75,0,1
63313,-58.8235294117647,4,1,1,5,0,1
63376,-58.8235294117647,4,1,1,75,0,1
69751,-71.4285714285714,4,1,1,75,0,1
71376,-100,4,1,1,75,0,0
75376,-66.6666666666667,4,1,1,75,0,1
80876,-153.846153846154,4,1,1,50,0,0
81313,-58.8235294117647,4,1,1,5,0,0
81376,-80,4,1,1,50,0,1
81438,-80,4,1,1,50,0,0
89376,-100,4,1,1,50,0,0
95938,-100,4,1,1,5,0,0
96001,-100,4,1,1,50,0,0
98376,-133.333333333333,4,1,1,50,0,0
102376,-200,4,1,1,50,0,0
102813,-200,4,1,1,5,0,0
102876,-40,4,1,1,50,0,0
102938,-40,4,1,1,5,0,0
103376,-200,4,1,1,50,0,0
103813,-200,4,1,1,5,0,0
103876,-40,4,1,1,50,0,0
103938,-40,4,1,1,5,0,0
104376,-200,4,1,1,50,0,0
104813,-200,4,1,1,5,0,0
104876,-40,4,1,1,50,0,0
104938,-40,4,1,1,5,0,0
105376,-200,4,1,1,50,0,0
105813,-40,4,1,1,5,0,0
105876,-40,4,1,1,50,0,0
105938,-40,4,1,1,5,0,0
106126,-37.037037037037,4,1,1,50,0,0
106188,-40,4,1,1,5,0,0
106376,-100,4,1,1,50,0,0
110376,-83.3333333333333,4,1,1,50,0,0
119876,-1000,4,1,1,50,0,0
120313,-1000,4,1,1,5,0,0
120376,-58.8235294117647,4,1,1,75,0,1
128313,-58.8235294117647,4,1,1,5,0,1
128376,-58.8235294117647,4,1,1,75,0,1
135376,-68.9655172413793,4,1,1,75,0,1
136376,-100,4,1,1,50,0,0
140376,-58.8235294117647,4,1,1,50,0,1
143876,-100,4,1,1,50,0,1
144376,-100,4,1,1,50,0,0
152376,-200,4,1,1,50,0,0
160376,-90.9090909090909,4,1,1,50,0,0
164376,-133.333333333333,4,1,1,50,0,0
166376,-100,4,1,1,50,0,0
168126,-62.5,4,1,1,50,0,0
170376,-66.6666666666667,4,1,1,50,0,0
170501,-66.6666666666667,4,1,1,5,0,0
170626,-1000,4,1,1,50,0,0
171376,-66.6666666666667,4,1,1,50,0,0
171391,-100,4,1,1,5,0,0
171876,-100,4,1,1,10,0,0
171938,-100,4,1,1,15,0,0
172001,-100,4,1,1,25,0,0
172063,-100,4,1,1,40,0,0
172126,-100,4,1,1,50,0,0
172188,-100,4,1,1,60,0,0
172251,-100,4,1,1,70,0,0
172376,-58.8235294117647,4,1,1,75,0,1
191376,-80,4,1,1,75,0,1
196376,-133.333333333333,4,1,1,75,0,0
199626,-80,4,1,1,75,0,0
199876,-66.6666666666667,4,1,1,75,0,0
200376,-58.8235294117647,4,1,1,75,0,1
202376,-58.8235294117647,4,1,1,75,0,0
203626,-400,4,1,1,75,0,0
204376,-74.0740740740741,4,1,1,75,0,0
208376,-133.333333333333,4,1,1,75,0,0

[HitObjects]
102,75,1376,6,0,P|139:56|249:51,1,135.000005149842
354,89,1751,1,0,0:0:0:0:
260,153,1876,2,0,P|241:162|186:165,1,67.5000025749208
336,219,2126,2,0,P|354:228|409:231,1,67.5000025749208
378,369,2376,2,0,P|387:350|390:295,1,67.5000025749208
238,248,2626,2,0,P|228:266|226:321,1,67.5000025749208
105,317,2876,6,0,L|109:388,1,67.5000025749208
36,237,3126,2,0,L|32:308,1,67.5000025749208
129,182,3376,6,0,P|123:142|125:100,2,67.5000025749208
157,262,3751,1,0,0:0:0:0:
209,195,3876,2,0,P|249:189|291:191,2,67.5000025749208
208,351,4251,5,0,0:0:0:0:
310,287,4376,2,0,P|348:282|392:293,1,67.5000025749208
442,356,4626,2,0,P|480:361|524:350,1,67.5000025749208
512,236,4876,2,0,P|517:198|506:154,1,67.5000025749208
434,33,5126,2,0,P|429:71|440:115,1,67.5000025749208
432,209,5376,6,0,B|367:238|341:175|238:213,2,161.999995056153,4|4|4,0:0|0:0|0:0,0:0:0:0:
494,117,6001,1,0,0:0:0:0:
406,41,6126,2,0,L|414:144,1,80.9999975280763,4|0,0:0|0:0,0:0:0:0:
261,65,6376,6,0,P|218:47|172:42,1,80.9999975280763,4|0,0:0|0:0,0:0:0:0:
55,85,6626,2,0,P|98:103|144:108,1,80.9999975280763,4|0,0:0|0:0,0:0:0:0:
284,146,6876,2,0,P|319:181|282:296,2,161.999995056153,4|4|4,0:0|0:0|0:0,0:0:0:0:
131,107,7501,5,0,0:0:0:0:
248,220,7626,2,0,L|154:223,1,80.9999975280763,4|0,0:0|0:0,0:0:0:0:
7,280,7876,2,0,L|101:283,1,80.9999975280763,4|0,0:0|0:0,0:0:0:0:
248,340,8126,2,0,L|154:343,1,80.9999975280763,4|0,0:0|0:0,0:0:0:0:
40,359,8376,5,4,0:0:0:0:
56,207,8501,1,0,0:0:0:0:
166,267,8626,2,0,P|211:273|263:233,1,80.9999975280763,4|0,0:0|0:0,0:0:0:0:
306,97,8876,2,0,P|269:124|261:189,1,80.9999975280763,4|0,0:0|0:0,0:0:0:0:
275,322,9126,6,0,P|315:282|314:231,1,80.9999975280763,4|0,0:0|0:0,0:0:0:0:
306,97,9376,2,0,P|313:56|343:-2,1,99.0000030212403,4|0,0:0|0:0,0:0:0:0:
488,158,9626,2,0,P|452:178|388:193,1,99.0000030212403,8|0,0:0|0:0,0:0:0:0:
220,261,9876,5,4,0:0:0:0:
385,324,10001,1,0,0:0:0:0:
230,364,10126,2,0,P|178:370|127:361,1,99.0000030212403,8|0,0:0|0:0,0:0:0:0:
34,222,10376,6,0,P|27:170|34:114,1,99.0000030212403,4|0,0:0|0:0,0:0:0:0:
148,0,10626,2,0,P|155:52|148:108,1,99.0000030212403,8|0,0:0|0:0,0:0:0:0:
136,242,10876,2,0,P|182:264|254:219,1,99.0000030212403,4|0,0:0|0:0,0:0:0:0:
276,8,11126,2,0,P|254:54|299:126,1,99.0000030212403,8|0,0:0|0:0,0:0:0:0:
294,130,11376,5,12,0:0:0:0:
333,157,11501,1,8,0:0:0:0:
309,202,11626,1,12,0:0:0:0:
359,238,11751,1,8,0:0:0:0:
308,296,11876,1,12,0:0:0:0:
407,321,12001,1,8,0:0:0:0:
322,378,12126,1,12,0:0:0:0:
233,236,12251,1,8,0:0:0:0:
204,363,12376,1,12,0:0:0:0:
121,213,12501,1,8,0:0:0:0:
36,329,12626,1,12,0:0:0:0:
163,288,12751,1,8,0:0:0:0:
68,144,12876,5,0,3:0:0:0:
79,122,12938,1,0,3:0:0:0:
95,103,13001,1,0,3:0:0:0:
115,88,13063,1,0,3:0:0:0:
137,75,13126,2,0,P|184:56|271:119,1,148.50000453186,8|0,0:0|0:0,0:0:0:0:
290,129,13376,6,0,P|340:144|453:112,1,130.500003982544,4|0,0:0|0:0,0:0:0:0:
511,232,13626,2,0,P|461:217|348:249,1,130.500003982544,8|0,0:0|0:0,0:0:0:0:
281,95,13876,6,0,P|338:96|424:38,1,130.500003982544
512,255,14126,2,0,P|454:253|369:304,1,130.500003982544,8|0,0:0|0:0,0:0:0:0:
286,343,14376,6,0,P|271:293|303:180,1,130.500003982544,4|0,0:0|0:0,0:0:0:0:
180,121,14626,2,0,P|195:171|163:284,1,130.500003982544,8|0,0:0|0:0,0:0:0:0:
336,357,14876,6,0,P|315:308|335:192,1,130.500003982544
146,114,15126,2,0,P|150:165|95:268,1,130.500003982544,8|0,0:0|0:0,0:0:0:0:
105,371,15376,6,0,P|57:312|53:235,1,130.500003982544,4|0,0:0|0:0,0:0:0:0:
44,23,15626,1,8,0:0:0:0:
0,138,15751,1,0,0:0:0:0:
131,121,15876,2,0,P|203:107|273:106,1,130.500003982544
469,121,16126,2,0,P|400:150|339:162,1,130.500003982544,8|0,0:0|0:0,0:0:0:0:
163,209,16376,2,0,P|128:281|280:291,1,261.000007965088,4|8,0:0|0:0,0:0:0:0:
363,85,16751,5,0,0:0:0:0:
409,242,16876,2,0,P|401:310|374:369,1,130.500003982544
292,130,17126,2,0,P|286:61|322:8,1,130.500003982544,8|0,0:0|0:0,0:0:0:0:
324,219,17376,6,0,P|244:248|184:294,1,130.500003982544,12|0,0:0|0:0,0:0:0:0:
62,150,17626,1,0,0:0:0:0:
140,305,17751,6,0,P|155:218|205:197,1,130.500003982544,12|0,0:0|0:0,0:0:0:0:
335,137,18001,1,0,0:0:0:0:
207,5,18126,6,0,P|234:75|239:131,1,130.500003982544,12|0,0:0|0:0,0:0:0:0:
207,351,18376,1,0,0:0:0:0:
425,327,18501,6,0,P|369:253|357:202,1,130.500003982544,12|0,0:0|0:0,0:0:0:0:
366,20,18751,1,0,0:0:0:0:
185,200,18876,6,0,P|110:211|40:195,1,130.500003982544,12|0,0:0|0:0,0:0:0:0:
305,135,19126,2,0,P|380:124|450:140,1,130.500003982544,12|0,0:0|0:0,0:0:0:0:
287,219,19376,6,0,P|281:284|265:349,1,107.999996704102,8|0,0:0|0:0,0:0:0:0:
185,200,19626,1,0,0:0:0:0:
67,332,19751,1,8,0:0:0:0:
67,332,19813,1,8,0:0:0:0:
67,332,19876,2,0,P|120:321|182:327,1,107.999996704102,8|0,0:0|0:0,0:0:0:0:
338,360,20126,2,0,P|391:371|453:365,1,107.999996704102,8|0,0:0|0:0,0:0:0:0:
500,178,20376,5,8,0:0:0:0:
401,67,20501,1,0,0:0:0:0:
360,181,20626,2,0,P|363:262|354:299,1,107.999996704102
173,324,20876,5,8,0:0:0:0:
288,229,21001,1,8,0:0:0:0:
174,188,21126,2,0,P|93:191|56:182,1,107.999996704102,8|8,0:0|0:0,0:0:0:0:
64,42,21376,5,12,0:0:0:0:
101,60,21626,1,0,0:0:0:0:
138,78,21876,1,0,0:0:0:0:
175,96,22126,1,0,0:0:0:0:
259,148,22376,5,0,0:0:0:0:
296,130,22626,1,0,0:0:0:0:
333,112,22876,1,0,0:0:0:0:
370,94,23126,1,0,0:0:0:0:
497,165,23376,5,12,0:0:0:0:
441,281,23501,1,8,0:0:0:0:
357,212,23626,2,0,L|249:226,1,107.999996704102,8|0,0:0|0:0,0:0:0:0:
82,287,23876,2,0,L|190:301,1,107.999996704102,8|0,0:0|0:0,0:0:0:0:
357,362,24126,2,0,L|249:376,1,107.999996704102,8|0,0:0|0:0,0:0:0:0:
70,369,24376,5,8,0:0:0:0:
91,197,24501,1,8,0:0:0:0:
249,225,24626,2,0,P|245:157|226:95,1,107.999996704102,8|0,0:0|0:0,0:0:0:0:
138,0,24876,2,0,P|142:68|161:130,1,107.999996704102,8|0,0:0|0:0,0:0:0:0:
194,276,25126,2,0,P|255:300|321:203,1,161.999995056153,8|0,0:0|0:0,0:0:0:0:
340,217,25376,6,0,P|344:166|358:111,1,90,4|0,0:0|0:0,0:0:0:0:
423,30,25626,2,0,P|427:81|441:136,1,90,8|0,0:0|0:0,0:0:0:0:
494,215,25876,1,0,0:0:0:0:
340,217,26001,2,0,P|276:208|223:214,1,90,8|0,0:0|0:0,0:0:0:0:
27,247,26251,5,0,0:0:0:0:
163,142,26376,2,0,P|179:101|181:32,1,90,8|0,0:0|0:0,0:0:0:0:
70,169,26626,1,0,0:0:0:0:
206,274,26751,2,0,P|222:315|224:384,1,90,8|0,0:0|0:0,0:0:0:0:
123,253,27001,1,0,0:0:0:0:
268,217,27126,2,0,P|325:216|405:243,1,135,8|0,0:0|0:0,0:0:0:0:
422,257,27376,6,0,P|480:270|526:254,1,90,4|0,0:0|0:0,0:0:0:0:
481,56,27626,2,0,P|468:108|444:150,1,90,8|0,0:0|0:0,0:0:0:0:
268,217,27876,1,0,0:0:0:0:
319,74,28001,2,0,P|387:72|427:81,1,90,8|0,0:0|0:0,0:0:0:0:
508,263,28251,5,0,0:0:0:0:
417,384,28376,2,0,P|368:370|336:335,1,90,8|0,0:0|0:0,0:0:0:0:
268,217,28626,1,0,0:0:0:0:
123,281,28751,2,0,P|128:333|150:377,1,90,8|0,0:0|0:0,0:0:0:0:
268,217,29001,1,0,0:0:0:0:
309,61,29126,2,0,P|361:28|460:24,1,135,8|0,0:0|0:0,0:0:0:0:
468,30,29376,6,0,L|460:147,1,90,4|0,0:0|0:0,0:0:0:0:
421,351,29626,2,0,L|413:234,1,90,8|0,0:0|0:0,0:0:0:0:
380,101,29876,1,0,0:0:0:0:
226,151,30001,1,8,0:0:0:0:
325,255,30126,2,0,L|414:261,1,90
495,120,30376,5,8,0:0:0:0:
298,60,30501,2,0,P|237:49|191:45,1,90,8|0,0:0|0:0,0:0:0:0:
10,35,30751,2,0,P|1:91|25:191,1,135,8|0,0:0|0:0,0:0:0:0:
23,201,31001,5,8,0:0:0:0:
149,138,31126,2,0,P|202:184|232:272,1,135,8|0,0:0|0:0,0:0:0:0:
241,275,31376,6,0,P|298:268|346:257,1,90,4|0,0:0|0:0,0:0:0:0:
171,351,31626,2,0,P|114:344|66:333,1,90,8|0,0:0|0:0,0:0:0:0:
149,138,31876,2,0,P|151:81|167:38,1,90,8|0,0:0|0:0,0:0:0:0:
329,261,32126,2,0,P|327:318|311:361,1,90,8|0,0:0|0:0,0:0:0:0:
287,97,32376,2,0,P|346:84|397:96,2,90,8|0|0,0:0|0:0|0:0,0:0:0:0:
428,202,32751,6,0,L|494:212,3,45,8|0|0|0,0:0|0:0|0:0|0:0,0:0:0:0:
373,267,33001,6,0,L|328:260,3,45
246,187,33251,2,0,L|196:191,1,45
52,244,33376,6,0,P|40:189|74:108,1,135.000005149842,12|8,0:0|0:0,0:0:0:0:
158,117,33751,1,8,0:0:0:0:
228,74,33876,1,8,0:0:0:0:
109,0,34126,1,8,0:0:0:0:
116,197,34376,5,0,0:0:0:0:
228,74,34501,2,0,P|287:52|315:53,1,67.5000025749208
442,66,34751,1,0,0:0:0:0:
445,199,34876,2,0,P|444:267|449:294,1,67.5000025749208,8|0,0:0|0:0,0:0:0:0:
343,199,35126,2,0,P|342:267|347:294,1,67.5000025749208,8|0,0:0|0:0,0:0:0:0:
224,175,35376,5,4,0:0:0:0:
62,218,35501,1,0,0:0:0:0:
193,288,35626,2,0,P|229:312|252:351,1,67.5000025749208,8|0,0:0|0:0,0:0:0:0:
86,139,35876,2,0,P|86:95|96:57,1,67.5000025749208
249,33,36126,2,0,P|215:27|182:28,1,67.5000025749208,8|0,0:0|0:0,0:0:0:0:
86,139,36376,6,0,P|81:202|110:271,1,135.000005149842,0|8,0:0|0:0,0:0:0:0:
220,339,36751,1,0,0:0:0:0:
227,179,36876,5,8,0:0:0:0:
333,254,37001,1,8,0:0:0:0:
333,254,37063,1,8,0:0:0:0:
333,254,37126,1,8,0:0:0:0:
224,84,37251,1,8,0:0:0:0:
107,267,37376,6,0,P|77:321|48:362,1,90,4|0,0:0|0:0,0:0:0:0:
120,182,37626,2,0,P|171:216|209:249,1,90,8|0,0:0|0:0,0:0:0:0:
336,346,37876,5,0,0:0:0:0:
202,307,38001,1,0,0:0:0:0:
268,184,38126,2,0,P|296:141|312:89,1,90,8|0,0:0|0:0,0:0:0:0:
166,41,38376,6,0,P|115:38|59:46,1,90
219,103,38626,2,0,P|270:100|326:108,1,90,8|0,0:0|0:0,0:0:0:0:
500,201,38876,6,0,P|467:246|366:170,1,180,0|8,0:0|0:0,0:0:0:0:
428,77,39251,1,0,0:0:0:0:
283,182,39376,5,4,0:0:0:0:
278,14,39501,1,0,0:0:0:0:
428,77,39626,2,0,P|487:101|518:105,1,90,8|0,0:0|0:0,0:0:0:0:
429,251,39876,2,0,P|420:295|401:335,1,90
253,251,40126,2,0,P|209:243|169:224,1,90,8|0,0:0|0:0,0:0:0:0:
140,212,40313,1,8,0:0:0:0:
117,202,40376,2,0,P|69:169|50:134,1,90,8|0,0:0|0:0,0:0:0:0:
158,7,40626,2,0,P|162:65|148:117,1,90,8|0,0:0|0:0,0:0:0:0:
96,334,40876,5,8,0:0:0:0:
250,113,41001,1,8,0:0:0:0:
278,337,41126,5,8,0:0:0:0:
155,95,41251,1,8,0:0:0:0:
46,280,41376,2,0,P|24:338|40:387,1,90,4|0,0:0|0:0,0:0:0:0:
278,337,41626,2,0,P|317:357|362:354,1,90,8|0,0:0|0:0,0:0:0:0:
512,210,41876,5,0,0:0:0:0:
355,74,42001,1,0,0:0:0:0:
292,248,42126,2,0,P|278:304|278:344,1,90,8|0,0:0|0:0,0:0:0:0:
157,89,42376,6,0,P|157:37|166:-21,1,90
54,281,42626,2,0,P|54:333|45:391,1,90,8|0,0:0|0:0,0:0:0:0:
129,162,42876,2,0,P|174:165|223:51,2,180,0|8|4,0:0|0:0|0:0,0:0:0:0:
27,82,43501,1,0,0:0:0:0:
4,226,43626,2,0,P|2:276|4:335,1,90,8|0,0:0|0:0,0:0:0:0:
129,162,43876,2,0,P|131:112|129:53,1,90
41,265,44126,2,0,P|39:315|41:374,1,90,8|0,0:0|0:0,0:0:0:0:
131,73,44376,5,0,0:0:0:0:
7,187,44501,1,0,0:0:0:0:
157,281,44626,2,0,P|225:303|269:302,1,90,8|0,0:0|0:0,0:0:0:0:
468,318,44876,5,8,0:0:0:0:
277,225,45001,1,8,0:0:0:0:
473,189,45126,1,8,0:0:0:0:
325,346,45251,1,8,0:0:0:0:
367,141,45376,2,0,P|369:83|380:30,1,90,4|0,0:0|0:0,0:0:0:0:
222,30,45626,6,0,P|152:24|109:42,1,90,8|0,0:0|0:0,0:0:0:0:
3,236,45876,1,0,0:0:0:0:
39,95,46001,1,0,0:0:0:0:
150,192,46126,2,0,P|165:235|168:305,1,90,8|0,0:0|0:0,0:0:0:0:
273,121,46376,6,0,P|326:109|403:112,1,90
510,138,46626,1,8,0:0:0:0:
437,319,46751,2,0,P|376:318|326:204,1,180
361,107,47126,2,0,P|376:60|366:13,1,90,8|0,0:0|0:0,0:0:0:0:
184,134,47376,6,0,P|236:123|311:122,1,90,4|0,0:0|0:0,0:0:0:0:
88,248,47626,2,0,P|36:259|-39:260,1,90,8|0,0:0|0:0,0:0:0:0:
79,143,47876,6,0,P|68:90|67:15,1,90
193,238,48126,2,0,P|204:290|205:366,1,90,8|0,0:0|0:0,0:0:0:0:
334,144,48376,2,0,P|343:100|347:55,1,90,8|0,0:0|0:0,0:0:0:0:
166,125,48626,2,0,P|109:134|72:145,1,90,8|8,0:0|0:0,0:0:0:0:
53,151,48813,1,8,0:0:0:0:
29,164,48876,1,8,0:0:0:0:
151,234,49001,1,0,0:0:0:0:
101,73,49126,2,0,P|76:28|37:0,1,90
81,221,49376,6,0,P|97:282|127:299,1,90,4|0,0:0|0:0,0:0:0:0:
186,159,49626,2,0,P|170:220|140:237,1,90,8|0,0:0|0:0,0:0:0:0:
259,310,49876,2,0,P|290:279|294:235,1,90,4|0,0:0|0:0,0:0:0:0:
225,372,50126,2,0,P|193:341|189:297,1,90,8|0,0:0|0:0,0:0:0:0:
186,159,50376,6,0,P|210:97|238:72,1,90,4|0,0:0|0:0,0:0:0:0:
385,28,50626,1,8,0:0:0:0:
385,28,50751,2,0,P|399:105|290:98,1,180
192,13,51126,2,0,P|160:50|158:96,1,90,8|0,0:0|0:0,0:0:0:0:
204,320,51376,6,0,L|182:170,1,135.000005149842,4|8,0:0|0:0,0:0:0:0:
282,308,51876,6,0,L|265:195,1,112.5,4|8,0:0|0:0,0:0:0:0:
360,296,52376,6,0,L|344:191,1,90,4|8,0:0|0:0,0:0:0:0:
438,284,52876,6,0,L|427:210,1,68.3999991650391,4|8,0:0|0:0,0:0:0:0:
447,33,53376,6,0,P|449:82|426:127,1,101.249996910095,12|0,0:0|0:0,0:0:0:0:
392,128,54376,6,0,L|324:120,1,67.5,12|0,0:0|0:0,0:0:0:0:
288,120,55376,6,0,P|204:132|140:188,1,153.000002918243,4|0,0:0|0:0,0:0:0:0:
208,328,55626,2,0,P|124:316|60:260,1,153.000002918243,8|0,0:0|0:0,0:0:0:0:
270,78,55876,6,0,P|180:126|131:215,1,153.000002918243
264,344,56126,2,0,P|164:365|69:328,1,153.000002918243,8|0,0:0|0:0,0:0:0:0:
0,104,56376,6,0,P|-10:179|10:252,1,153.000002918243
188,138,56626,2,0,P|244:188|275:257,1,153.000002918243,8|0,0:0|0:0,0:0:0:0:
79,58,56876,6,0,P|34:119|26:194,1,153.000002918243
236,180,57126,2,0,P|223:254|176:313,1,153.000002918243,8|0,0:0|0:0,0:0:0:0:
200,68,57376,6,0,P|292:60|368:104,1,153.000002918243,4|0,0:0|0:0,0:0:0:0:
488,256,57626,1,8,0:0:0:0:
304,220,57751,1,0,0:0:0:0:
400,136,57876,2,0,P|415:59|350:9,1,153.000002918243
244,172,58126,2,0,P|229:249|294:299,1,153.000002918243,8|0,0:0|0:0,0:0:0:0:
220,92,58376,2,0,P|164:156|224:356,1,306.000005836487,0|8,0:0|0:0,0:0:0:0:
304,220,58751,5,0,0:0:0:0:
90,0,58876,2,0,P|76:99|83:177,1,153.000002918243
16,384,59126,2,0,P|17:307|4:232,1,153.000002918243,8|0,0:0|0:0,0:0:0:0:
177,42,59376,2,0,P|277:19|450:149,1,306.000005836487,4|8,0:0|0:0,0:0:0:0:
425,342,59751,5,0,0:0:0:0:
257,258,59876,2,0,P|263:177|314:89,1,153.000002918243
121,240,60126,2,0,P|115:321|64:409,1,153.000002918243,8|0,0:0|0:0,0:0:0:0:
203,63,60376,2,0,P|281:20|371:185,1,306.000005836487,0|8,0:0|0:0,0:0:0:0:
121,240,60751,1,0,0:0:0:0:
306,330,60876,6,0,P|408:344|467:332,1,153.000002918243
197,170,61126,2,0,P|95:156|36:168,1,153.000002918243,8|0,0:0|0:0,0:0:0:0:
211,344,61376,5,12,0:0:0:0:
284,133,61501,1,0,0:0:0:0:
45,166,61626,1,0,0:0:0:0:
306,330,61751,5,8,0:0:0:0:
208,129,61876,1,0,0:0:0:0:
62,321,62001,1,0,0:0:0:0:
324,194,62126,5,8,0:0:0:0:
138,193,62251,1,0,0:0:0:0:
205,360,62376,5,8,3:1:0:0:
222,347,62438,1,0,3:0:0:0:
237,330,62501,1,0,3:0:0:0:
246,311,62563,1,0,3:0:0:0:
251,290,62626,1,0,3:1:0:0:
249,268,62688,1,0,3:0:0:0:
243,247,62751,1,8,3:1:0:0:
231,228,62813,1,0,3:0:0:0:
223,212,62876,1,0,3:0:0:0:
211,193,62938,1,0,3:0:0:0:
205,172,63001,1,0,3:0:0:0:
203,150,63063,1,0,3:0:0:0:
207,127,63126,6,0,P|212:86|364:127,1,229.500004377365,8|0,3:1|0:0,0:0:0:0:
396,103,63376,6,0,P|407:194|386:292,1,153.000002918243,12|0,0:0|0:0,0:0:0:0:
285,19,63626,2,0,P|274:110|295:208,1,153.000002918243,8|0,0:0|0:0,0:0:0:0:
474,133,63876,6,0,P|456:253|416:328,1,153.000002918243,0|0,2:0|2:0,2:0:0:0:
215,22,64126,2,0,P|232:142|265:217,1,153.000002918243,8|0,0:0|0:0,0:0:0:0:
292,384,64376,6,0,P|303:308|294:232,1,153.000002918243
181,300,64626,2,0,P|169:224|178:148,1,153.000002918243,8|0,0:0|0:0,0:0:0:0:
363,380,64876,6,0,P|356:303|335:230,1,153.000002918243
103,269,65126,2,0,P|107:192|131:120,1,153.000002918243,8|0,2:0|2:0,2:0:0:0:
326,27,65376,6,0,P|412:77|282:215,1,306.000005836487,4|8,0:0|0:0,0:0:0:0:
151,26,65751,1,0,0:0:0:0:
326,125,65876,2,0,L|157:122,1,153.000002918243
360,298,66126,2,0,L|529:295,1,153.000002918243,8|0,0:0|0:0,0:0:0:0:
203,200,66376,2,0,P|100:222|207:362,1,306.000005836487,0|8,0:0|0:0,0:0:0:0:
366,177,66751,1,0,0:0:0:0:
261,388,66876,2,0,P|194:290|135:271,1,153.000002918243
272,194,67126,2,0,P|338:96|398:77,1,153.000002918243,8|0,0:0|0:0,0:0:0:0:
100,76,67376,6,0,P|24:101|138:255,1,306.000005836487,4|8,0:0|0:0,0:0:0:0:
272,197,67751,1,0,0:0:0:0:
91,171,67876,2,0,P|182:190|273:196,1,153.000002918243
512,231,68126,2,0,P|426:247|335:253,1,153.000002918243,8|0,0:0|0:0,0:0:0:0:
82,267,68376,6,0,P|-6:162|100:76,1,306.000005836487,0|8,0:0|0:0,0:0:0:0:
343,102,68751,1,0,0:0:0:0:
248,192,68876,2,0,P|172:185|97:171,1,153.000002918243
285,18,69126,2,0,P|361:24|436:39,1,153.000002918243,8|8,0:0|0:0,0:0:0:0:
466,47,69313,1,8,0:0:0:0:
496,58,69376,5,12,0:0:0:0:
435,278,69501,1,0,0:0:0:0:
427,135,69626,1,0,0:0:0:0:
302,218,69751,5,8,0:0:0:0:
427,135,69876,1,0,0:0:0:0:
435,278,70001,1,0,0:0:0:0:
244,275,70126,5,8,0:0:0:0:
273,127,70251,1,0,0:0:0:0:
380,223,70376,1,0,0:0:0:0:
307,333,70501,6,0,P|226:354|159:329,1,125.999996154785,8|0,0:0|0:0,0:0:0:0:
168,140,70751,1,0,0:0:0:0:
96,262,70876,2,0,P|91:328|114:398,1,125.999996154785,8|0,0:0|0:0,0:0:0:0:
188,232,71126,1,8,0:0:0:0:
71,152,71251,1,8,0:0:0:0:
179,49,71376,6,0,P|244:46|347:127,1,180,12|0,0:0|0:0,0:0:0:0:
365,292,71751,1,8,0:0:0:0:
365,292,71813,1,8,0:0:0:0:
365,292,71876,2,0,P|383:234|280:238,1,180,8|0,0:0|0:0,0:0:0:0:
119,339,72376,5,4,0:0:0:0:
30,209,72501,2,0,P|97:213|161:199,1,90,0|8,0:0|0:0,0:0:0:0:
293,219,72751,1,0,0:0:0:0:
130,116,72876,2,0,P|124:63|242:40,1,180,0|8,0:0|0:0,0:0:0:0:
437,96,73376,6,0,P|368:123|236:89,1,180,4|8,0:0|0:0,0:0:0:0:
154,67,73751,1,8,0:0:0:0:
154,67,73813,1,8,0:0:0:0:
154,67,73876,2,0,P|155:153|192:240,1,180,8|8,0:0|0:0,0:0:0:0:
311,190,74251,5,0,0:0:0:0:
197,345,74376,1,12,0:0:0:0:
68,210,74501,2,0,P|65:143|80:84,1,90,0|8,0:0|0:0,0:0:0:0:
122,0,74751,1,0,0:0:0:0:
255,94,74876,2,0,P|305:95|366:75,1,90,8|0,0:0|0:0,0:0:0:0:
473,12,75126,5,8,0:0:0:0:
473,12,75188,1,8,0:0:0:0:
473,12,75251,1,8,0:0:0:0:
473,12,75313,1,8,0:0:0:0:
473,12,75376,2,0,P|485:68|460:187,1,135.000005149842,12|0,0:0|0:0,0:0:0:0:
397,335,75626,2,0,P|385:279|410:160,1,135.000005149842,8|0,0:0|0:0,0:0:0:0:
297,15,75876,6,0,P|208:19|145:43,1,135.000005149842,4|0,0:0|0:0,0:0:0:0:
0,155,76126,2,0,P|89:159|152:183,1,135.000005149842,8|0,0:0|0:0,0:0:0:0:
290,289,76376,6,0,P|232:362|161:242,1,270.000010299683,4|8,0:0|0:0,0:0:0:0:
178,116,76751,1,0,0:0:0:0:
312,207,76876,2,0,P|387:190|456:168,1,135.000005149842,12|0,0:0|0:0,0:0:0:0:
198,52,77126,5,8,0:0:0:0:
198,52,77188,1,8,0:0:0:0:
198,52,77251,1,8,0:0:0:0:
198,52,77313,1,8,0:0:0:0:
198,52,77376,5,12,0:0:0:0:
211,329,77501,1,0,0:0:0:0:
279,103,77626,5,12,0:0:0:0:
112,294,77751,1,0,0:0:0:0:
234,27,77876,5,12,0:0:0:0:
169,324,78001,1,0,0:0:0:0:
306,104,78126,5,12,0:0:0:0:
74,259,78251,1,0,0:0:0:0:
154,110,78376,5,12,0:0:0:0:
290,325,78501,1,0,0:0:0:0:
243,72,78626,5,12,0:0:0:0:
187,343,78751,1,0,0:0:0:0:
127,106,78876,5,12,0:0:0:0:
332,296,79001,1,0,0:0:0:0:
211,41,79126,5,12,0:0:0:0:
228,345,79251,1,0,0:0:0:0:
389,111,79376,1,12,0:0:0:0:
82,188,79501,1,0,0:0:0:0:
419,266,79626,2,0,P|489:213|507:135,1,135.000005149842,8|8,0:0|0:0,0:0:0:0:
326,31,79876,1,0,0:0:0:0:
254,203,80001,5,8,0:0:0:0:
254,203,80063,1,0,0:0:0:0:
254,203,80126,2,0,P|199:257|143:268,1,135.000005149842,0|8,0:0|0:0,0:0:0:0:
41,84,80376,5,8,3:1:0:0:
41,84,80438,1,0,3:0:0:0:
41,84,80501,2,0,L|123:90,1,67.5000025749208,0|0,3:0|3:0,3:0:0:0:
233,119,80626,5,8,3:1:0:0:
233,119,80688,1,0,3:0:0:0:
233,119,80751,2,0,L|315:113,1,67.5000025749208,0|0,3:0|3:0,3:0:0:0:
463,81,80876,6,0,P|476:129|411:283,1,204.749990627289,8|0,0:0|0:0,0:0:0:0:
409,300,81376,6,0,L|260:283,1,112.5,4|0,0:0|0:0,0:0:0:0:
105,231,81626,2,0,L|249:215,1,112.5,8|0,0:0|0:0,0:0:0:0:
408,176,81876,5,0,0:0:0:0:
235,41,82001,1,0,0:0:0:0:
216,218,82126,2,0,L|213:369,1,112.5,8|0,0:0|0:0,0:0:0:0:
174,95,82376,6,0,P|158:40|178:-16,1,112.5
309,181,82626,2,0,P|325:236|305:292,1,112.5,8|0,0:0|0:0,0:0:0:0:
129,214,82876,1,0,0:0:0:0:
8,308,83001,1,0,0:0:0:0:
141,384,83126,1,8,0:0:0:0:
303,361,83251,1,0,0:0:0:0:
463,344,83376,6,0,P|459:268|442:213,1,112.5,4|0,0:0|0:0,0:0:0:0:
373,43,83626,2,0,P|377:119|394:174,1,112.5,8|0,0:0|0:0,0:0:0:0:
372,372,83876,1,0,0:0:0:0:
285,197,84001,1,0,0:0:0:0:
169,288,84126,2,0,P|89:303|24:271,1,112.5,8|0,0:0|0:0,0:0:0:0:
66,83,84376,5,0,0:0:0:0:
212,2,84501,1,0,0:0:0:0:
285,197,84626,2,0,P|290:293|285:335,1,112.5,8|8,0:0|0:0,0:0:0:0:
284,330,84813,1,8,0:0:0:0:
273,356,84876,1,8,0:0:0:0:
141,201,85001,1,8,0:0:0:0:
363,136,85126,1,8,0:0:0:0:
389,315,85251,1,8,0:0:0:0:
280,161,85376,6,0,P|255:76|247:21,1,112.5,4|0,0:0|0:0,0:0:0:0:
63,274,85626,2,0,P|148:249|203:241,1,112.5,8|8,0:0|0:0,0:0:0:0:
197,243,85813,1,8,0:0:0:0:
233,243,85876,2,0,P|289:242|358:218,1,112.5,12|0,0:0|0:0,0:0:0:0:
512,121,86126,2,0,P|456:122|387:146,1,112.5
212,165,86376,6,0,P|169:105|159:33,1,112.5,4|0,0:0|0:0,0:0:0:0:
176,286,86626,2,0,P|219:346|229:418,1,112.5,8|0,0:0|0:0,0:0:0:0:
431,204,86876,2,0,P|471:115|346:95,1,225,4|8,0:0|0:0,0:0:0:0:
402,138,87251,1,0,0:0:0:0:
295,246,87376,6,0,P|219:257|166:251,1,112.5,4|0,0:0|0:0,0:0:0:0:
0,134,87626,2,0,P|76:145|129:139,1,112.5,8|0,0:0|0:0,0:0:0:0:
266,130,87876,1,12,0:0:0:0:
177,22,88001,1,0,0:0:0:0:
111,142,88126,2,0,P|97:214|101:283,1,112.5,8|8,0:0|0:0,0:0:0:0:
96,285,88313,1,8,0:0:0:0:
106,324,88376,5,12,0:0:0:0:
347,173,88501,1,8,0:0:0:0:
177,225,88626,1,8,0:0:0:0:
344,333,88751,1,8,0:0:0:0:
272,40,88876,2,0,P|267:125|268:183,1,112.5,12|0,0:0|0:0,0:0:0:0:
265,350,89126,1,8,0:0:0:0:
493,242,89376,6,0,B|381:264|381:264|404:268|404:268|391:267|391:267|340:219|340:219|361:220|361:220|348:220|348:220|290:242|290:242|301:241|301:241|268:216|268:216|278:215|278:215|253:245|253:245|269:243|269:243|233:223|233:223|251:221|251:221|23:234,1,720,0|4,0:0|0:0,0:0:0:0:
133,104,90501,1,0,0:0:0:0:
193,297,90626,2,0,P|193:360|179:392,1,90,8|0,0:0|0:0,0:0:0:0:
48,230,90876,2,0,P|48:167|62:135,1,90,0|8,0:0|0:0,0:0:0:0:
238,12,91126,2,0,P|238:75|224:107,1,90,8|0,0:0|0:0,0:0:0:0:
193,297,91376,6,0,P|248:315|306:300,1,90
392,68,91626,1,8,0:0:0:0:
392,68,91751,2,0,P|397:117|273:107,1,180,8|0,0:0|0:0,0:0:0:0:
206,81,92126,2,0,P|147:77|134:135,1,90,8|0,0:0|0:0,0:0:0:0:
118,236,92376,6,0,P|115:290|124:362,1,90,4|0,0:0|0:0,0:0:0:0:
206,170,92626,2,0,P|208:125|205:80,1,90,8|0,0:0|0:0,0:0:0:0:
294,236,92876,2,0,P|297:290|288:362,1,90
505,259,93126,1,8,0:0:0:0:
424,74,93251,1,0,0:0:0:0:
377,262,93376,1,8,0:0:0:0:
248,176,93501,5,0,3:0:0:0:
221,172,93563,1,0,3:0:0:0:
194,171,93626,1,0,3:0:0:0:
167,172,93688,1,0,3:0:0:0:
140,175,93751,1,0,3:0:0:0:
114,181,93813,1,0,3:0:0:0:
91,188,93876,2,0,L|36:210,3,45,8|0|0|0,3:1|3:0|3:0|3:0,3:0:0:0:
0,308,94126,2,0,L|45:296,1,45,8|0,3:1|3:0,3:0:0:0:
160,264,94251,2,0,L|203:275,1,45,8|0,3:1|3:0,3:0:0:0:
357,336,94376,6,0,P|421:325|451:281,1,90,4|0,0:0|0:0,0:0:0:0:
438,90,94626,2,0,L|424:211,1,90,8|0,0:0|0:0,0:0:0:0:
221,177,94876,1,0,0:0:0:0:
319,62,95001,1,8,0:0:0:0:
357,196,95126,2,0,L|343:317,1,90,8|0,0:0|0:0,0:0:0:0:
203,275,95376,6,0,L|217:396,1,90,8|0,0:0|0:0,0:0:0:0:
111,182,95626,1,8,0:0:0:0:
216,364,95751,2,0,L|195:213,1,135,8|0,0:0|0:0,0:0:0:0:
199,190,96001,5,8,0:0:0:0:
307,50,96126,2,0,P|319:98|303:166,1,90,8|0,0:0|0:0,0:0:0:0:
277,280,96376,2,0,P|321:284|364:272,1,90,4|0,0:0|0:0,0:0:0:0:
199,190,96626,2,0,P|154:194|111:182,1,90,8|0,0:0|0:0,0:0:0:0:
277,100,96876,2,0,P|321:95|364:107,1,90,0|8,0:0|0:0,0:0:0:0:
193,279,97126,2,0,P|148:274|105:286,1,90,8|0,0:0|0:0,0:0:0:0:
9,156,97376,5,4,0:0:0:0:
86,27,97501,2,0,P|115:78|116:136,1,90,0|8,0:0|0:0,0:0:0:0:
105,286,97751,2,0,P|113:329|138:367,1,90,0|8,0:0|0:0,0:0:0:0:
371,360,98001,5,8,0:0:0:0:
260,222,98126,1,8,0:0:0:0:
387,155,98251,1,8,0:0:0:0:
341,265,98376,5,4,0:0:0:0:
305,297,98626,1,0,0:0:0:0:
269,329,98876,1,8,0:0:0:0:
233,361,99126,1,0,0:0:0:0:
114,253,99376,5,0,0:0:0:0:
157,80,99501,2,0,P|174:132|169:172,1,67.5000025749208,8|0,0:0|0:0,0:0:0:0:
114,253,99751,1,0,0:0:0:0:
230,203,99876,2,0,P|282:186|322:191,1,67.5000025749208,8|0,0:0|0:0,0:0:0:0:
445,182,100126,5,8,0:0:0:0:
368,279,100251,1,0,0:0:0:0:
354,121,100376,2,0,P|347:73|350:27,1,67.5000025749208,4|0,0:0|0:0,0:0:0:0:
502,247,100626,2,0,P|507:291|498:330,1,67.5000025749208,8|0,0:0|0:0,0:0:0:0:
512,84,100876,2,0,P|505:36|508:-10,1,67.5000025749208
368,279,101126,2,0,P|375:327|372:373,1,67.5000025749208,8|0,0:0|0:0,0:0:0:0:
272,156,101376,5,0,0:0:0:0:
368,279,101501,2,0,P|375:327|372:373,1,67.5000025749208,8|8,0:0|0:0,0:0:0:0:
196,158,101751,1,0,0:0:0:0:
347,0,101876,1,8,0:0:0:0:
370,198,102001,1,8,0:0:0:0:
224,30,102126,1,8,0:0:0:0:
429,84,102251,1,8,0:0:0:0:
293,183,102376,6,0,P|267:225|277:343,1,157.5,4|0,0:0|0:0,0:0:0:0:
270,364,102876,6,0,L|129:364,1,112.5,8|0,0:0|0:0,0:0:0:0:
364,204,103376,6,0,P|390:162|380:44,1,157.5,4|0,0:0|0:0,0:0:0:0:
387,23,103876,6,0,L|528:23,1,112.5,8|0,0:0|0:0,0:0:0:0:
182,384,104376,6,0,P|140:358|22:368,1,157.5,4|0,0:0|0:0,0:0:0:0:
1,361,104876,6,0,L|1:220,1,112.5,8|0,0:0|0:0,0:0:0:0:
314,227,105376,6,0,P|384:260|460:249,1,157.5,4|0,0:0|0:0,0:0:0:0:
495,251,105876,6,0,L|495:363,1,112.5,8|0,0:0|0:0,0:0:0:0:
512,245,106126,6,0,L|512:418,1,121.500000463486,8|0,0:0|0:0,0:0:0:0:
288,363,106376,5,4,0:0:0:0:
260,329,106626,1,8,0:0:0:0:
232,295,106876,1,8,0:0:0:0:
204,261,107126,1,8,0:0:0:0:
148,60,107376,6,0,P|149:109|131:171,1,90,8|0,0:0|0:0,0:0:0:0:
80,233,107626,1,8,0:0:0:0:
245,178,107751,1,0,0:0:0:0:
232,295,107876,2,0,P|219:364|206:388,1,90,8|0,0:0|0:0,0:0:0:0:
360,206,108126,6,0,P|363:150|377:88,1,90,8|8,0:0|0:0,0:0:0:0:
385,85,108313,1,8,0:0:0:0:
398,63,108376,2,0,P|452:56|505:58,1,90,8|8,0:0|0:0,0:0:0:0:
469,152,108626,5,8,0:0:0:0:
328,5,108751,1,8,0:0:0:0:
384,247,108876,5,8,0:0:0:0:
285,68,109001,1,8,0:0:0:0:
267,324,109126,5,8,0:0:0:0:
217,125,109251,1,8,0:0:0:0:
155,373,109376,5,8,0:0:0:0:
158,167,109501,1,8,0:0:0:0:
39,266,109626,1,8,0:0:0:0:
262,232,109751,1,8,0:0:0:0:
64,115,109876,1,8,0:0:0:0:
139,278,110001,1,0,0:0:0:0:
172,296,110063,1,0,0:0:0:0:
209,310,110126,2,0,P|253:322|310:323,1,90
467,332,110376,6,0,P|461:257|443:193,1,107.999996704102,4|0,0:0|0:0,0:0:0:0:
337,25,110626,2,0,P|343:100|361:164,1,107.999996704102,8|0,0:0|0:0,0:0:0:0:
512,362,110876,6,0,P|506:287|488:223,1,107.999996704102
288,0,111126,2,0,P|294:75|312:139,1,107.999996704102,8|0,0:0|0:0,0:0:0:0:
421,303,111376,6,0,P|379:343|310:345,1,107.999996704102
115,361,111626,1,8,0:0:0:0:
117,98,111751,2,0,P|120:158|103:232,1,107.999996704102
12,265,112001,5,0,0:0:0:0:
226,269,112126,2,0,P|301:260|383:197,1,161.999995056153,8|0,0:0|0:0,0:0:0:0:
388,186,112376,2,0,P|449:175|510:191,1,107.999996704102,4|0,0:0|0:0,0:0:0:0:
512,34,112626,2,0,P|451:45|390:29,1,107.999996704102,8|0,0:0|0:0,0:0:0:0:
359,225,112876,2,0,P|436:223|509:255,1,107.999996704102
500,6,113126,2,0,P|422:7|349:-24,1,107.999996704102,8|0,0:0|0:0,0:0:0:0:
212,6,113376,6,0,P|192:51|198:133,1,107.999996704102,4|0,0:0|0:0,0:0:0:0:
296,249,113626,1,8,0:0:0:0:
295,101,113751,2,0,P|245:162|186:181,1,107.999996704102
79,178,114001,1,8,0:0:0:0:
220,272,114126,1,8,0:0:0:0:
21,324,114251,1,0,0:0:0:0:
21,324,114313,1,0,0:0:0:0:
21,324,114376,6,0,P|8:260|16:183,1,107.999996704102,4|0,0:0|0:0,0:0:0:0:
131,18,114626,2,0,P|144:82|136:159,1,107.999996704102,8|0,0:0|0:0,0:0:0:0:
59,337,114876,6,0,P|45:270|53:190,1,107.999996704102,4|0,0:0|0:0,0:0:0:0:
173,19,115126,2,0,P|186:85|178:165,1,107.999996704102,8|0,0:0|0:0,0:0:0:0:
101,338,115376,6,0,P|87:271|95:191,1,107.999996704102,4|0,0:0|0:0,0:0:0:0:
215,20,115626,2,0,P|228:86|220:166,1,107.999996704102,8|0,0:0|0:0,0:0:0:0:
143,339,115876,6,0,P|129:272|137:192,1,107.999996704102,4|0,0:0|0:0,0:0:0:0:
257,21,116126,2,0,P|270:87|262:167,1,107.999996704102,8|0,0:0|0:0,0:0:0:0:
238,358,116376,5,4,0:0:0:0:
269,205,116501,1,0,0:0:0:0:
406,276,116626,2,0,L|538:295,1,107.999996704102,8|0,0:0|0:0,0:0:0:0:
512,92,116876,5,4,0:0:0:0:
388,2,117001,1,0,0:0:0:0:
335,118,117126,2,0,L|350:252,1,107.999996704102,8|0,0:0|0:0,0:0:0:0:
405,381,117376,5,4,0:0:0:0:
137,324,117501,1,0,0:0:0:0:
239,168,117626,2,0,L|224:34,1,107.999996704102,8|8,0:0|0:0,0:0:0:0:
226,30,117813,1,8,0:0:0:0:
221,0,117876,1,12,0:0:0:0:
86,198,118001,1,8,0:0:0:0:
329,63,118126,1,8,0:0:0:0:
97,26,118251,1,8,0:0:0:0:
253,330,118376,5,12,0:0:0:0:
160,105,118501,1,0,0:0:0:0:
330,310,118626,5,12,0:0:0:0:
298,68,118751,1,0,0:0:0:0:
393,284,118876,5,12,0:0:0:0:
424,41,119001,1,0,0:0:0:0:
228,226,119126,5,12,0:0:0:0:
358,18,119251,1,0,0:0:0:0:
315,251,119376,6,0,L|316:324,3,53.9999983520508,0|0|0|0,3:0|3:0|3:0|3:0,3:0:0:0:
235,311,119626,2,0,L|217:381,3,53.9999983520508,0|0|0|0,3:0|3:0|3:0|3:0,3:0:0:0:
138,342,119876,6,0,B|138:332|138:332|138:342|138:342|138:331,1,31.5,12|0,0:0|0:0,0:0:0:0:
117,299,120376,6,0,P|110:215|137:115,1,153.000002918243,4|0,0:0|0:0,0:0:0:0:
338,229,120626,2,0,P|328:145|283:52,1,153.000002918243,8|0,0:0|0:0,0:0:0:0:
52,291,120876,6,0,P|66:208|118:118,1,153.000002918243
386,239,121126,2,0,P|355:160|287:82,1,153.000002918243,8|0,0:0|0:0,0:0:0:0:
55,139,121376,6,0,P|42:214|51:290,1,153.000002918243
286,127,121626,2,0,P|273:202|240:271,1,153.000002918243,8|0,0:0|0:0,0:0:0:0:
11,116,121876,6,0,P|18:191|46:262,1,153.000002918243
346,152,122126,2,0,P|315:221|266:279,1,153.000002918243,8|0,0:0|0:0,0:0:0:0:
24,374,122376,6,0,P|17:285|66:195,1,153.000002918243,4|0,0:0|0:0,0:0:0:0:
157,53,122626,1,8,0:0:0:0:
277,171,122751,1,0,0:0:0:0:
193,290,122876,2,0,P|239:348|337:312,1,153.000002918243
474,125,123126,2,0,P|416:171|452:269,1,153.000002918243,8|0,0:0|0:0,0:0:0:0:
490,203,123376,6,0,B|326:149|401:57|237:8,1,306.000005836487,0|8,0:0|0:0,0:0:0:0:
84,106,123751,1,0,0:0:0:0:
197,226,123876,2,0,P|220:151|287:96,1,153.000002918243,8|8,0:0|0:0,0:0:0:0:
297,89,124063,1,8,0:0:0:0:
327,79,124126,1,8,0:0:0:0:
296,313,124251,1,8,0:0:0:0:
164,73,124376,6,0,P|68:24|69:194,1,306.000005836487,4|8,0:0|0:0,0:0:0:0:
228,185,124751,1,0,0:0:0:0:
363,70,124876,2,0,P|448:56|521:62,1,153.000002918243
346,285,125126,2,0,P|261:271|188:277,1,153.000002918243,8|0,0:0|0:0,0:0:0:0:
374,202,125376,2,0,P|429:258|258:302,1,306.000005836487,0|8,0:0|0:0,0:0:0:0:
181,77,125751,5,0,0:0:0:0:
75,234,125876,2,0,P|60:308|71:392,1,153.000002918243
287,269,126126,2,0,P|302:195|291:111,1,153.000002918243,8|8,0:0|0:0,0:0:0:0:
285,88,126313,1,8,0:0:0:0:
265,59,126376,5,12,0:0:0:0:
135,174,126501,1,0,0:0:0:0:
287,269,126626,1,0,0:0:0:0:
167,40,126751,5,12,0:0:0:0:
180,273,126876,1,0,0:0:0:0:
389,97,127001,1,0,0:0:0:0:
82,91,127126,5,12,0:0:0:0:
121,366,127251,1,0,0:0:0:0:
281,200,127376,1,12,3:1:0:0:
319,180,127438,1,0,3:0:0:0:
362,185,127501,1,0,3:0:0:0:
395,213,127563,1,0,3:0:0:0:
408,254,127626,1,0,3:0:0:0:
396,295,127688,1,0,3:0:0:0:
364,324,127751,1,0,3:0:0:0:
321,330,127813,1,0,3:0:0:0:
232,304,127876,5,8,3:1:0:0:
221,267,127938,1,0,3:0:0:0:
211,230,128001,1,0,3:0:0:0:
201,193,128063,1,0,3:0:0:0:
191,156,128126,2,0,P|118:109|86:228,1,229.500004377365,8|0,0:0|0:0,0:0:0:0:
113,228,128376,5,4,0:0:0:0:
313,207,128501,1,0,0:0:0:0:
143,4,128626,2,0,P|60:29|-10:33,1,153.000002918243,8|0,0:0|0:0,0:0:0:0:
269,63,128876,2,0,P|352:88|422:92,1,153.000002918243
166,126,129126,2,0,P|141:209|137:279,1,153.000002918243,8|0,0:0|0:0,0:0:0:0:
412,377,129376,6,0,P|407:291|377:206,1,153.000002918243,4|0,0:0|0:0,0:0:0:0:
211,0,129626,2,0,P|216:86|246:171,1,153.000002918243,8|0,0:0|0:0,0:0:0:0:
309,329,129876,1,0,0:0:0:0:
99,364,130001,1,0,0:0:0:0:
79,154,130126,2,0,P|51:63|5:4,1,153.000002918243,8|0,0:0|0:0,0:0:0:0:
107,254,130376,6,0,P|204:265|285:250,1,153.000002918243,4|0,0:0|0:0,0:0:0:0:
496,107,130626,1,8,0:0:0:0:
247,120,130751,1,0,0:0:0:0:
400,347,130876,2,0,P|408:258|393:176,1,153.000002918243
164,0,131126,2,0,P|156:89|171:171,1,153.000002918243,8|0,0:0|0:0,0:0:0:0:
222,371,131376,6,0,B|228:198|337:245|339:74,1,306.000005836487,4|8,0:0|0:0,0:0:0:0:
163,0,131751,1,0,0:0:0:0:
74,169,131876,2,0,P|66:246|83:338,1,153.000002918243,0|8,0:0|0:0,0:0:0:0:
98,345,132063,1,8,0:0:0:0:
137,369,132126,1,8,0:0:0:0:
219,118,132251,1,0,0:0:0:0:
333,284,132376,2,0,P|423:252|325:92,1,306.000005836487,4|8,0:0|0:0,0:0:0:0:
198,302,132751,5,0,0:0:0:0:
355,187,132876,2,0,P|276:155|200:104,1,153.000002918243
0,88,133126,2,0,P|79:120|155:171,1,153.000002918243,8|0,0:0|0:0,0:0:0:0:
269,261,133376,2,0,P|270:339|142:238,1,306.000005836487,4|8,0:0|0:0,0:0:0:0:
164,38,133751,5,0,0:0:0:0:
355,187,133876,2,0,P|424:109|453:32,1,153.000002918243
176,211,134126,2,0,P|208:309|260:373,1,153.000002918243,8|8,0:0|0:0,0:0:0:0:
262,370,134313,1,8,0:0:0:0:
295,384,134376,5,12,0:0:0:0:
358,186,134501,1,0,0:0:0:0:
176,209,134626,1,0,0:0:0:0:
365,272,134751,5,12,0:0:0:0:
217,79,134876,1,0,0:0:0:0:
92,300,135001,1,0,0:0:0:0:
257,190,135126,1,12,0:0:0:0:
86,179,135251,1,0,0:0:0:0:
193,324,135376,2,0,P|277:364|325:360,1,130.500003982544
498,339,135626,5,12,0:0:0:0:
391,219,135751,1,0,0:0:0:0:
493,91,135876,2,0,P|503:180|490:252,1,130.500003982544,12|8,0:0|0:0,0:0:0:0:
364,365,136126,2,0,P|275:375|203:362,1,130.500003982544,12|8,0:0|0:0,0:0:0:0:
47,243,136376,6,0,P|35:172|123:122,1,180,4|0,0:0|0:0,0:0:0:0:
199,226,136751,1,8,0:0:0:0:
199,226,136813,1,8,0:0:0:0:
199,226,136876,2,0,P|132:207|80:172,1,90,12|0,0:0|0:0,0:0:0:0:
267,161,137126,2,0,P|334:180|386:215,1,90,8|0,0:0|0:0,0:0:0:0:
395,328,137376,5,4,0:0:0:0:
499,240,137501,2,0,L|505:124,1,90,8|0,0:0|0:0,0:0:0:0:
425,287,137751,5,8,0:0:0:0:
503,175,137876,2,0,L|478:61,1,90,4|0,0:0|0:0,0:0:0:0:
343,7,138126,6,0,P|328:74|346:120,1,90,8|8,0:0|0:0,0:0:0:0:
348,135,138313,1,8,0:0:0:0:
359,168,138376,2,0,P|368:217|342:269,1,90,12|0,0:0|0:0,0:0:0:0:
213,375,138626,5,0,0:0:0:0:
148,220,138751,1,8,0:0:0:0:
46,353,138876,2,8,P|37:290|52:231,1,90,12|0,0:0|0:0,0:0:0:0:
142,131,139126,2,0,P|151:194|136:253,1,90,8|0,0:0|0:0,0:0:0:0:
135,330,139376,5,4,0:0:0:0:
252,250,139501,2,0,P|258:188|254:133,1,90,8|0,0:0|0:0,0:0:0:0:
208,316,139751,5,0,0:0:0:0:
300,208,139876,2,0,P|289:146|271:94,1,90,12|0,0:0|0:0,0:0:0:0:
146,17,140126,5,8,0:0:0:0:
146,17,140188,1,8,0:0:0:0:
146,17,140251,1,8,0:0:0:0:
146,17,140313,1,8,0:0:0:0:
146,17,140376,6,0,P|173:99|165:179,1,153.000002918243,12|0,0:0|0:0,0:0:0:0:
300,208,140626,2,0,P|273:290|281:370,1,153.000002918243,8|0,0:0|0:0,0:0:0:0:
117,27,140876,6,0,P|122:121|91:204,1,153.000002918243
351,196,141126,2,0,P|346:291|377:373,1,153.000002918243,8|0,0:0|0:0,0:0:0:0:
456,141,141376,6,0,P|407:66|316:42,1,153.000002918243,4|0,0:0|0:0,0:0:0:0:
79,171,141626,2,0,P|128:96|219:72,1,153.000002918243,8|0,0:0|0:0,0:0:0:0:
482,188,141876,6,0,P|415:128|321:128,1,153.000002918243
47,218,142126,2,0,P|113:158|207:158,1,153.000002918243,8|8,0:0|0:0,0:0:0:0:
209,154,142313,1,8,0:0:0:0:
209,154,142376,5,12,0:0:0:0:
271,367,142501,1,0,0:0:0:0:
295,70,142626,5,12,0:0:0:0:
219,301,142751,1,0,0:0:0:0:
201,126,142876,5,12,0:0:0:0:
284,384,143001,1,0,0:0:0:0:
305,43,143126,5,12,0:0:0:0:
206,337,143251,1,0,0:0:0:0:
376,139,143376,5,12,0:0:0:0:
161,197,143501,1,8,0:0:0:0:
138,179,143563,1,8,0:0:0:0:
122,155,143626,1,8,0:0:0:0:
116,128,143688,1,0,3:0:0:0:
121,99,143751,1,0,3:0:0:0:
135,75,143813,1,0,3:0:0:0:
156,58,143876,2,0,P|178:47|220:40,3,45,0|0|0|0,3:0|3:0|3:0|3:0,3:0:0:0:
266,95,144126,2,0,P|289:101|325:124,3,45,0|0|0|0,3:0|3:0|3:0|3:0,3:0:0:0:
340,197,144376,1,12,3:1:0:0:
446,213,152376,6,0,L|298:228,1,135
99,246,153126,1,0,0:0:0:0:
99,246,153376,2,0,L|98:106,1,135
311,226,154126,1,0,0:0:0:0:
311,226,154376,2,0,P|311:305|286:356,2,135
305,90,155376,2,0,P|280:43|161:76,1,180
65,333,156376,6,0,P|58:277|76:185,1,135
169,57,157126,1,0,0:0:0:0:
169,57,157376,2,0,P|238:45|308:57,1,135
417,150,158126,1,0,0:0:0:0:
417,150,158376,2,0,P|405:219|417:289,1,135
229,356,159126,5,0,0:0:0:0:
229,356,159376,2,0,P|150:336|56:358,1,180
119,171,160376,6,0,P|125:102|142:43,2,99.0000030212403,12|0|0,0:0|0:0|0:0,0:0:0:0:
252,131,160751,2,0,P|321:125|380:108,2,99.0000030212403,8|0|0,0:0|0:0|0:0,0:0:0:0:
151,256,161126,6,0,P|148:328|158:373,1,99.0000030212403,8|0,0:0|0:0,0:0:0:0:
248,268,161376,6,0,P|199:257|150:255,2,99.0000030212403,12|0|0,0:0|0:0|0:0,0:0:0:0:
31,312,161751,2,0,P|20:263|18:214,2,99.0000030212403,8|0|0,0:0|0:0|0:0,0:0:0:0:
150,255,162126,5,8,0:0:0:0:
223,116,162251,1,0,0:0:0:0:
91,39,162376,2,0,P|87:103|108:161,2,99.0000030212403,12|0|0,0:0|0:0|0:0,0:0:0:0:
224,205,162751,2,0,P|288:209|346:188,2,99.0000030212403,8|0|0,0:0|0:0|0:0,0:0:0:0:
377,345,163126,5,8,0:0:0:0:
345,224,163251,1,0,0:0:0:0:
255,304,163376,1,4,0:0:0:0:
388,320,163501,5,8,0:0:0:0:
321,200,163626,1,0,0:0:0:0:
233,315,163751,1,0,0:0:0:0:
90,284,163876,6,0,P|87:213|119:131,1,148.50000453186,8|0,0:0|0:0,0:0:0:0:
125,113,164126,2,0,P|132:59|104:-18,1,99.0000030212403,8|8,0:0|0:0,0:0:0:0:
254,27,164376,6,0,P|313:26|409:45,1,135.000005149842,4|8,0:0|0:0,0:0:0:0:
478,133,164751,1,0,0:0:0:0:
379,169,164876,2,0,B|364:239|364:239|373:318,1,135.000005149842,4|0,0:0|0:0,0:0:0:0:
456,242,165251,1,0,0:0:0:0:
287,271,165376,2,0,L|194:285,1,67.5000025749208,12|8,0:0|0:0,0:0:0:0:
119,158,165626,5,8,0:0:0:0:
144,317,165751,2,0,L|158:410,1,67.5000025749208,0|12,0:0|0:0,0:0:0:0:
214,159,166001,2,0,P|260:127|383:139,1,168.750006437302
402,150,166376,2,0,P|404:204|419:242,1,90,4|0,0:0|0:0,0:0:0:0:
512,370,166626,2,0,P|510:316|496:274,1,90
287,206,166876,6,0,P|241:238|118:226,1,168.750006437302,12|0,0:0|0:0,0:0:0:0:
35,141,167251,1,0,0:0:0:0:
125,45,167376,2,0,P|178:43|229:57,1,90,4|8,0:0|0:0,0:0:0:0:
311,138,167626,2,0,P|377:156|424:147,1,90,0|0,0:0|3:0,0:0:0:0:
429,145,167813,1,0,3:0:0:0:
470,132,167876,1,4,3:1:0:0:
349,19,168001,1,0,0:0:0:0:
379,273,168126,2,0,P|374:322|265:324,1,144,12|0,0:0|0:0,0:0:0:0:
54,304,168376,5,8,0:0:0:0:
108,28,168501,1,0,0:0:0:0:
143,304,168626,5,8,0:0:0:0:
197,28,168751,1,0,0:0:0:0:
232,304,168876,5,8,0:0:0:0:
286,28,169001,1,0,0:0:0:0:
321,304,169126,5,8,0:0:0:0:
375,28,169251,1,0,0:0:0:0:
375,28,169313,1,0,0:0:0:0:
375,28,169376,5,8,0:0:0:0:
98,127,169501,1,0,0:0:0:0:
441,133,169626,5,8,0:0:0:0:
136,32,169751,1,0,0:0:0:0:
457,27,169876,5,8,0:0:0:0:
113,201,170001,1,0,0:0:0:0:
402,273,170126,5,8,0:0:0:0:
136,32,170251,1,0,0:0:0:0:
168,291,170376,2,0,P|193:201|186:143,1,135.000005149842,8|0,0:0|0:0,0:0:0:0:
262,44,170626,6,0,L|262:43,1,1.125,8|0,0:0|0:0,0:0:0:0:
378,191,170876,6,0,L|377:191,1,1.125,8|0,0:0|0:0,0:0:0:0:
260,340,171126,6,0,L|259:340,1,1.125,8|0,0:0|0:0,0:0:0:0:
80,195,171376,6,0,L|64:195,59,16.8750006437302
109,221,172376,6,0,P|163:224|267:181,1,153.000002918243,4|0,0:0|0:0,0:0:0:0:
472,90,172626,2,0,P|418:87|314:130,1,153.000002918243,8|0,0:0|0:0,0:0:0:0:
136,289,172876,6,0,P|188:277|278:209,1,153.000002918243
433,23,173126,2,0,P|380:34|290:102,1,153.000002918243,8|0,0:0|0:0,0:0:0:0:
29,180,173376,6,0,P|83:177|187:220,1,153.000002918243,4|0,0:0|0:0,0:0:0:0:
392,311,173626,2,0,P|338:314|234:271,1,153.000002918243,8|0,0:0|0:0,0:0:0:0:
68,113,173876,6,0,P|120:124|210:192,1,153.000002918243
365,379,174126,2,0,P|312:367|222:299,1,153.000002918243,8|0,0:0|0:0,0:0:0:0:
180,50,174376,2,0,P|277:40|266:222,1,306.000005836487,4|8,0:0|0:0,0:0:0:0:
67,219,174751,1,0,0:0:0:0:
245,115,174876,2,0,P|152:131|106:85,1,153.000002918243
262,281,175126,2,0,P|355:297|401:251,1,153.000002918243,8|0,0:0|0:0,0:0:0:0:
326,91,175376,2,0,P|267:30|207:188,1,306.000005836487,4|8,0:0|0:0,0:0:0:0:
426,172,175751,5,0,0:0:0:0:
265,270,175876,2,0,P|183:276|106:262,1,153.000002918243
11,202,176063,1,0,0:0:0:0:
3,177,176126,2,0,P|-3:100|8:25,1,153.000002918243,8|0,0:0|0:0,0:0:0:0:
287,182,176376,6,0,P|346:307|211:344,1,306.000005836487,4|8,0:0|0:0,0:0:0:0:
128,90,176751,1,0,0:0:0:0:
11,202,176876,2,0,P|8:305|10:391,1,153.000002918243
203,168,177126,2,0,P|206:64|204:-21,1,153.000002918243,8|0,0:0|0:0,0:0:0:0:
220,349,177376,6,0,P|347:303|287:182,1,306.000005836487,0|8,0:0|0:0,0:0:0:0:
128,90,177751,1,0,0:0:0:0:
352,28,177876,2,0,P|441:7|531:10,1,153.000002918243
449,165,178126,2,0,P|469:254|466:344,1,153.000002918243,8|8,0:0|0:0,0:0:0:0:
461,345,178313,1,8,0:0:0:0:
439,376,178376,5,12,0:0:0:0:
283,182,178501,1,0,0:0:0:0:
179,382,178626,1,0,0:0:0:0:
362,243,178751,5,12,0:0:0:0:
143,103,178876,1,0,0:0:0:0:
62,339,179001,1,0,0:0:0:0:
234,102,179126,5,12,0:0:0:0:
25,204,179251,1,0,0:0:0:0:
170,263,179376,5,8,3:1:0:0:
197,272,179438,1,0,3:0:0:0:
224,281,179501,1,0,3:0:0:0:
251,290,179563,1,0,3:0:0:0:
278,299,179626,1,0,3:0:0:0:
306,308,179688,1,0,3:0:0:0:
378,352,179751,5,8,3:1:0:0:
398,313,179813,1,0,3:0:0:0:
404,270,179876,1,0,3:0:0:0:
396,227,179938,1,0,3:0:0:0:
374,190,180001,1,0,3:0:0:0:
341,162,180063,1,0,3:0:0:0:
262,181,180126,5,8,3:1:0:0:
226,166,180188,1,0,3:0:0:0:
191,151,180251,1,0,3:0:0:0:
156,136,180313,1,0,3:0:0:0:
121,121,180376,6,0,B|52:91|52:91|11:11,1,153.000002918243,4|0,0:0|0:0,0:0:0:0:
279,99,180626,2,0,B|348:68|348:68|389:-11,1,153.000002918243,8|0,0:0|0:0,0:0:0:0:
105,204,180876,6,0,B|35:173|35:173|-5:93,1,153.000002918243
262,181,181126,2,0,B|331:150|331:150|372:70,1,153.000002918243,8|0,0:0|0:0,0:0:0:0:
125,257,181376,6,0,B|56:288|56:288|15:367,1,153.000002918243
283,235,181626,2,0,B|352:265|352:265|393:345,1,153.000002918243,8|0,0:0|0:0,0:0:0:0:
142,175,181876,6,0,B|73:206|73:206|32:286,1,153.000002918243
299,152,182126,2,0,B|369:183|369:183|409:263,1,153.000002918243,8|0,0:0|0:0,0:0:0:0:
141,261,182376,6,0,P|62:210|210:123,1,306.000005836487,4|8,0:0|0:0,0:0:0:0:
340,96,182751,1,0,0:0:0:0:
294,237,182876,2,0,P|287:320|316:396,1,153.000002918243
413,163,183126,2,0,P|420:80|391:4,1,153.000002918243,8|0,0:0|0:0,0:0:0:0:
294,237,183376,2,0,B|122:231|169:122|21:121,1,306.000005836487,0|8,0:0|0:0,0:0:0:0:
89,317,183751,1,0,0:0:0:0:
195,90,183876,6,0,P|274:113|342:181,1,153.000002918243,8|8,0:0|0:0,0:0:0:0:
355,191,184063,1,8,0:0:0:0:
378,227,184126,1,8,0:0:0:0:
309,384,184251,1,8,0:0:0:0:
328,157,184376,2,0,P|348:72|455:193,1,306.000005836487,4|8,0:0|0:0,0:0:0:0:
245,278,184751,1,0,0:0:0:0:
381,278,184876,2,0,P|410:192|403:113,1,153.000002918243
204,0,185126,2,0,P|175:86|182:165,1,153.000002918243,8|0,0:0|0:0,0:0:0:0:
342,352,185376,2,0,P|461:297|371:201,1,306.000005836487,0|8,0:0|0:0,0:0:0:0:
186,333,185751,5,0,0:0:0:0:
267,140,185876,2,0,P|251:48|207:-4,1,153.000002918243
134,195,186126,2,0,P|150:287|194:339,1,153.000002918243,8|8,0:0|0:0,0:0:0:0:
205,351,186313,1,8,0:0:0:0:
235,374,186376,5,12,0:0:0:0:
350,137,186501,1,0,0:0:0:0:
355,125,186626,1,0,0:0:0:0:
300,336,186751,5,8,0:0:0:0:
185,99,186876,1,0,0:0:0:0:
180,87,187001,1,0,0:0:0:0:
37,233,187126,6,0,P|22:321|40:387,1,153.000002918243,8|0,0:0|0:0,0:0:0:0:
203,248,187376,1,0,0:0:0:0:
376,282,187501,2,0,P|306:352|236:354,1,153.000002918243,8|0,0:0|0:0,0:0:0:0:
188,159,187751,1,0,0:0:0:0:
124,353,187876,5,8,0:0:0:0:
276,71,188001,1,8,0:0:0:0:
291,274,188126,5,8,0:0:0:0:
96,43,188251,1,8,0:0:0:0:
37,233,188376,2,0,P|22:321|40:387,1,153.000002918243,4|0,0:0|0:0,0:0:0:0:
235,370,188626,2,0,L|409:358,1,153.000002918243,8|0,0:0|0:0,0:0:0:0:
461,118,188876,6,0,L|457:291,1,153.000002918243
302,10,189126,2,0,L|313:182,1,153.000002918243,8|0,0:0|0:0,0:0:0:0:
385,362,189376,1,0,0:0:0:0:
165,272,189501,1,0,0:0:0:0:
378,112,189626,2,0,P|370:218|300:247,1,153.000002918243,8|0,0:0|0:0,0:0:0:0:
165,272,189876,1,0,0:0:0:0:
132,36,190001,1,0,0:0:0:0:
378,140,190126,2,0,P|282:186|222:139,1,153.000002918243,8|0,0:0|0:0,0:0:0:0:
59,22,190376,6,0,P|24:98|36:193,1,153.000002918243,4|0,0:0|0:0,0:0:0:0:
88,345,190626,1,8,0:0:0:0:
133,172,190751,1,0,0:0:0:0:
214,325,190876,2,0,P|286:355|366:343,1,153.000002918243
512,287,191126,2,0,P|440:257|360:269,1,153.000002918243,8|0,0:0|0:0,0:0:0:0:
225,216,191376,5,4,0:0:0:0:
225,177,191438,1,0,0:0:0:0:
225,139,191501,2,0,L|224:16,1,112.5,0|8,0:0|0:0,0:0:0:0:
351,134,191751,1,0,0:0:0:0:
444,265,191876,5,0,0:0:0:0:
405,265,191938,1,0,0:0:0:0:
367,265,192001,2,0,L|244:266,1,112.5,0|8,0:0|0:0,0:0:0:0:
60,265,192251,1,0,0:0:0:0:
159,64,192376,6,0,P|170:128|146:190,1,112.5,4|0,0:0|0:0,0:0:0:0:
254,265,192626,2,0,P|243:329|267:391,1,112.5,8|0,0:0|0:0,0:0:0:0:
486,304,192876,6,0,P|405:304|346:291,1,112.5
51,348,193126,2,0,P|132:348|191:361,1,112.5,8|0,0:0|0:0,0:0:0:0:
512,221,193376,5,4,0:0:0:0:
328,148,193501,1,0,0:0:0:0:
445,42,193626,2,0,P|451:110|429:175,1,112.5,8|0,0:0|0:0,0:0:0:0:
271,278,193876,5,0,0:0:0:0:
243,68,194001,1,0,0:0:0:0:
440,152,194126,2,0,P|405:211|350:251,1,112.5,8|0,0:0|0:0,0:0:0:0:
158,256,194376,6,0,P|73:248|12:245,1,112.5,4|0,0:0|0:0,0:0:0:0:
243,68,194626,1,8,0:0:0:0:
339,154,194751,1,0,0:0:0:0:
249,249,194876,2,0,P|235:304|243:370,1,112.5
439,257,195126,5,8,0:0:0:0:
339,154,195251,1,0,0:0:0:0:
434,59,195376,2,0,P|443:133|435:201,1,112.5,4|0,0:0|0:0,0:0:0:0:
340,270,195626,5,0,3:0:0:0:
249,249,195751,1,0,3:0:0:0:
189,165,195876,1,8,3:1:0:0:
98,186,196001,1,0,3:0:0:0:
39,267,196126,1,0,3:0:0:0:
60,358,196251,1,0,3:0:0:0:
171,384,196376,6,0,P|245:390|322:376,1,135.000005149842,4|0,0:0|0:0,0:0:0:0:
448,234,196751,1,0,0:0:0:0:
448,234,196813,1,0,0:0:0:0:
448,234,196876,2,0,P|452:281|426:379,1,135.000005149842,8|0,0:0|0:0,0:0:0:0:
318,283,197251,5,8,0:0:0:0:
204,206,197376,2,0,P|142:193|112:181,2,67.5000025749208,12|8|0,0:0|0:0|0:0,0:0:0:0:
345,116,197751,5,0,0:0:0:0:
345,116,197813,1,0,0:0:0:0:
345,116,197876,2,0,P|370:53|309:26,1,135.000005149842,8|8,0:0|0:0,0:0:0:0:
188,92,198376,6,0,P|134:94|60:43,1,135.000005149842,4|0,0:0|0:0,0:0:0:0:
272,156,198751,1,8,0:0:0:0:
272,156,198813,1,8,0:0:0:0:
272,156,198876,2,0,P|277:214|264:292,1,135.000005149842,8|8,0:0|0:0,0:0:0:0:
138,234,199251,5,8,0:0:0:0:
112,330,199376,1,4,0:0:0:0:
35,266,199501,1,0,0:0:0:0:
123,143,199626,6,0,P|63:158|-4:156,1,112.5,8|0,0:0|0:0,0:0:0:0:
134,46,199876,1,8,0:0:0:0:
366,110,200001,1,8,0:0:0:0:
393,129,200063,1,8,0:0:0:0:
410,158,200126,1,8,0:0:0:0:
413,191,200188,1,8,0:0:0:0:
402,223,200251,1,8,0:0:0:0:
380,248,200313,1,8,0:0:0:0:
349,261,200376,5,12,0:0:0:0:
213,16,200501,1,0,0:0:0:0:
176,321,200626,5,8,0:0:0:0:
296,81,200751,1,0,0:0:0:0:
135,247,200876,6,0,P|98:326|124:390,1,153.000002918243,12|0,0:0|0:0,0:0:0:0:
356,145,201126,1,8,0:0:0:0:
356,145,201188,1,0,0:0:0:0:
356,145,201251,1,0,0:0:0:0:
89,156,201376,5,12,0:0:0:0:
366,29,201501,1,0,0:0:0:0:
104,14,201626,5,8,0:0:0:0:
104,14,201688,1,0,0:0:0:0:
104,14,201751,1,0,0:0:0:0:
285,267,201876,1,12,0:0:0:0:
29,230,202001,5,0,0:0:0:0:
366,29,202126,1,12,0:0:0:0:
366,29,202188,1,0,0:0:0:0:
366,29,202251,1,0,0:0:0:0:
394,383,202376,1,12,0:0:0:0:
171,145,204376,5,4,0:0:0:0:
301,8,204501,1,0,0:0:0:0:
396,165,204626,2,0,P|408:227|438:297,1,121.500000463486,8|0,0:0|0:0,0:0:0:0:
279,384,204876,5,0,0:0:0:0:
115,299,205001,1,0,0:0:0:0:
281,198,205126,2,0,P|341:171|409:165,1,121.500000463486,8|0,0:0|0:0,0:0:0:0:
203,76,205376,2,0,P|148:50|88:42,1,121.500000463486
236,263,205626,2,0,P|290:288|350:296,1,121.500000463486,8|0,0:0|0:0,0:0:0:0:
339,61,205876,5,0,0:0:0:0:
222,1,206001,1,0,0:0:0:0:
186,172,206126,1,8,0:0:0:0:
288,132,206251,1,0,0:0:0:0:
88,42,206376,5,4,0:0:0:0:
105,273,206501,1,0,0:0:0:0:
288,132,206626,2,0,P|382:115|429:124,1,121.500000463486,8|0,0:0|0:0,0:0:0:0:
281,242,206876,2,0,P|298:336|289:383,1,121.500000463486
186,172,207126,2,0,P|92:189|45:180,1,121.500000463486,8|0,0:0|0:0,0:0:0:0:
167,42,207376,5,0,0:0:0:0:
333,3,207501,1,0,0:0:0:0:
367,193,207626,2,0,P|381:261|403:316,1,121.500000463486,8|0,0:0|0:0,0:0:0:0:
257,227,207876,5,0,3:0:0:0:
234,223,207938,1,0,3:0:0:0:
211,224,208001,1,0,3:0:0:0:
189,227,208063,1,0,3:0:0:0:
167,234,208126,1,0,3:0:0:0:
146,243,208188,1,0,3:0:0:0:
127,256,208251,1,0,3:0:0:0:
110,271,208313,1,0,3:0:0:0:
95,287,208376,6,0,P|71:331|62:361,1,67.5000025749208,4|0,0:0|0:0,0:0:0:0:
49,222,208626,2,0,P|25:178|16:148,1,67.5000025749208,8|0,0:0|0:0,0:0:0:0:
133,9,208876,5,4,0:0:0:0:
23,78,209001,1,0,0:0:0:0:
154,130,209126,2,0,P|196:146|233:146,1,67.5000025749208,8|0,0:0|0:0,0:0:0:0:
380,170,209376,2,0,P|338:154|301:154,1,67.5000025749208,4|0,0:0|0:0,0:0:0:0:
419,294,209626,2,0,P|425:338|443:370,1,67.5000025749208,8|0,0:0|0:0,0:0:0:0:
448,195,209876,2,0,P|447:145|368:94,1,135.000005149842,4|8,0:0|0:0,0:0:0:0:
190,53,210251,5,0,0:0:0:0:
301,26,210376,2,0,L|307:96,1,67.5000025749208,12|0,0:0|0:0,0:0:0:0:
233,188,210626,2,0,L|227:258,1,67.5000025749208,12|0,0:0|0:0,0:0:0:0:
328,317,210876,2,0,L|334:387,1,67.5000025749208,12|0,0:0|0:0,0:0:0:0:
142,254,211126,2,0,L|136:184,1,67.5000025749208,12|0,0:0|0:0,0:0:0:0:
149,30,211376,5,8,3:1:0:0:
168,21,211438,1,0,3:0:0:0:
189,19,211501,1,0,3:0:0:0:
209,25,211563,1,0,3:0:0:0:
227,36,211626,1,12,3:1:0:0:
240,52,211688,1,0,3:0:0:0:
247,72,211751,1,0,3:0:0:0:
247,93,211813,1,0,3:0:0:0:
240,114,211876,2,0,P|217:171|220:248,1,135.000005149842,12|12,3:1|0:0,0:0:0:0:
