osu file format v14

[General]
AudioFilename: audio.mp3
AudioLeadIn: 0
PreviewTime: 55087
Countdown: 0
SampleSet: Soft
StackLeniency: 0.7
Mode: 0
LetterboxInBreaks: 0
WidescreenStoryboard: 0

[Editor]
Bookmarks: 5212,9212,11212,12212,13212,17212,18962,20212,21212,24212,25212,27212,31212,33212,37212,40212,41212,42212,43212,44212,44712,45212,49212,51212,51712,52212,52712,53212,54212,54712,55212,58712,59212,61212,62212,63212,67212,69212,70212,71212,74962,75212,77212,77712,78212,78712,79837,80712,88212,88712,88962
DistanceSpacing: 4.1
BeatDivisor: 6
GridSize: 4
TimelineZoom: 5.399998

[Metadata]
Title:Los! Los! Los!
TitleUnicode:Los! Los! Los!
Artist:Tanya Degurechaff (CV: Yuki Aoi)
ArtistUnicode:ターニャ・デグレチャフ(CV:悠木碧)
Creator:CyberX
Version:Beginner
Source:幼女戦記
Tags:youjo senki ending tv size hikan
BeatmapID:1365546
BeatmapSetID:644278

[Difficulty]
HPDrainRate:6
CircleSize:3.5
OverallDifficulty:6
ApproachRate:10
SliderMultiplier:2
SliderTickRate:1

[Events]
//Background and Video events
0,0,"849418.jpg",0,0
//Break Periods
//Storyboard Layer 0 (Background)
//Storyboard Layer 1 (Fail)
//Storyboard Layer 2 (Pass)
//Storyboard Layer 3 (Foreground)
//Storyboard Sound Samples

[TimingPoints]
1212,250,4,2,1,40,1,0
1212,-142.857142857143,4,2,1,40,0,0
5212,-125,4,2,1,45,0,0
9212,-111.111111111111,4,2,1,50,0,0
13212,-83.3333333333333,4,2,1,60,0,0
20212,-333.333333333333,4,2,1,60,0,0
21212,-100,4,2,1,40,0,0
25212,-142.857142857143,4,2,1,40,0,0
33212,-200,4,2,1,30,0,0
37212,-142.857142857143,4,2,1,50,0,0
41212,-125,4,2,1,50,0,0
45212,-333.333333333334,4,2,1,45,0,0
49212,-166.666666666667,4,2,1,50,0,0
51212,-100,4,2,1,70,0,1
51587,-100,4,2,1,50,0,0
51712,-76.923076923077,4,2,1,70,0,1
52087,-76.923076923077,4,2,1,50,0,0
52212,-66.6666666666667,4,2,1,70,0,1
52587,-66.6666666666667,4,2,1,50,0,0
52712,-58.8235294117647,4,2,1,70,0,1
53087,-58.8235294117647,4,2,1,50,0,0
53212,-200,4,2,1,50,0,0
54212,-100,4,2,1,50,0,0
54712,-100,4,2,1,50,0,1
54732,-100,4,2,1,50,0,0
54753,-100,4,2,1,50,0,1
54774,-100,4,2,1,50,0,0
54795,-100,4,2,1,50,0,1
54816,-100,4,2,1,50,0,0
54837,-100,4,2,1,50,0,1
54857,-100,4,2,1,50,0,0
54878,-100,4,2,1,50,0,1
54899,-100,4,2,1,50,0,0
54920,-100,4,2,1,50,0,1
54941,-100,4,2,1,50,0,0
54962,-100,4,2,1,50,0,1
54982,-100,4,2,1,50,0,0
55003,-100,4,2,1,50,0,1
55024,-100,4,2,1,50,0,0
55045,-100,4,2,1,50,0,1
55066,-100,4,2,1,50,0,0
55087,-100,4,2,1,50,0,1
55107,-100,4,2,1,50,0,0
55128,-100,4,2,1,50,0,1
55149,-100,4,2,1,50,0,0
55170,-100,4,2,1,50,0,1
55212,-50,4,2,1,70,0,1
55962,-333.333333333333,4,2,1,70,0,1
56212,-50,4,2,1,70,0,1
56962,-333.333333333333,4,2,1,70,0,1
57212,-50,4,2,1,70,0,1
57962,-333.333333333333,4,2,1,70,0,1
58212,-50,4,2,1,70,0,1
62212,-50,4,2,1,70,0,0
63212,-50,4,2,1,70,0,1
63962,-333.333333333333,4,2,1,70,0,1
64212,-50,4,2,1,70,0,1
64962,-333.333333333333,4,2,1,70,0,1
65212,-50,4,2,1,70,0,1
65962,-333.333333333333,4,2,1,70,0,1
66212,-50,4,2,1,70,0,1
71212,-200,4,2,1,50,0,0
75212,-83.3333333333333,4,2,1,65,0,0
77212,-100,4,2,1,70,0,1
77587,-100,4,2,1,50,0,0
77712,-76.9230769230769,4,2,1,70,0,1
78087,-76.9230769230769,4,2,1,50,0,0
78212,-66.6666666666667,4,2,1,70,0,1
78587,-66.6666666666667,4,2,1,50,0,0
78712,-58.8235294117647,4,2,1,70,0,1
79087,-58.8235294117647,4,2,1,50,0,0
79212,-50,4,2,1,70,0,1
80712,-333.333333333333,4,2,1,50,0,0
81212,-100,4,2,1,50,0,0
88212,-100,4,2,1,70,0,1
88962,-100,4,2,1,70,0,0

[Colours]
Combo1 : 255,128,64
Combo2 : 255,128,0
Combo3 : 128,64,0
Combo4 : 255,255,0

[HitObjects]
48,152,1212,6,0,B|112:88|204:80|204:80|184:112,1,209.999993591309,4|0,3:2|1:0,0:0:0:0:
104,304,1712,2,0,P|128:280|140:240,1,69.9999978637696,2|0,2:0|1:0,0:0:0:0:
205,230,1962,2,0,P|171:230|134:249,1,69.9999978637696,2|0,2:0|1:0,0:0:0:0:
340,324,2212,6,0,P|316:288|316:256,3,69.9999978637696,2|2|2|2,2:0|2:0|2:0|2:0,0:0:0:0:
412,244,2712,2,0,P|420:201|443:178,3,69.9999978637696,2|0|2|0,2:0|1:0|2:0|1:0,0:0:0:0:
248,132,3212,6,0,B|334:121|396:38|396:38|341:53,1,209.999993591309,10|0,2:0|1:0,0:0:0:0:
104,152,3712,2,0,P|144:120|152:100,1,69.9999978637696,2|0,2:0|1:0,0:0:0:0:
102,56,3962,2,0,P|124:92|154:104,1,69.9999978637696,2|0,2:0|1:0,0:0:0:0:
360,240,4212,6,0,P|318:230|289:242,1,69.9999978637696,2|0,2:0|1:0,0:0:0:0:
184,332,4462,2,0,P|193:290|181:261,1,69.9999978637696,2|0,2:0|1:0,0:0:0:0:
64,196,4712,6,0,P|112:168|144:168,1,69.9999978637696,2|0,2:0|1:0,0:0:0:0:
304,48,4962,2,0,P|332:96|332:128,1,69.9999978637696,2|0,2:0|1:0,0:0:0:0:
100,316,5212,5,8,3:0:0:0:
156,280,5462,1,0,3:0:0:0:
220,280,5712,1,0,3:0:0:0:
264,324,5962,1,0,3:0:0:0:
412,272,6212,6,0,P|372:244|320:243,1,80,0|0,3:0|1:0,0:0:0:0:
439,343,6462,2,0,P|424:286|394:257,1,80,0|0,3:0|1:0,0:0:0:0:
405,41,6712,2,0,P|421:158|333:242,1,240,0|0,3:0|1:0,0:0:0:0:
76,132,7212,5,8,3:0:0:0:
130,93,7462,1,0,3:0:0:0:
193,89,7712,1,0,3:0:0:0:
240,131,7962,1,0,3:0:0:0:
48,308,8212,6,0,P|84:288|132:292,1,80,0|0,3:0|1:0,0:0:0:0:
195,269,8462,2,0,P|155:268|121:288,1,80,0|0,3:0|1:0,0:0:0:0:
333,329,8712,2,0,P|229:354|106:258,1,240,0|0,3:0|1:0,0:0:0:0:
264,224,9212,5,8,3:0:0:0:
318,185,9462,1,0,3:0:0:0:
381,181,9712,1,0,3:0:0:0:
428,223,9962,1,0,3:0:0:0:
152,88,10212,6,0,P|100:88|64:104,1,89.9999972534181,0|0,3:0|1:0,0:0:0:0:
166,174,10462,2,0,P|166:122|150:86,1,89.9999972534181,0|0,3:0|1:0,0:0:0:0:
414,79,10712,2,0,P|272:56|141:92,1,269.999991760254,0|0,3:0|1:0,0:0:0:0:
40,216,11212,6,0,L|48:264,3,44.999998626709,0|0|0|0,3:0|3:0|3:0|3:0,0:0:0:0:
136,280,11462,2,0,L|143:324,3,44.999998626709,0|0|0|0,3:0|3:0|3:0|3:0,3:0:0:0:
232,248,11712,6,0,L|224:203,3,44.999998626709,0|0|0|0,3:0|3:0|3:0|3:0,3:0:0:0:
328,312,11962,2,0,L|320:264,3,44.999998626709,0|0|0|0,3:0|3:0|3:0|3:0,3:0:0:0:
256,52,12212,5,8,3:0:0:0:
116,192,12337,1,8,3:0:0:0:
396,192,12462,1,8,3:0:0:0:
256,312,12587,1,8,3:0:0:0:
120,104,12712,6,0,B|115:58|115:58|80:25,1,89.9999972534181,0|0,3:0|1:0,0:0:0:0:
392,104,12962,2,0,B|396:58|396:58|431:25,1,89.9999972534181,0|0,3:0|1:0,0:0:0:0:
180,276,13212,6,0,P|124:216|24:220,1,179.999994506836,6|0,3:0|1:0,0:0:0:0:
292,250,13462,2,0,P|228:250|172:282,1,119.999996337891,0|0,3:0|1:0,0:0:0:0:
468,332,13712,2,0,P|422:286|360:269,1,119.999996337891,0|0,3:0|1:0,0:0:0:0:
348,144,13962,6,0,P|376:68|468:20,1,179.999994506836,0|0,3:0|1:0,0:0:0:0:
256,64,14212,2,0,P|200:40|140:44,1,119.999996337891,0|0,3:0|1:0,0:0:0:0:
121,157,14462,2,0,P|145:101|141:41,1,119.999996337891,0|0,3:0|1:0,0:0:0:0:
248,208,14712,6,0,P|328:208|432:252,1,179.999994506836,0|0,3:0|1:0,0:0:0:0:
423,349,14962,2,0,P|399:277|431:233,1,119.999996337891,0|0,3:0|1:0,0:0:0:0:
415,137,15212,2,0,P|440:189|419:243,1,119.999996337891,0|0,3:0|1:0,0:0:0:0:
208,280,15462,6,0,P|112:280|16:320,1,179.999994506836,0|0,3:0|1:0,0:0:0:0:
48,96,15712,2,0,P|72:156|48:224,1,119.999996337891,0|0,3:0|1:0,0:0:0:0:
136,56,15962,2,0,P|195:81|226:146,1,119.999996337891,0|0,3:0|1:0,0:0:0:0:
424,240,16212,5,8,3:0:0:0:
342,276,16337,1,8,3:0:0:0:
253,277,16462,1,8,3:0:0:0:
180,224,16587,1,8,3:0:0:0:
84,308,16712,6,0,P|144:272|260:280,1,179.999994506836,0|0,3:0|1:0,0:0:0:0:
53,195,16962,2,0,P|58:260|89:314,1,119.999996337891,0|0,3:0|1:0,0:0:0:0:
464,168,17212,6,0,B|497:209|490:257|490:257|471:242,1,119.999996337891,0|0,3:0|1:0,0:0:0:0:
325,155,17462,1,8,3:0:0:0:
381,275,17587,6,0,B|375:328|332:356|332:356|333:332,1,119.999996337891,0|0,3:0|1:0,0:0:0:0:
325,155,17837,1,8,3:0:0:0:
245,251,17962,6,0,B|203:284|155:277|155:277|170:258,1,119.999996337891,0|0,3:0|1:0,0:0:0:0:
325,155,18212,1,8,3:0:0:0:
192,144,18337,6,0,B|138:138|110:99|110:99|134:96,1,119.999996337891,0|0,3:0|1:0,0:0:0:0:
325,155,18587,1,8,3:0:0:0:
436,180,18712,6,0,P|464:216|456:288,1,119.999996337891,0|0,3:0|3:0,0:0:0:0:
340,256,18962,2,0,P|334:301|277:346,1,119.999996337891,0|0,3:0|3:0,0:0:0:0:
32,156,19212,6,0,B|82:124|147:144|147:144|190:178|199:211,1,179.999994506836,0|0,3:0|1:0,0:0:0:0:
220,30,19462,6,0,B|251:80|231:145|231:145|197:188|164:197,1,179.999994506836,0|0,3:0|1:0,0:0:0:0:
156,342,19712,6,0,B|124:291|144:226|144:226|178:183|211:174,1,179.999994506836,0|0,3:0|1:0,0:0:0:0:
344,217,19962,6,0,B|293:248|228:228|228:228|185:194|176:161,1,179.999994506836,0|0,3:0|1:0,0:0:0:0:
340,80,20212,6,0,P|380:56|428:52,1,89.9999972534181,2|0,3:2|1:0,0:0:0:0:
451,133,20712,2,0,P|427:93|423:45,1,89.9999972534181,2|0,2:0|0:0,0:0:0:0:
72,232,21212,6,0,L|60:344,1,100,0|0,3:0|1:0,0:0:0:0:
188,92,21462,2,0,L|198:191,1,100,0|0,3:0|1:0,0:0:0:0:
440,232,21712,6,0,L|450:331,1,100,0|0,3:0|1:0,0:0:0:0:
324,92,21962,2,0,L|313:191,1,100,0|0,3:0|1:0,0:0:0:0:
152,328,22212,6,0,P|140:292|144:228,1,100,0|0,3:0|1:0,0:0:0:0:
70,133,22462,2,0,P|92:103|146:68,1,100,0|0,3:0|1:0,0:0:0:0:
367,230,22712,6,0,P|372:279|360:328,1,100,0|0,3:0|1:0,0:0:0:0:
367,69,22962,2,0,P|409:93|440:132,1,100,0|0,3:0|1:0,0:0:0:0:
112,336,23212,6,0,B|76:272|76:272|96:292,1,100,0|0,3:0|1:0,0:0:0:0:
164,232,23462,2,0,B|191:163|191:163|188:191,1,100,0|0,3:0|1:0,0:0:0:0:
400,336,23712,6,0,B|436:272|436:272|417:290,1,100,0|0,3:0|1:0,0:0:0:0:
348,232,23962,2,0,B|320:163|320:163|323:190,1,100,0|0,3:0|1:0,0:0:0:0:
172,304,24212,5,8,3:0:0:0:
256,72,24337,5,8,3:0:0:0:
340,304,24462,5,8,3:0:0:0:
128,160,24587,5,8,3:0:0:0:
384,160,24712,6,0,B|492:132|492:132|448:168,1,150,0|0,3:0|1:0,3:0:0:0:
128,160,24962,2,0,B|20:132|20:132|64:168,1,150,0|0,3:0|1:0,0:0:0:0:
294,313,25212,5,2,2:0:0:0:
219,276,25462,1,2,2:0:0:0:
136,268,25712,1,2,2:0:0:0:
56,292,25962,1,2,2:0:0:0:
452,320,26212,6,0,P|416:320|366:345,1,69.9999978637696,2|0,2:0|1:0,0:0:0:0:
448,88,26462,1,2,2:0:0:0:
383,166,26587,2,0,P|407:247|383:335,1,174.999994659424,2|0,2:0|1:0,0:0:0:0:
281,179,26962,2,0,P|328:160|406:174,1,104.999996795654,10|0,2:0|1:0,0:0:0:0:
93,32,27212,5,2,2:0:0:0:
173,55,27462,1,2,2:0:0:0:
238,107,27712,1,2,2:0:0:0:
281,179,27962,1,2,2:0:0:0:
169,256,28212,6,0,P|212:209|305:176,1,139.999995727539,2|0,2:0|1:0,0:0:0:0:
119,137,28587,2,0,P|122:205|168:256,1,139.999995727539,2|0,2:0|1:0,0:0:0:0:
118,303,28962,2,0,P|136:276|186:247,1,69.9999978637696,10|0,2:0|1:0,0:0:0:0:
316,312,29212,2,0,P|345:331|384:336,1,69.9999978637696,2|0,2:0|1:0,0:0:0:0:
401,99,29462,5,2,2:0:0:0:
425,177,29712,1,2,2:0:0:0:
416,261,29962,1,2,2:0:0:0:
144,80,30212,6,0,P|224:48|320:68,1,174.999994659424,10|0,2:0|1:0,0:0:0:0:
161,245,30587,2,0,P|129:165|149:69,1,174.999994659424,2|0,2:0|1:0,0:0:0:0:
229,244,30962,2,0,P|188:240|141:252,1,69.9999978637696,2|0,2:0|1:0,0:0:0:0:
400,336,31212,5,2,2:0:0:0:
372,257,31462,1,2,2:0:0:0:
376,174,31712,1,2,2:0:0:0:
409,97,31962,1,2,2:0:0:0:
52,260,32212,6,0,P|124:292|236:252,1,174.999994659424,2|0,2:0|1:0,0:0:0:0:
250,328,32587,2,0,P|234:292|202:260,1,69.9999978637696,2|0,2:0|0:0,0:0:0:0:
136,164,32837,6,0,P|132:184|144:212,5,34.9999989318848,0|0|0|0|0|0,3:0|3:0|3:0|3:0|3:0|3:0,3:0:0:0:
48,52,33212,6,0,B|108:80|176:72|176:72|160:40,1,150,2|0,2:0|1:0,0:0:0:0:
424,40,33712,1,2,2:0:0:0:
264,72,33962,1,2,2:0:0:0:
424,40,34212,5,2,2:0:0:0:
300,146,34462,1,2,2:0:0:0:
424,40,34712,5,2,2:0:0:0:
375,195,34962,1,2,2:0:0:0:
88,220,35212,6,0,B|92:284|140:332|140:332|136:300,1,150,2|0,2:0|1:0,0:0:0:0:
272,316,35712,5,2,2:0:0:0:
436,288,35962,1,2,2:0:0:0:
336,224,36212,5,2,2:0:0:0:
172,196,36462,1,2,2:0:0:0:
300,60,36712,6,0,P|296:80|300:100,3,25,0|0|0|0,3:0|3:0|3:0|3:0,3:0:0:0:
392,84,36962,2,0,P|403:100|420:112,3,25,2|0|0|0,3:0|3:0|3:0|3:0,3:0:0:0:
60,280,37212,6,0,P|96:268|148:276,1,69.9999978637696,2|0,2:0|1:0,0:0:0:0:
138,337,37462,2,0,P|126:301|134:249,1,69.9999978637696,2|0,2:0|1:0,0:0:0:0:
292,280,37712,6,0,P|256:292|204:284,1,69.9999978637696,2|0,2:0|1:0,0:0:0:0:
368,344,37962,2,0,P|404:332|456:340,1,69.9999978637696,2|0,2:0|1:0,0:0:0:0:
441,184,38212,6,0,P|433:228|449:272,1,69.9999978637696,2|0,2:0|1:0,0:0:0:0:
448,36,38462,2,0,P|456:76|440:124,1,69.9999978637696,2|0,2:0|1:0,0:0:0:0:
216,178,38712,6,0,P|329:139|444:186,1,244.999992523194,2|0,2:0|2:0,0:0:0:0:
168,344,39212,6,0,P|160:308|168:272,1,69.9999978637696,2|0,2:0|1:0,0:0:0:0:
48,204,39462,2,0,P|84:196|120:204,1,69.9999978637696,10|0,2:0|1:0,0:0:0:0:
236,342,39712,6,0,P|200:350|164:342,1,69.9999978637696,2|0,2:0|1:0,0:0:0:0:
49,135,39962,2,0,P|41:171|49:207,1,69.9999978637696,10|0,2:0|1:0,0:0:0:0:
308,248,40212,5,8,2:0:0:0:
204,136,40337,5,8,2:0:0:0:
371,315,40462,5,8,2:0:0:0:
140,68,40587,5,8,2:0:0:0:
215,348,40712,6,0,P|249:352|284:348,1,69.9999978637696,10|0,2:0|1:0,0:0:0:0:
292,32,40962,2,0,P|251:28|200:41,1,69.9999978637696,10|0,2:0|1:0,0:0:0:0:
77,23,41212,6,0,B|87:35|87:35|65:95,1,80,2|0,2:0|1:0,0:0:0:0:
226,83,41462,2,0,B|224:99|224:99|166:126,1,80,2|0,2:0|1:0,0:0:0:0:
312,232,41712,6,0,B|300:242|300:242|240:220,1,80,2|0,2:0|1:0,0:0:0:0:
251,380,41962,2,0,B|235:379|235:379|209:321,1,80,2|0,2:0|1:0,0:0:0:0:
96,64,42212,5,8,2:0:0:0:
133,242,42337,1,8,2:0:0:0:
129,150,42462,1,8,2:0:0:0:
110,333,42587,1,8,2:0:0:0:
43,247,42712,6,0,L|32:168,1,80,2|0,2:0|1:0,0:0:0:0:
224,328,42962,2,0,L|216:248,1,80,10|0,2:0|1:0,0:0:0:0:
434,23,43212,6,0,B|424:35|424:35|446:95,1,80,2|0,2:0|1:0,0:0:0:0:
285,83,43462,2,0,B|287:99|287:99|345:126,1,80,0|0,0:0|1:0,0:0:0:0:
199,232,43712,6,0,B|211:242|211:242|272:220,1,80,2|0,2:0|1:0,0:0:0:0:
260,380,43962,2,0,B|276:379|276:379|303:321,1,80,2|0,2:0|1:0,0:0:0:0:
416,64,44212,5,8,2:0:0:0:
379,242,44337,1,8,2:0:0:0:
383,150,44462,1,8,2:0:0:0:
402,333,44587,1,8,2:0:0:0:
468,247,44712,6,0,L|480:168,1,80,10|0,2:0|1:0,0:0:0:0:
288,328,44962,2,0,L|296:248,1,80,2|0,2:0|1:0,0:0:0:0:
56,140,45212,6,0,P|56:104|100:64,1,89.9999972534181,0|0,3:0|1:0,0:0:0:0:
200,240,45712,2,0,P|174:214|177:155,1,89.9999972534181,0|0,3:0|1:0,0:0:0:0:
456,140,46212,6,0,P|456:104|412:64,1,89.9999972534181,0|0,3:0|1:0,0:0:0:0:
312,240,46712,2,0,P|337:214|334:155,1,89.9999972534181,0|0,3:0|1:0,0:0:0:0:
72,288,47212,6,0,L|60:192,1,89.9999972534181,0|0,3:0|1:0,0:0:0:0:
188,340,47712,2,0,L|176:250,1,89.9999972534181,0|0,3:0|1:0,0:0:0:0:
440,288,48212,6,0,L|452:192,1,89.9999972534181,0|0,3:0|1:0,0:0:0:0:
324,340,48712,2,0,L|335:250,1,89.9999972534181,0|0,3:0|1:0,0:0:0:0:
128,120,49212,6,0,B|176:144|176:144|176:292,1,179.999994506836,0|0,3:0|1:0,0:0:0:0:
384,120,49712,2,0,B|336:144|336:144|336:292,1,179.999994506836,0|0,3:0|1:0,0:0:0:0:
100,352,50212,6,0,B|52:328|52:328|52:192,1,179.999994506836,0|0,3:0|1:0,0:0:0:0:
412,352,50712,2,0,B|460:328|460:328|460:192,1,179.999994506836,0|0,3:0|1:0,0:0:0:0:
36,328,51212,6,0,B|55:312|67:284|67:284|123:296|152:348|152:348|220:304|288:360,1,300,6|0,3:0|1:0,0:0:0:0:
460,132,51712,6,0,B|428:120|428:120|368:144|320:40|320:40|300:84|264:96|264:96|204:80|136:96,1,389.999982147218,6|0,3:0|1:0,0:0:0:0:
80,320,52212,6,0,B|140:320|168:260|168:260|200:272|208:312|208:312|192:352|192:352|252:332|296:348|296:348|348:320|348:320|403:351,1,450.000017166138,6|0,3:0|1:0,0:0:0:0:
432,96,52712,6,0,B|374:115|350:103|350:103|314:71|296:48|296:48|272:72|278:103|278:103|266:119|266:119|260:144|240:164|240:164|226:103|176:56|176:56|128:52|96:88,1,510.000009727478,6|0,3:0|1:0,0:0:0:0:
256,192,53212,12,0,54212,1:0:0:0:
68,260,54712,6,2,L|122:258,3,33.3333333333333
108,160,54878,6,2,L|162:158,3,33.3333333333333,2|2|2|2,2:0|2:0|2:0|2:0,2:0:0:0:
168,72,55045,6,2,L|222:70,3,33.3333333333333,2|2|2|2,2:0|2:0|2:0|2:0,2:0:0:0:
380,336,55212,6,0,B|444:188|444:188|392:124,1,200,14|0,2:0|1:0,0:0:0:0:
160,328,55462,2,0,B|309:268|309:268|318:186,1,200,14|0,2:0|1:0,0:0:0:0:
20,156,55712,2,0,B|168:219|168:219|232:167,1,200,14|0,2:0|1:0,0:0:0:0:
160,52,55962,6,0,B|170:80|170:80|196:84,1,44.999998626709,2|0,2:0|1:0,0:0:0:0:
435,155,56212,6,0,B|409:80|323:50|323:50|296:80,1,200,14|0,2:0|1:0,0:0:0:0:
329,352,56462,2,0,B|363:280|324:198|324:198|284:200,1,200,14|0,2:0|1:0,0:0:0:0:
88,379,56712,2,0,B|163:353|193:267|193:267|164:240,1,200,14|0,2:0|1:0,0:0:0:0:
28,192,56962,6,0,B|46:201|63:197|63:197|67:181,1,44.999998626709,2|0,2:0|1:0,0:0:0:0:
52,56,57212,6,0,B|35:70|35:70|59:307,1,200,14|0,2:0|1:0,0:0:0:0:
159,164,57462,2,0,B|158:186|158:186|342:335,1,200,14|0,2:0|1:0,0:0:0:0:
289,131,57712,2,0,B|304:146|304:146|540:122,1,200,14|0,2:0|1:0,0:0:0:0:
384,44,57962,6,0,B|404:44|404:44|419:22,1,44.999998626709,2|0,2:0|1:0,0:0:0:0:
244,84,58212,6,0,P|151:50|54:69,1,200,10|0,2:0|1:0,0:0:0:0:
116,248,58462,2,0,P|110:149|38:57,1,200,10|0,2:0|1:0,0:0:0:0:
241,229,58712,6,0,P|300:307|392:344,1,200,10|0,2:0|1:0,0:0:0:0:
439,160,58962,2,0,P|390:245|400:362,1,200,10|0,2:0|1:0,0:0:0:0:
256,328,59212,5,0,3:0:0:0:
164,328,59337,6,0,B|103:288|92:256|92:256|61:243|9:200,1,200,14|0,2:0|1:0,0:0:0:0:
256,328,59587,1,0,3:0:0:0:
192,208,59712,6,0,B|176:137|192:106|192:106|179:76|172:8,1,200,14|0,2:0|1:0,0:0:0:0:
256,328,59962,1,0,3:0:0:0:
320,208,60087,6,0,B|335:137|319:106|319:106|332:76|339:8,1,200,14|0,2:0|1:0,0:0:0:0:
256,328,60337,1,0,3:0:0:0:
348,328,60462,6,0,B|408:288|419:256|419:256|450:243|502:200,1,200,14|0,2:0|1:0,0:0:0:0:
84,52,60712,6,0,P|52:131|96:251,1,200,2|0,2:0|1:0,0:0:0:0:
328,160,60962,2,0,P|252:120|128:152,1,200,2|0,2:0|1:0,0:0:0:0:
432,272,61212,6,0,B|444:236|444:236|404:120|404:120|412:64,1,200,14|0,2:0|1:0,0:0:0:0:
392,344,61462,1,0,3:0:0:0:
348,256,61587,6,0,B|331:222|331:222|220:168|220:168|186:123,1,200,14|0,2:0|1:0,0:0:0:0:
392,344,61837,1,0,3:0:0:0:
284,320,61962,6,0,B|248:308|248:308|131:348|131:348|75:340,1,200,14|0,2:0|1:0,0:0:0:0:
76,228,62212,6,0,P|52:192|56:132,3,100,0|0|0|0,3:0|3:0|3:0|3:0,3:0:0:0:
144,152,62462,2,0,P|152:109|197:69,3,100,0|0|0|0,3:0|3:0|3:0|3:0,3:0:0:0:
360,248,62712,6,0,P|310:244|268:270,1,100,0|0,3:0|3:0,3:0:0:0:
360,248,62837,6,0,P|356:297|382:339,1,100,0|0,3:0|3:0,3:0:0:0:
360,248,62962,6,0,P|409:251|451:225,1,100,0|0,3:0|3:0,3:0:0:0:
360,248,63087,6,0,P|363:198|337:156,1,100,0|0,3:0|3:0,3:0:0:0:
72,324,63212,6,0,P|56:184|119:112,1,200,14|0,2:0|1:0,0:0:0:0:
145,235,63462,2,0,P|233:125|327:119,1,200,14|0,2:0|1:0,0:0:0:0:
265,224,63712,2,0,P|404:208|476:271,1,200,14|0,2:0|1:0,0:0:0:0:
336,308,63962,6,0,P|352:320|364:348,1,44.999998626709,2|0,2:0|1:0,0:0:0:0:
440,64,64212,6,0,B|411:77|403:137|403:137|389:145|389:145|385:206|340:235,1,200,14|0,2:0|1:0,0:0:0:0:
276,180,64462,2,0,B|246:169|198:206|198:206|182:201|182:201|136:242|83:230,1,200,14|0,2:0|1:0,0:0:0:0:
192,100,64712,2,0,B|178:71|118:63|118:63|110:49|110:49|49:45|20:0,1,200,14|0,2:0|1:0,0:0:0:0:
304,72,64962,6,0,B|304:64|296:56|296:56|300:48|300:48|292:40|293:26,1,44.999998626709,2|0,2:0|1:0,0:0:0:0:
448,264,65212,6,0,B|433:185|433:185|407:164|407:164|388:60,1,200,14|0,2:0|1:0,0:0:0:0:
328,228,65462,2,0,B|262:182|262:182|229:186|229:186|141:125,1,200,14|0,2:0|1:0,0:0:0:0:
212,276,65712,2,0,B|133:290|133:290|112:316|112:316|8:335,1,200,14|0,2:0|1:0,0:0:0:0:
316,312,65962,6,0,B|308:324|308:324|304:345|304:345|293:362,1,44.999998626709,2|0,2:0|1:0,0:0:0:0:
428,196,66212,6,0,P|360:225|233:177,1,200,10|0,2:0|1:0,0:0:0:0:
385,72,66462,2,0,P|355:139|228:187,1,200,10|0,2:0|1:0,0:0:0:0:
61,182,66712,6,0,P|128:152|255:200,1,200,10|0,2:0|1:0,0:0:0:0:
104,306,66962,2,0,P|133:238|260:190,1,200,10|0,2:0|1:0,0:0:0:0:
252,344,67212,5,0,3:0:0:0:
44,280,67337,6,0,B|60:205|60:205|44:157|44:157|48:85,1,200,14|0,2:0|1:0,0:0:0:0:
252,344,67587,1,0,3:0:0:0:
184,232,67712,6,0,B|168:157|168:157|184:109|184:109|180:37,1,200,14|0,2:0|1:0,0:0:0:0:
252,344,67962,1,0,3:0:0:0:
328,232,68087,6,0,B|344:157|344:157|328:109|328:109|332:37,1,200,14|0,2:0|1:0,0:0:0:0:
252,344,68337,1,0,3:0:0:0:
468,280,68462,6,0,B|452:205|452:205|468:157|468:157|464:85,1,200,14|0,2:0|1:0,0:0:0:0:
240,204,68712,6,0,P|156:142|169:53,1,200,10|0,2:0|1:0,0:0:0:0:
21,126,68962,2,0,P|81:42|170:55,1,200,10|0,2:0|1:0,0:0:0:0:
408,164,69212,6,0,P|439:200|439:274,3,100,0|0|0|0,3:0|3:0|3:0|3:0,3:0:0:0:
351,260,69462,2,0,P|347:307|294:359,3,100,0|0|0|0,3:0|3:0|3:0|3:0,3:0:0:0:
246,291,69712,6,0,B|209:322|209:322|135:322,1,100,0|0,3:0|3:0,3:0:0:0:
168,212,69837,6,0,B|136:175|136:175|136:101,1,100,0|0,3:0|3:0,3:0:0:0:
266,93,69962,6,0,B|302:61|302:61|376:61,1,100,0|0,3:0|3:0,3:0:0:0:
344,172,70087,6,0,B|375:208|375:208|375:282,1,100,0|0,3:0|3:0,3:0:0:0:
72,56,70212,6,0,L|180:80,1,100,0|0,3:0|3:0,3:0:0:0:
452,120,70337,6,0,L|344:144,1,100,0|0,3:0|3:0,3:0:0:0:
56,216,70462,6,0,L|164:240,1,100,0|0,3:0|3:0,3:0:0:0:
436,280,70587,6,0,L|328:304,1,100,0|0,3:0|3:0,3:0:0:0:
252,344,70712,5,0,3:0:0:0:
252,324,70775,5,0,3:0:0:0:
252,304,70837,5,0,3:0:0:0:
252,284,70900,5,0,3:0:0:0:
252,264,70962,5,0,3:0:0:0:
252,244,71025,5,0,3:0:0:0:
252,224,71087,5,0,3:0:0:0:
252,204,71150,5,0,3:0:0:0:
320,112,71212,6,0,P|256:84|188:116,1,150,2|0,2:0|1:0,0:0:0:0:
60,200,71712,6,0,L|68:256,1,50,2|0,2:0|1:0,0:0:0:0:
168,264,71962,2,0,L|176:320,1,50,2|0,2:0|1:0,0:0:0:0:
456,336,72212,6,0,P|388:312|312:340,1,150,2|0,2:0|1:0,0:0:0:0:
316,196,72712,2,0,P|340:265|315:335,1,150,2|0,2:0|1:0,0:0:0:0:
176,195,73212,6,0,P|245:170|315:195,1,150,2|0,2:0|1:0,0:0:0:0:
176,55,73712,2,0,P|200:124|175:194,1,150,2|0,2:0|1:0,0:0:0:0:
36,54,74212,6,0,P|105:29|175:54,1,150,2|0,2:0|1:0,0:0:0:0:
376,52,74712,6,0,L|368:116,1,50,2|0,2:0|1:0,0:0:0:0:
452,192,74962,6,0,L|447:228,3,25,0|0|0|0,3:0|3:0|3:0|3:0,3:0:0:0:
259,326,75212,6,0,P|309:292|380:300,1,119.999996337891,2|0,2:0|1:0,0:0:0:0:
472,328,75462,2,0,P|404:327|357:273,1,119.999996337891,2|0,2:0|1:0,0:0:0:0:
232,224,75712,6,0,P|173:210|113:226,1,119.999996337891,2|0,2:0|1:0,0:0:0:0:
24,344,75962,2,0,P|38:286|24:228,1,119.999996337891,2|0,2:0|1:0,0:0:0:0:
238,108,76212,6,0,P|248:166|231:223,1,119.999996337891,2|0,2:0|1:0,0:0:0:0:
48,48,76462,2,0,P|106:37|163:54,1,119.999996337891,2|0,2:0|1:0,0:0:0:0:
336,104,76712,6,0,P|392:121|451:110,1,119.999996337891,2|0,2:0|1:0,0:0:0:0:
448,328,76962,2,0,P|465:271|454:212,1,119.999996337891,2|0,2:0|1:0,0:0:0:0:
122,318,77212,6,0,P|167:215|153:325,1,300,6|0,3:0|1:0,0:0:0:0:
122,318,77712,6,0,P|90:212|166:321,1,389.999982147218,6|0,3:0|1:0,0:0:0:0:
123,330,78212,6,0,P|117:170|141:333,1,450.000017166138,6|0,3:0|1:0,0:0:0:0:
106,326,78712,6,0,P|132:140|201:315,1,510.000009727478,6|0,3:0|1:0,0:0:0:0:
408,264,79212,6,0,P|372:296|360:352,2,100,0|0|0,3:0|3:0|3:0,3:0:0:0:
417,159,79399,2,0,P|364:160|321:187,2,100,0|8|0,3:0|3:0|3:0,3:0:0:0:
496,92,79587,6,0,P|464:56|407:44,3,100,0|0|0|0,3:0|3:0|3:0|3:0,3:0:0:0:
264,28,79837,6,0,P|216:22|166:51,1,100,0|0,3:0|3:0,3:0:0:0:
190,138,79962,6,0,P|195:90|166:40,1,100,0|0,3:0|3:0,3:0:0:0:
79,64,80087,6,0,P|126:69|176:40,1,100,0|0,3:0|3:0,3:0:0:0:
56,180,80212,5,0,3:0:0:0:
57,194,80274,5,0,3:0:0:0:
59,208,80337,5,0,3:0:0:0:
60,222,80399,5,0,3:0:0:0:
62,236,80462,5,0,3:0:0:0:
63,251,80524,5,0,3:0:0:0:
65,265,80587,5,0,3:0:0:0:
66,279,80649,5,0,3:0:0:0:
164,332,80712,6,0,L|152:224,1,104.999996795654,8|0,3:0|1:0,0:0:0:0:
304,288,81212,6,0,P|344:260|424:256,1,100,0|0,3:0|1:0,0:0:0:0:
432,339,81462,2,0,P|404:303|400:219,1,100,0|0,3:0|1:0,0:0:0:0:
452,100,81712,6,0,P|412:128|332:132,1,100,0|0,3:0|1:0,0:0:0:0:
324,49,81962,2,0,P|352:85|356:169,1,100,0|0,3:0|1:0,0:0:0:0:
168,240,82212,6,0,P|125:226|65:242,1,100,0|0,3:0|1:0,0:0:0:0:
70,334,82462,2,0,P|83:291|67:231,1,100,0|0,3:0|1:0,0:0:0:0:
327,302,82712,2,0,P|194:331|63:220,1,300,0|0,3:0|0:0,0:0:0:0:
44,84,83212,6,0,P|93:79|154:101,1,100,0|0,3:0|1:0,0:0:0:0:
225,142,83462,2,0,P|187:109|140:92,1,100,0|0,3:0|1:0,0:0:0:0:
408,276,83712,6,0,P|370:308|323:325,1,100,0|0,3:0|1:0,0:0:0:0:
358,191,83962,2,0,P|390:228|407:275,1,100,0|0,3:0|1:0,0:0:0:0:
72,60,84212,6,0,P|129:65|173:100,1,100,0|0,3:0|1:0,0:0:0:0:
81,146,84462,2,0,P|118:102|173:87,1,100,0|0,3:0|1:0,0:0:0:0:
422,88,84712,2,0,P|188:117|147:78,1,300,0|0,3:0|1:0,0:0:0:0:
75,301,85212,6,0,P|61:234|76:201,1,100,0|0,3:0|1:0,0:0:0:0:
169,297,85462,2,0,P|102:311|69:296,1,100,0|0,3:0|1:0,0:0:0:0:
232,180,85712,6,0,P|300:176|330:196,1,100,0|0,3:0|1:0,0:0:0:0:
370,345,85962,2,0,P|389:299|381:251,1,100,0|0,3:0|1:0,0:0:0:0:
448,144,86212,6,0,P|444:99|404:62,1,100,0|0,3:0|1:0,0:0:0:0:
324,104,86462,2,0,P|368:100|405:60,1,100,0|0,3:0|1:0,0:0:0:0:
111,58,86712,2,0,P|260:32|430:73,1,300,0|0,3:0|1:0,0:0:0:0:
152,300,87212,6,0,P|135:248|143:201,1,100,0|0,3:0|1:0,0:0:0:0:
56,310,87462,2,0,P|107:293|154:301,1,100,0|0,3:0|1:0,0:0:0:0:
132,107,87712,6,0,P|148:158|140:205,1,100,0|0,3:0|1:0,0:0:0:0:
228,96,87962,2,0,P|176:112|129:104,1,100,0|0,3:0|1:0,0:0:0:0:
335,180,88212,6,0,P|352:173|380:172,2,33.3333333333333,8|0|0,3:2|3:0|3:0,3:0:0:0:
444,219,88337,6,0,P|450:240|447:268,2,33.3333333333333,0|0|0,3:2|3:0|3:0,3:0:0:0:
407,340,88462,6,0,P|390:346|366:344,2,33.3333333333333,0|0|0,3:2|3:0|3:0,3:0:0:0:
288,291,88587,6,0,P|282:273|285:245,2,33.3333333333333,0|0|0,3:2|3:0|3:0,3:0:0:0:
64,280,88712,5,8,3:0:0:0:
69,300,88774,5,0,3:0:0:0:
79,317,88837,5,0,3:0:0:0:
152,68,88962,5,6,3:0:0:0:
