osu file format v14

[General]
AudioFilename: audio.mp3
AudioLeadIn: 0
PreviewTime: 55952
Countdown: 0
SampleSet: Soft
StackLeniency: 0.7
Mode: 3
LetterboxInBreaks: 0
SpecialStyle: 0
WidescreenStoryboard: 1

[Editor]
Bookmarks: 55952
DistanceSpacing: 1.5
BeatDivisor: 4
GridSize: 32
TimelineZoom: 2.4

[Metadata]
Title:Los! Los! Los!
TitleUnicode:Los! Los! Los!
Artist:Tanya Degurechaff (CV: Yuki Aoi)
ArtistUnicode:ターニャ・デグレチャフ(CV:悠木碧)
Creator:Ari Knight
Version:Insane
Source:幼女戦記
Tags:youjo senki degurechaff saga of tanya the evil ed drum cover 桿子
BeatmapID:1322169
BeatmapSetID:624883

[Difficulty]
HPDrainRate:8
CircleSize:4
OverallDifficulty:8.4
ApproachRate:5
SliderMultiplier:1.4
SliderTickRate:1

[Events]
//Background and Video events
0,0,"BG Insane.jpg",0,0
//Break Periods
//Storyboard Layer 0 (Background)
//Storyboard Layer 1 (Fail)
//Storyboard Layer 2 (Pass)
//Storyboard Layer 3 (Foreground)
//Storyboard Sound Samples

[TimingPoints]
952,250,4,2,1,50,1,0

[HitObjects]
64,192,1952,5,0,0:0:0:0:
448,192,1952,1,0,0:0:0:0:
320,192,2077,1,0,0:0:0:0:
192,192,2202,1,0,0:0:0:0:
320,192,2327,1,0,0:0:0:0:
448,192,2452,1,0,0:0:0:0:
192,192,2577,1,0,0:0:0:0:
64,192,2702,1,0,0:0:0:0:
320,192,2827,1,0,0:0:0:0:
448,192,2952,1,0,0:0:0:0:
192,192,3077,1,0,0:0:0:0:
64,192,3202,1,0,0:0:0:0:
320,192,3327,1,0,0:0:0:0:
448,192,3452,128,0,3577:0:0:0:0:
64,192,3702,128,0,3827:0:0:0:0:
320,192,3952,1,0,0:0:0:0:
448,192,3952,1,0,0:0:0:0:
64,192,4077,1,0,0:0:0:0:
192,192,4202,1,0,0:0:0:0:
448,192,4327,1,0,0:0:0:0:
320,192,4452,1,0,0:0:0:0:
64,192,4577,1,0,0:0:0:0:
192,192,4702,1,0,0:0:0:0:
448,192,4827,1,0,0:0:0:0:
320,192,4952,1,0,0:0:0:0:
64,192,5077,1,0,0:0:0:0:
192,192,5202,1,0,0:0:0:0:
448,192,5327,1,0,0:0:0:0:
320,192,5452,1,0,0:0:0:0:
64,192,5577,128,0,5702:0:0:0:0:
192,192,5702,128,0,5952:0:0:0:0:
320,192,5952,1,0,0:0:0:0:
448,192,5952,1,0,0:0:0:0:
192,192,6202,1,0,0:0:0:0:
64,192,6202,1,0,0:0:0:0:
320,192,6452,1,0,0:0:0:0:
448,192,6452,1,0,0:0:0:0:
64,192,6702,1,0,0:0:0:0:
320,192,6702,1,0,0:0:0:0:
192,192,6952,1,0,0:0:0:0:
448,192,6952,1,0,0:0:0:0:
192,192,7202,1,0,0:0:0:0:
64,192,7202,1,0,0:0:0:0:
320,192,7452,1,0,0:0:0:0:
448,192,7452,128,0,7702:0:0:0:0:
64,192,7702,1,0,0:0:0:0:
320,192,7702,1,0,0:0:0:0:
192,192,7952,1,0,0:0:0:0:
64,192,7952,1,0,0:0:0:0:
448,192,7952,1,0,0:0:0:0:
320,192,8202,1,0,0:0:0:0:
448,192,8202,1,0,0:0:0:0:
64,192,8452,1,0,0:0:0:0:
192,192,8452,1,0,0:0:0:0:
192,192,8702,1,0,0:0:0:0:
320,192,8702,1,0,0:0:0:0:
448,192,8952,1,0,0:0:0:0:
64,192,8952,1,0,0:0:0:0:
320,192,9202,1,0,0:0:0:0:
192,192,9202,1,0,0:0:0:0:
192,192,9452,1,0,0:0:0:0:
64,192,9452,128,0,9702:0:0:0:0:
320,192,9702,1,0,0:0:0:0:
448,192,9702,1,0,0:0:0:0:
64,192,9952,1,0,0:0:0:0:
448,192,9952,1,0,0:0:0:0:
320,192,9952,1,0,0:0:0:0:
64,192,10202,1,0,0:0:0:0:
192,192,10202,1,0,0:0:0:0:
192,192,10452,1,0,0:0:0:0:
320,192,10452,1,0,0:0:0:0:
320,192,10702,1,0,0:0:0:0:
448,192,10702,1,0,0:0:0:0:
64,192,10952,1,0,0:0:0:0:
448,192,10952,1,0,0:0:0:0:
192,192,11202,1,0,0:0:0:0:
320,192,11202,1,0,0:0:0:0:
64,192,11452,1,0,0:0:0:0:
448,192,11452,1,0,0:0:0:0:
192,192,11702,1,0,0:0:0:0:
320,192,11702,1,0,0:0:0:0:
64,192,11952,1,0,0:0:0:0:
320,192,11952,1,0,0:0:0:0:
448,192,11952,1,0,0:0:0:0:
192,192,12077,1,0,0:0:0:0:
64,192,12077,1,0,0:0:0:0:
320,192,12202,1,0,0:0:0:0:
448,192,12202,1,0,0:0:0:0:
320,192,12327,1,0,0:0:0:0:
192,192,12327,1,0,0:0:0:0:
64,192,12452,1,0,0:0:0:0:
192,192,12452,1,0,0:0:0:0:
448,192,12577,1,0,0:0:0:0:
320,192,12577,1,0,0:0:0:0:
64,192,12702,1,0,0:0:0:0:
320,192,12702,1,0,0:0:0:0:
192,192,12827,1,0,0:0:0:0:
448,192,12827,1,0,0:0:0:0:
320,192,12952,1,0,0:0:0:0:
64,192,12952,1,0,0:0:0:0:
64,192,13077,1,0,0:0:0:0:
192,192,13077,1,0,0:0:0:0:
192,192,13202,1,0,0:0:0:0:
320,192,13202,1,0,0:0:0:0:
320,192,13327,1,0,0:0:0:0:
448,192,13327,1,0,0:0:0:0:
64,192,13452,1,0,0:0:0:0:
192,192,13452,1,0,0:0:0:0:
320,192,13514,1,0,0:0:0:0:
448,192,13577,1,0,0:0:0:0:
64,192,13577,1,0,0:0:0:0:
192,192,13639,1,0,0:0:0:0:
320,192,13702,1,0,0:0:0:0:
448,192,13702,1,0,0:0:0:0:
64,192,13764,1,0,0:0:0:0:
192,192,13827,1,0,0:0:0:0:
320,192,13889,1,0,0:0:0:0:
64,192,13952,128,0,14202:0:0:0:0:
192,192,13952,1,0,0:0:0:0:
448,192,13952,1,0,0:0:0:0:
192,192,14202,128,0,14452:0:0:0:0:
448,192,14202,1,0,0:0:0:0:
448,192,14452,128,0,14702:0:0:0:0:
64,192,14452,1,0,0:0:0:0:
192,192,14577,1,0,0:0:0:0:
64,192,14702,128,0,14952:0:0:0:0:
320,192,14702,1,0,0:0:0:0:
320,192,14952,128,0,15202:0:0:0:0:
192,192,14952,1,0,0:0:0:0:
192,192,15202,128,0,15452:0:0:0:0:
448,192,15202,1,0,0:0:0:0:
320,192,15327,1,0,0:0:0:0:
448,192,15452,128,0,15702:0:0:0:0:
64,192,15577,1,0,0:0:0:0:
320,192,15702,128,0,15952:0:0:0:0:
192,192,15702,1,0,0:0:0:0:
192,192,15952,128,0,16202:0:0:0:0:
448,192,15952,1,0,0:0:0:0:
64,192,16202,128,0,16452:0:0:0:0:
320,192,16202,1,0,0:0:0:0:
448,192,16452,128,0,16702:0:0:0:0:
320,192,16452,1,0,0:0:0:0:
192,192,16577,1,0,0:0:0:0:
192,192,16702,128,0,16952:0:0:0:0:
64,192,16702,1,0,0:0:0:0:
320,192,16827,1,0,0:0:0:0:
320,192,16952,128,0,17202:0:0:0:0:
448,192,16952,1,0,0:0:0:0:
192,192,17202,1,0,0:0:0:0:
64,192,17202,1,0,0:0:0:0:
320,192,17327,1,0,0:0:0:0:
64,192,17452,128,0,17702:0:0:0:0:
448,192,17577,1,0,0:0:0:0:
320,192,17639,1,0,0:0:0:0:
448,192,17702,128,0,17952:0:0:0:0:
192,192,17702,1,0,0:0:0:0:
320,192,17827,1,0,0:0:0:0:
320,192,17952,128,0,18452:0:0:0:0:
64,192,17952,1,0,0:0:0:0:
192,192,18077,1,0,0:0:0:0:
448,192,18202,1,0,0:0:0:0:
192,192,18327,1,0,0:0:0:0:
64,192,18327,1,0,0:0:0:0:
64,192,18452,128,0,18702:0:0:0:0:
448,192,18452,1,0,0:0:0:0:
320,192,18577,1,0,0:0:0:0:
192,192,18702,128,0,18952:0:0:0:0:
448,192,18702,1,0,0:0:0:0:
64,192,18827,1,0,0:0:0:0:
448,192,18952,128,0,19202:0:0:0:0:
320,192,18952,1,0,0:0:0:0:
192,192,19077,1,0,0:0:0:0:
64,192,19077,1,0,0:0:0:0:
320,192,19202,1,0,0:0:0:0:
448,192,19327,1,0,0:0:0:0:
192,192,19452,128,0,19702:0:0:0:0:
320,192,19452,1,0,0:0:0:0:
448,192,19577,1,0,0:0:0:0:
64,192,19702,128,0,19952:0:0:0:0:
320,192,19702,1,0,0:0:0:0:
192,192,19827,1,0,0:0:0:0:
320,192,19952,128,0,20202:0:0:0:0:
448,192,19952,1,0,0:0:0:0:
192,192,20077,1,0,0:0:0:0:
448,192,20202,128,0,20452:0:0:0:0:
64,192,20202,1,0,0:0:0:0:
192,192,20327,1,0,0:0:0:0:
64,192,20452,128,0,20702:0:0:0:0:
320,192,20452,1,0,0:0:0:0:
448,192,20577,1,0,0:0:0:0:
192,192,20702,128,0,20952:0:0:0:0:
320,192,20702,1,0,0:0:0:0:
320,192,20952,128,0,21452:0:0:0:0:
448,192,20952,1,0,0:0:0:0:
192,192,21077,1,0,0:0:0:0:
64,192,21202,1,0,0:0:0:0:
192,192,21327,1,0,0:0:0:0:
448,192,21452,128,0,21952:0:0:0:0:
64,192,21452,1,0,0:0:0:0:
192,192,21577,1,0,0:0:0:0:
320,192,21702,1,0,0:0:0:0:
192,192,21827,1,0,0:0:0:0:
64,192,21952,128,0,23952:0:0:0:0:
320,192,21952,1,0,0:0:0:0:
320,192,22202,1,0,0:0:0:0:
448,192,22452,1,0,0:0:0:0:
448,192,22702,1,0,0:0:0:0:
192,192,22952,1,0,0:0:0:0:
192,192,23202,1,0,0:0:0:0:
448,192,23452,128,0,23702:0:0:0:0:
320,192,23702,1,0,0:0:0:0:
320,192,23952,1,0,0:0:0:0:
448,192,23952,1,0,0:0:0:0:
192,192,24077,1,0,0:0:0:0:
64,192,24202,1,0,0:0:0:0:
448,192,24202,1,0,0:0:0:0:
320,192,24327,1,0,0:0:0:0:
192,192,24452,1,0,0:0:0:0:
64,192,24577,1,0,0:0:0:0:
320,192,24702,1,0,0:0:0:0:
448,192,24702,1,0,0:0:0:0:
192,192,24827,1,0,0:0:0:0:
64,192,24952,1,0,0:0:0:0:
192,192,25077,1,0,0:0:0:0:
320,192,25077,1,0,0:0:0:0:
448,192,25202,1,0,0:0:0:0:
320,192,25327,1,0,0:0:0:0:
192,192,25452,1,0,0:0:0:0:
64,192,25452,1,0,0:0:0:0:
320,192,25577,1,0,0:0:0:0:
448,192,25702,1,0,0:0:0:0:
192,192,25702,1,0,0:0:0:0:
64,192,25827,1,0,0:0:0:0:
320,192,25827,1,0,0:0:0:0:
192,192,25952,1,0,0:0:0:0:
448,192,25952,128,0,26077:0:0:0:0:
448,192,26202,128,0,26327:0:0:0:0:
64,192,26202,1,0,0:0:0:0:
320,192,26202,1,0,0:0:0:0:
64,192,26452,128,0,26577:0:0:0:0:
192,192,26452,1,0,0:0:0:0:
320,192,26577,1,0,0:0:0:0:
448,192,26577,1,0,0:0:0:0:
64,192,26702,128,0,26827:0:0:0:0:
448,192,26827,1,0,0:0:0:0:
320,192,26952,128,0,27327:0:0:0:0:
64,192,26952,1,0,0:0:0:0:
448,192,27202,1,0,0:0:0:0:
192,192,27327,128,0,27702:0:0:0:0:
64,192,27327,1,0,0:0:0:0:
64,192,27577,1,0,0:0:0:0:
320,192,27639,1,0,0:0:0:0:
448,192,27702,1,0,0:0:0:0:
64,192,27702,1,0,0:0:0:0:
448,192,27952,128,0,28077:0:0:0:0:
64,192,27952,1,0,0:0:0:0:
64,192,28077,1,0,0:0:0:0:
448,192,28202,128,0,28327:0:0:0:0:
320,192,28202,1,0,0:0:0:0:
192,192,28202,1,0,0:0:0:0:
64,192,28452,128,0,28577:0:0:0:0:
448,192,28452,1,0,0:0:0:0:
320,192,28577,1,0,0:0:0:0:
192,192,28577,1,0,0:0:0:0:
64,192,28702,128,0,28827:0:0:0:0:
320,192,28827,1,0,0:0:0:0:
192,192,28889,1,0,0:0:0:0:
320,192,28952,128,0,29327:0:0:0:0:
64,192,28952,1,0,0:0:0:0:
448,192,28952,1,0,0:0:0:0:
64,192,29202,1,0,0:0:0:0:
192,192,29327,128,0,29702:0:0:0:0:
448,192,29327,1,0,0:0:0:0:
320,192,29577,1,0,0:0:0:0:
448,192,29639,1,0,0:0:0:0:
64,192,29702,128,0,29952:0:0:0:0:
320,192,29702,1,0,0:0:0:0:
448,192,29952,128,0,30077:0:0:0:0:
192,192,29952,1,0,0:0:0:0:
192,192,30077,1,0,0:0:0:0:
448,192,30202,128,0,30327:0:0:0:0:
320,192,30202,1,0,0:0:0:0:
64,192,30202,1,0,0:0:0:0:
64,192,30452,128,0,30577:0:0:0:0:
192,192,30452,1,0,0:0:0:0:
448,192,30577,1,0,0:0:0:0:
64,192,30702,128,0,30827:0:0:0:0:
320,192,30827,1,0,0:0:0:0:
192,192,30889,1,0,0:0:0:0:
320,192,30952,128,0,31327:0:0:0:0:
64,192,30952,1,0,0:0:0:0:
448,192,30952,1,0,0:0:0:0:
64,192,31202,1,0,0:0:0:0:
192,192,31327,128,0,31702:0:0:0:0:
448,192,31327,1,0,0:0:0:0:
448,192,31577,1,0,0:0:0:0:
320,192,31639,1,0,0:0:0:0:
64,192,31702,1,0,0:0:0:0:
448,192,31702,1,0,0:0:0:0:
448,192,31952,128,0,32077:0:0:0:0:
320,192,31952,1,0,0:0:0:0:
320,192,32077,1,0,0:0:0:0:
64,192,32202,128,0,32327:0:0:0:0:
192,192,32202,1,0,0:0:0:0:
448,192,32202,1,0,0:0:0:0:
320,192,32452,128,0,32577:0:0:0:0:
192,192,32452,1,0,0:0:0:0:
64,192,32577,1,0,0:0:0:0:
448,192,32577,1,0,0:0:0:0:
448,192,32702,128,0,32827:0:0:0:0:
64,192,32952,1,0,0:0:0:0:
192,192,32952,1,0,0:0:0:0:
64,192,33077,1,0,0:0:0:0:
192,192,33077,1,0,0:0:0:0:
320,192,33202,1,0,0:0:0:0:
448,192,33327,1,0,0:0:0:0:
64,192,33577,1,0,0:0:0:0:
448,192,33577,1,0,0:0:0:0:
192,192,33702,1,0,0:0:0:0:
320,192,33827,1,0,0:0:0:0:
448,192,33952,1,0,0:0:0:0:
192,192,33952,1,0,0:0:0:0:
64,192,33952,1,0,0:0:0:0:
320,192,34202,1,0,0:0:0:0:
64,192,34327,1,0,0:0:0:0:
192,192,34389,1,0,0:0:0:0:
320,192,34452,1,0,0:0:0:0:
448,192,34452,1,0,0:0:0:0:
192,192,34702,1,0,0:0:0:0:
448,192,34952,1,0,0:0:0:0:
320,192,35077,1,0,0:0:0:0:
192,192,35077,1,0,0:0:0:0:
64,192,35202,1,0,0:0:0:0:
448,192,35327,1,0,0:0:0:0:
320,192,35389,1,0,0:0:0:0:
192,192,35452,1,0,0:0:0:0:
64,192,35452,1,0,0:0:0:0:
448,192,35702,1,0,0:0:0:0:
64,192,35952,1,0,0:0:0:0:
192,192,36077,1,0,0:0:0:0:
320,192,36077,1,0,0:0:0:0:
448,192,36202,1,0,0:0:0:0:
64,192,36327,1,0,0:0:0:0:
192,192,36389,1,0,0:0:0:0:
320,192,36452,1,0,0:0:0:0:
448,192,36452,1,0,0:0:0:0:
192,192,36702,1,0,0:0:0:0:
448,192,36952,1,0,0:0:0:0:
320,192,37077,1,0,0:0:0:0:
192,192,37077,1,0,0:0:0:0:
64,192,37202,1,0,0:0:0:0:
448,192,37327,1,0,0:0:0:0:
320,192,37389,1,0,0:0:0:0:
192,192,37452,1,0,0:0:0:0:
64,192,37452,1,0,0:0:0:0:
64,192,37577,1,0,0:0:0:0:
192,192,37639,1,0,0:0:0:0:
320,192,37702,1,0,0:0:0:0:
448,192,37702,1,0,0:0:0:0:
192,192,37827,1,0,0:0:0:0:
64,192,37827,1,0,0:0:0:0:
64,192,37952,1,0,0:0:0:0:
320,192,37952,1,0,0:0:0:0:
448,192,37952,1,0,0:0:0:0:
192,192,38202,1,0,0:0:0:0:
64,192,38202,1,0,0:0:0:0:
448,192,38452,1,0,0:0:0:0:
192,192,38452,1,0,0:0:0:0:
320,192,38577,1,0,0:0:0:0:
192,192,38702,1,0,0:0:0:0:
64,192,38702,1,0,0:0:0:0:
320,192,38952,1,0,0:0:0:0:
448,192,38952,1,0,0:0:0:0:
64,192,39202,1,0,0:0:0:0:
320,192,39202,1,0,0:0:0:0:
64,192,39327,1,0,0:0:0:0:
192,192,39327,1,0,0:0:0:0:
448,192,39577,1,0,0:0:0:0:
320,192,39639,1,0,0:0:0:0:
192,192,39702,1,0,0:0:0:0:
64,192,39702,1,0,0:0:0:0:
320,192,39827,1,0,0:0:0:0:
448,192,39827,1,0,0:0:0:0:
192,192,39952,1,0,0:0:0:0:
64,192,39952,1,0,0:0:0:0:
64,192,40202,1,0,0:0:0:0:
448,192,40202,1,0,0:0:0:0:
192,192,40452,1,0,0:0:0:0:
448,192,40452,1,0,0:0:0:0:
320,192,40577,1,0,0:0:0:0:
448,192,40702,1,0,0:0:0:0:
64,192,40702,1,0,0:0:0:0:
192,192,40827,1,0,0:0:0:0:
320,192,40952,1,0,0:0:0:0:
448,192,40952,1,0,0:0:0:0:
192,192,41014,1,0,0:0:0:0:
64,192,41077,1,0,0:0:0:0:
448,192,41077,1,0,0:0:0:0:
320,192,41139,1,0,0:0:0:0:
192,192,41202,1,0,0:0:0:0:
64,192,41202,1,0,0:0:0:0:
320,192,41264,1,0,0:0:0:0:
448,192,41327,1,0,0:0:0:0:
64,192,41327,1,0,0:0:0:0:
192,192,41389,1,0,0:0:0:0:
320,192,41452,1,0,0:0:0:0:
448,192,41452,1,0,0:0:0:0:
192,192,41577,1,0,0:0:0:0:
64,192,41577,1,0,0:0:0:0:
320,192,41702,1,0,0:0:0:0:
448,192,41702,1,0,0:0:0:0:
192,192,41827,1,0,0:0:0:0:
64,192,41827,1,0,0:0:0:0:
320,192,41952,1,0,0:0:0:0:
448,192,41952,1,0,0:0:0:0:
64,192,41952,128,0,42202:0:0:0:0:
192,192,42202,128,0,42452:0:0:0:0:
320,192,42202,1,0,0:0:0:0:
448,192,42452,128,0,42577:0:0:0:0:
64,192,42452,1,0,0:0:0:0:
320,192,42577,128,0,42702:0:0:0:0:
192,192,42702,128,0,42952:0:0:0:0:
448,192,42702,1,0,0:0:0:0:
320,192,42952,128,0,43077:0:0:0:0:
64,192,42952,1,0,0:0:0:0:
192,192,43077,128,0,43202:0:0:0:0:
64,192,43202,128,0,43452:0:0:0:0:
448,192,43202,1,0,0:0:0:0:
448,192,43452,128,0,43702:0:0:0:0:
192,192,43452,1,0,0:0:0:0:
320,192,43702,1,0,0:0:0:0:
64,192,43702,1,0,0:0:0:0:
64,192,43952,128,0,44202:0:0:0:0:
192,192,43952,1,0,0:0:0:0:
320,192,44202,128,0,44452:0:0:0:0:
448,192,44202,1,0,0:0:0:0:
192,192,44452,128,0,44702:0:0:0:0:
64,192,44452,1,0,0:0:0:0:
448,192,44702,128,0,44952:0:0:0:0:
320,192,44702,1,0,0:0:0:0:
64,192,44952,128,0,45077:0:0:0:0:
320,192,44952,1,0,0:0:0:0:
192,192,45077,128,0,45202:0:0:0:0:
320,192,45202,128,0,45452:0:0:0:0:
448,192,45202,1,0,0:0:0:0:
192,192,45452,1,0,0:0:0:0:
64,192,45452,1,0,0:0:0:0:
320,192,45577,1,0,0:0:0:0:
448,192,45577,1,0,0:0:0:0:
192,192,45702,1,0,0:0:0:0:
64,192,45702,1,0,0:0:0:0:
320,192,45827,1,0,0:0:0:0:
448,192,45827,1,0,0:0:0:0:
448,192,45952,1,0,0:0:0:0:
192,192,45952,1,0,0:0:0:0:
64,192,45952,1,0,0:0:0:0:
320,192,46077,1,0,0:0:0:0:
64,192,46202,1,0,0:0:0:0:
448,192,46202,1,0,0:0:0:0:
192,192,46327,1,0,0:0:0:0:
64,192,46452,1,0,0:0:0:0:
448,192,46452,1,0,0:0:0:0:
320,192,46577,1,0,0:0:0:0:
448,192,46702,1,0,0:0:0:0:
192,192,46702,1,0,0:0:0:0:
320,192,46827,1,0,0:0:0:0:
64,192,46952,1,0,0:0:0:0:
192,192,46952,1,0,0:0:0:0:
320,192,47077,1,0,0:0:0:0:
448,192,47202,1,0,0:0:0:0:
64,192,47202,1,0,0:0:0:0:
192,192,47327,1,0,0:0:0:0:
320,192,47452,1,0,0:0:0:0:
448,192,47452,1,0,0:0:0:0:
192,192,47577,1,0,0:0:0:0:
64,192,47702,1,0,0:0:0:0:
448,192,47702,1,0,0:0:0:0:
320,192,47827,1,0,0:0:0:0:
192,192,47952,1,0,0:0:0:0:
64,192,47952,1,0,0:0:0:0:
448,192,48077,1,0,0:0:0:0:
192,192,48202,1,0,0:0:0:0:
320,192,48202,1,0,0:0:0:0:
64,192,48327,1,0,0:0:0:0:
320,192,48452,1,0,0:0:0:0:
448,192,48452,1,0,0:0:0:0:
64,192,48577,1,0,0:0:0:0:
192,192,48702,1,0,0:0:0:0:
320,192,48702,1,0,0:0:0:0:
448,192,48827,1,0,0:0:0:0:
64,192,48952,1,0,0:0:0:0:
192,192,48952,1,0,0:0:0:0:
448,192,49077,1,0,0:0:0:0:
320,192,49202,1,0,0:0:0:0:
192,192,49202,1,0,0:0:0:0:
64,192,49327,1,0,0:0:0:0:
192,192,49389,1,0,0:0:0:0:
320,192,49452,1,0,0:0:0:0:
448,192,49452,1,0,0:0:0:0:
64,192,49577,1,0,0:0:0:0:
192,192,49639,1,0,0:0:0:0:
320,192,49702,1,0,0:0:0:0:
448,192,49764,1,0,0:0:0:0:
64,192,49827,1,0,0:0:0:0:
192,192,49889,1,0,0:0:0:0:
320,192,49952,1,0,0:0:0:0:
448,192,49952,1,0,0:0:0:0:
64,192,50202,1,0,0:0:0:0:
448,192,50202,1,0,0:0:0:0:
320,192,50264,1,0,0:0:0:0:
192,192,50327,1,0,0:0:0:0:
64,192,50389,1,0,0:0:0:0:
320,192,50452,1,0,0:0:0:0:
448,192,50452,1,0,0:0:0:0:
64,192,50702,1,0,0:0:0:0:
448,192,50702,1,0,0:0:0:0:
192,192,50764,1,0,0:0:0:0:
320,192,50827,1,0,0:0:0:0:
448,192,50889,1,0,0:0:0:0:
192,192,50952,1,0,0:0:0:0:
64,192,50952,1,0,0:0:0:0:
64,192,51202,1,0,0:0:0:0:
448,192,51202,1,0,0:0:0:0:
320,192,51264,1,0,0:0:0:0:
192,192,51327,1,0,0:0:0:0:
64,192,51389,1,0,0:0:0:0:
320,192,51452,1,0,0:0:0:0:
448,192,51452,1,0,0:0:0:0:
64,192,51702,128,0,51952:0:0:0:0:
448,192,51952,128,0,52452:0:0:0:0:
320,192,51952,1,0,0:0:0:0:
192,192,51952,1,0,0:0:0:0:
192,192,52452,128,0,52952:0:0:0:0:
320,192,52452,1,0,0:0:0:0:
64,192,52452,1,0,0:0:0:0:
320,192,52952,128,0,53452:0:0:0:0:
448,192,52952,1,0,0:0:0:0:
64,192,52952,1,0,0:0:0:0:
64,192,53452,128,0,53952:0:0:0:0:
192,192,53452,1,0,0:0:0:0:
448,192,53452,1,0,0:0:0:0:
448,192,53952,128,0,54952:0:0:0:0:
192,192,54952,1,0,0:0:0:0:
64,192,54952,1,0,0:0:0:0:
320,192,54952,1,0,0:0:0:0:
64,192,55452,1,0,0:0:0:0:
192,192,55514,1,0,0:0:0:0:
320,192,55577,1,0,0:0:0:0:
448,192,55639,1,0,0:0:0:0:
64,192,55702,1,0,0:0:0:0:
192,192,55764,1,0,0:0:0:0:
320,192,55827,1,0,0:0:0:0:
448,192,55889,1,0,0:0:0:0:
192,192,55952,1,0,0:0:0:0:
64,192,55952,1,0,0:0:0:0:
