osu file format v14

[General]
AudioFilename: audio.mp3
AudioLeadIn: 0
PreviewTime: 172278
Countdown: 0
SampleSet: Normal
StackLeniency: 0.7
Mode: 1
LetterboxInBreaks: 0
WidescreenStoryboard: 0

[Editor]
DistanceSpacing: 0.2
BeatDivisor: 4
GridSize: 32
TimelineZoom: 3.2

[Metadata]
Title:Los! Los! Los!
TitleUnicode:Los! Los! Los!
Artist:Tanya Degurechaff (CV: Aoi Yuuki)
ArtistUnicode:ターニャ・デグレチャフ (CV: 悠木碧)
Creator:asuasu_yura
Version:Oni
Source:幼女戦記
Tags:
BeatmapID:1274388
BeatmapSetID:603361

[Difficulty]
HPDrainRate:5
CircleSize:2
OverallDifficulty:5
ApproachRate:10
SliderMultiplier:1.4
SliderTickRate:1

[Events]
//Background and Video events
0,0,"youjyo-683771-61115119_p0.jpg",0,0
//Break Periods
//Storyboard Layer 0 (Background)
//Storyboard Layer 1 (Fail)
//Storyboard Layer 2 (Pass)
//Storyboard Layer 3 (Foreground)
//Storyboard Sound Samples

[TimingPoints]
1278,250,4,1,0,80,1,0
55278,-100,4,1,0,85,0,1
81278,-100,4,1,0,80,0,0
120278,-100,4,1,0,85,0,1
144278,-100,4,1,0,80,0,0
152028,-100,4,1,0,70,0,0
160153,-100,4,1,0,85,0,0
170528,-83.3333333333333,4,1,0,80,0,0
170778,-76.9230769230769,4,1,0,80,0,0
171028,-71.4285714285714,4,1,0,80,0,0
171278,-66.6666666666667,4,1,0,80,0,0
171528,-100,4,1,0,80,0,0
172278,-100,4,1,0,85,0,1
204278,-100,4,1,0,80,0,0

[HitObjects]
256,192,1278,5,4,0:0:0:0:
256,192,3278,1,0,0:0:0:0:
256,192,5278,1,4,0:0:0:0:
256,192,5528,1,0,0:0:0:0:
256,192,5778,1,2,0:0:0:0:
256,192,5903,1,2,0:0:0:0:
256,192,6028,1,0,0:0:0:0:
256,192,6278,1,2,0:0:0:0:
256,192,6403,1,2,0:0:0:0:
256,192,6528,1,0,0:0:0:0:
256,192,6653,1,0,0:0:0:0:
256,192,6778,1,2,0:0:0:0:
256,192,7028,1,0,0:0:0:0:
256,192,7278,1,4,0:0:0:0:
224,192,7528,1,2,0:0:0:0:
224,192,7653,1,0,0:0:0:0:
256,192,7778,1,2,0:0:0:0:
256,192,7903,1,2,0:0:0:0:
256,192,8028,1,0,0:0:0:0:
256,192,8278,1,2,0:0:0:0:
256,192,8403,1,0,0:0:0:0:
256,192,8528,1,2,0:0:0:0:
256,192,8653,1,2,0:0:0:0:
256,192,8778,1,0,0:0:0:0:
288,224,8840,1,0,0:0:0:0:
288,224,8903,1,0,0:0:0:0:
288,224,9028,1,2,0:0:0:0:
288,224,9153,1,0,0:0:0:0:
288,224,9278,1,4,0:0:0:0:
288,224,9528,1,2,0:0:0:0:
288,224,9653,1,0,0:0:0:0:
288,224,9778,1,2,0:0:0:0:
288,224,9840,1,2,0:0:0:0:
288,224,9903,1,0,0:0:0:0:
288,224,10028,1,2,0:0:0:0:
288,224,10153,1,0,0:0:0:0:
256,256,10278,1,2,0:0:0:0:
256,256,10340,1,2,0:0:0:0:
256,256,10403,1,0,0:0:0:0:
256,256,10465,1,0,0:0:0:0:
256,256,10528,1,2,0:0:0:0:
288,256,10653,1,0,0:0:0:0:
288,256,10778,1,2,0:0:0:0:
288,256,11028,1,0,0:0:0:0:
288,256,11278,1,4,0:0:0:0:
288,288,11403,1,0,0:0:0:0:
288,288,11465,1,0,0:0:0:0:
288,288,11528,1,2,0:0:0:0:
288,288,11653,1,0,0:0:0:0:
288,288,11778,1,2,0:0:0:0:
288,288,11840,1,2,0:0:0:0:
288,288,11903,1,0,0:0:0:0:
288,288,11965,1,0,0:0:0:0:
288,288,12028,1,2,0:0:0:0:
288,288,12153,1,0,0:0:0:0:
288,288,12278,1,2,0:0:0:0:
288,320,12340,1,2,0:0:0:0:
288,320,12403,1,0,0:0:0:0:
288,320,12465,1,0,0:0:0:0:
288,320,12528,1,2,0:0:0:0:
288,320,12590,1,0,0:0:0:0:
288,320,12653,1,2,0:0:0:0:
256,288,12715,1,2,0:0:0:0:
288,320,12778,1,0,0:0:0:0:
288,320,12903,1,0,0:0:0:0:
256,288,12965,1,0,0:0:0:0:
256,288,13028,1,2,0:0:0:0:
288,384,13153,1,0,0:0:0:0:
320,320,13278,1,0,0:0:0:0:
256,192,13403,1,0,0:0:0:0:
256,288,13465,1,0,0:0:0:0:
256,192,13528,1,2,0:0:0:0:
288,320,13590,1,0,0:0:0:0:
256,320,13653,1,0,0:0:0:0:
224,320,13715,1,0,0:0:0:0:
224,320,13778,1,2,0:0:0:0:
224,256,13903,1,0,0:0:0:0:
224,256,14028,1,2,0:0:0:0:
224,256,14153,1,0,0:0:0:0:
320,320,14278,1,2,0:0:0:0:
224,256,14403,1,0,0:0:0:0:
224,256,14465,1,0,0:0:0:0:
224,256,14528,1,2,0:0:0:0:
224,256,14653,1,0,0:0:0:0:
224,256,14778,1,2,0:0:0:0:
224,256,14840,1,2,0:0:0:0:
224,256,14903,1,0,0:0:0:0:
224,256,14965,1,0,0:0:0:0:
224,256,15028,1,2,0:0:0:0:
224,256,15153,1,2,0:0:0:0:
320,320,15278,1,0,0:0:0:0:
224,256,15403,1,0,0:0:0:0:
224,256,15465,1,0,0:0:0:0:
224,256,15528,1,2,0:0:0:0:
224,256,15590,1,0,0:0:0:0:
224,256,15653,1,0,0:0:0:0:
224,256,15715,1,0,0:0:0:0:
224,256,15778,1,2,0:0:0:0:
224,256,15903,1,0,0:0:0:0:
224,288,16028,1,2,0:0:0:0:
224,256,16153,1,2,0:0:0:0:
256,288,16278,1,0,0:0:0:0:
256,288,16528,1,2,0:0:0:0:
256,288,16653,1,2,0:0:0:0:
256,288,16778,1,0,0:0:0:0:
256,288,16903,1,0,0:0:0:0:
256,288,16965,1,0,0:0:0:0:
256,288,17028,1,2,0:0:0:0:
256,288,17153,1,2,0:0:0:0:
256,288,17278,1,4,0:0:0:0:
256,288,17528,1,2,0:0:0:0:
256,288,17653,1,4,0:0:0:0:
256,288,17903,1,0,0:0:0:0:
256,288,17965,1,0,0:0:0:0:
256,288,18028,1,2,0:0:0:0:
256,288,18153,1,0,0:0:0:0:
256,256,18278,1,4,0:0:0:0:
256,256,18403,1,2,0:0:0:0:
256,256,18465,1,2,0:0:0:0:
256,256,18528,1,0,0:0:0:0:
256,256,18653,1,0,0:0:0:0:
256,256,18778,1,2,0:0:0:0:
256,256,18840,1,2,0:0:0:0:
256,256,18903,1,0,0:0:0:0:
256,256,18965,1,0,0:0:0:0:
256,256,19028,1,2,0:0:0:0:
256,256,19153,1,0,0:0:0:0:
256,288,19278,1,6,0:0:0:0:
256,288,19403,1,0,0:0:0:0:
256,288,19465,1,0,0:0:0:0:
256,288,19528,1,2,0:0:0:0:
256,288,19653,1,2,0:0:0:0:
256,288,19778,1,0,0:0:0:0:
256,288,19903,1,0,0:0:0:0:
224,256,19965,1,0,0:0:0:0:
224,288,20028,1,2,0:0:0:0:
224,288,20153,1,0,0:0:0:0:
224,288,20278,1,2,0:0:0:0:
224,256,20340,1,0,0:0:0:0:
224,288,20403,1,0,0:0:0:0:
224,288,20465,1,0,0:0:0:0:
224,256,20528,1,2,0:0:0:0:
320,256,20590,1,2,0:0:0:0:
224,288,20653,1,0,0:0:0:0:
320,256,20715,1,0,0:0:0:0:
224,288,20778,1,2,0:0:0:0:
224,288,20840,1,0,0:0:0:0:
224,288,20903,1,0,0:0:0:0:
224,288,20965,1,0,0:0:0:0:
224,288,21028,1,2,0:0:0:0:
224,288,21090,1,0,0:0:0:0:
224,288,21153,1,2,0:0:0:0:
224,288,21215,1,2,0:0:0:0:
224,288,21278,1,0,0:0:0:0:
256,192,21403,12,0,23153,0:0:0:0:
256,224,23278,5,4,0:0:0:0:
256,224,23403,1,4,0:0:0:0:
256,288,23653,1,0,0:0:0:0:
224,256,23778,1,2,0:0:0:0:
256,352,23840,1,2,0:0:0:0:
256,352,23903,1,0,0:0:0:0:
256,352,24028,1,2,0:0:0:0:
256,352,24153,1,0,0:0:0:0:
256,288,24278,1,0,0:0:0:0:
256,352,24340,1,0,0:0:0:0:
256,288,24403,1,2,0:0:0:0:
256,288,24528,1,0,0:0:0:0:
256,288,24653,1,0,0:0:0:0:
256,288,24778,1,2,0:0:0:0:
224,288,24840,1,0,0:0:0:0:
224,288,24903,1,0,0:0:0:0:
224,288,25028,1,2,0:0:0:0:
224,288,25153,1,0,0:0:0:0:
224,288,25278,1,4,0:0:0:0:
224,288,25528,1,2,0:0:0:0:
224,288,25778,1,0,0:0:0:0:
224,288,25903,1,2,0:0:0:0:
224,288,25965,1,2,0:0:0:0:
224,288,26028,1,0,0:0:0:0:
224,288,26153,1,0,0:0:0:0:
224,288,26278,1,2,0:0:0:0:
224,288,26340,1,0,0:0:0:0:
224,288,26403,1,0,0:0:0:0:
224,288,26528,1,0,0:0:0:0:
224,288,26653,1,2,0:0:0:0:
224,288,26903,1,0,0:0:0:0:
224,288,27028,1,2,0:0:0:0:
192,256,27278,1,4,0:0:0:0:
256,320,27528,1,2,0:0:0:0:
256,320,27778,1,0,0:0:0:0:
256,320,27840,1,0,0:0:0:0:
256,320,27903,1,2,0:0:0:0:
256,320,28028,1,0,0:0:0:0:
256,320,28153,1,0,0:0:0:0:
256,352,28278,1,2,0:0:0:0:
256,288,28340,1,0,0:0:0:0:
256,288,28403,1,0,0:0:0:0:
256,352,28528,1,0,0:0:0:0:
256,352,28653,1,2,0:0:0:0:
256,320,28903,1,0,0:0:0:0:
256,320,29028,1,2,0:0:0:0:
256,320,29153,1,0,0:0:0:0:
256,320,29278,1,4,0:0:0:0:
224,288,29528,1,2,0:0:0:0:
256,320,29778,1,0,0:0:0:0:
256,352,29903,1,2,0:0:0:0:
256,352,29965,1,2,0:0:0:0:
256,352,30028,1,0,0:0:0:0:
256,352,30153,1,2,0:0:0:0:
256,288,30278,1,2,0:0:0:0:
256,352,30340,1,0,0:0:0:0:
256,288,30403,1,0,0:0:0:0:
256,256,30528,1,0,0:0:0:0:
256,288,30653,1,2,0:0:0:0:
256,288,30903,1,0,0:0:0:0:
256,320,31028,1,2,0:0:0:0:
256,320,31278,1,4,0:0:0:0:
224,288,31528,1,0,0:0:0:0:
224,288,31778,1,2,0:0:0:0:
256,320,31903,1,0,0:0:0:0:
256,320,31965,1,0,0:0:0:0:
256,320,32028,1,2,0:0:0:0:
256,320,32153,1,2,0:0:0:0:
256,320,32278,1,0,0:0:0:0:
256,320,32403,1,0,0:0:0:0:
288,320,32465,1,0,0:0:0:0:
256,288,32528,1,0,0:0:0:0:
288,320,32653,1,2,0:0:0:0:
288,320,32778,1,0,0:0:0:0:
256,320,32903,1,0,0:0:0:0:
288,320,33028,1,2,0:0:0:0:
288,320,33153,1,0,0:0:0:0:
288,320,33278,1,4,0:0:0:0:
288,320,33528,1,0,0:0:0:0:
288,320,33653,1,0,0:0:0:0:
288,320,33778,1,2,0:0:0:0:
288,352,33840,1,2,0:0:0:0:
288,352,33903,1,0,0:0:0:0:
288,320,34028,1,0,0:0:0:0:
288,352,34153,1,0,0:0:0:0:
288,288,34278,1,0,0:0:0:0:
288,352,34340,1,0,0:0:0:0:
288,352,34403,1,2,0:0:0:0:
288,288,34465,1,2,0:0:0:0:
288,352,34528,1,0,0:0:0:0:
288,320,34653,1,0,0:0:0:0:
288,320,34778,1,2,0:0:0:0:
288,352,34840,1,0,0:0:0:0:
288,352,34903,1,0,0:0:0:0:
288,352,35028,1,2,0:0:0:0:
288,352,35153,1,0,0:0:0:0:
288,320,35278,1,0,0:0:0:0:
288,352,35403,1,2,0:0:0:0:
288,320,35528,1,0,0:0:0:0:
288,320,35653,1,0,0:0:0:0:
288,320,35778,1,2,0:0:0:0:
288,320,35840,1,0,0:0:0:0:
288,320,35903,1,0,0:0:0:0:
288,320,36028,1,2,0:0:0:0:
288,320,36153,1,0,0:0:0:0:
288,320,36278,1,0,0:0:0:0:
352,352,36403,1,2,0:0:0:0:
320,352,36528,1,0,0:0:0:0:
320,352,36653,1,0,0:0:0:0:
288,320,36778,1,2,0:0:0:0:
288,320,36903,1,2,0:0:0:0:
288,320,36965,1,2,0:0:0:0:
288,320,37028,1,2,0:0:0:0:
288,320,37153,1,2,0:0:0:0:
288,320,37278,1,4,0:0:0:0:
224,256,37403,1,0,0:0:0:0:
224,256,37465,1,0,0:0:0:0:
224,256,37528,1,2,0:0:0:0:
224,256,37653,1,0,0:0:0:0:
224,256,37778,1,2,0:0:0:0:
224,256,37840,1,2,0:0:0:0:
224,256,37903,1,0,0:0:0:0:
224,256,37965,1,0,0:0:0:0:
224,256,38028,1,2,0:0:0:0:
224,256,38153,1,0,0:0:0:0:
224,256,38278,1,2,0:0:0:0:
288,256,38340,1,0,0:0:0:0:
224,256,38403,1,0,0:0:0:0:
288,288,38528,1,2,0:0:0:0:
288,288,38653,1,2,0:0:0:0:
256,256,38778,1,0,0:0:0:0:
224,256,38903,1,0,0:0:0:0:
224,256,38965,1,0,0:0:0:0:
224,256,39028,1,2,0:0:0:0:
224,256,39153,1,0,0:0:0:0:
192,224,39278,1,2,0:0:0:0:
192,224,39340,1,0,0:0:0:0:
192,224,39403,1,2,0:0:0:0:
192,224,39465,1,2,0:0:0:0:
192,224,39528,1,0,0:0:0:0:
192,224,39653,1,0,0:0:0:0:
192,224,39778,1,2,0:0:0:0:
224,256,39840,1,2,0:0:0:0:
192,224,39903,1,0,0:0:0:0:
224,256,39965,1,0,0:0:0:0:
224,224,40028,1,2,0:0:0:0:
192,224,40153,1,2,0:0:0:0:
192,224,40278,1,0,0:0:0:0:
224,224,40340,1,0,0:0:0:0:
224,224,40403,1,2,0:0:0:0:
224,224,40465,1,2,0:0:0:0:
224,224,40528,1,0,0:0:0:0:
224,224,40653,1,0,0:0:0:0:
224,224,40778,1,2,0:0:0:0:
224,224,40840,1,2,0:0:0:0:
224,224,40903,1,0,0:0:0:0:
224,224,40965,1,0,0:0:0:0:
224,224,41028,1,2,0:0:0:0:
224,224,41153,1,0,0:0:0:0:
224,224,41278,1,4,0:0:0:0:
224,224,41403,1,0,0:0:0:0:
224,224,41465,1,0,0:0:0:0:
224,224,41528,1,2,0:0:0:0:
224,224,41653,1,0,0:0:0:0:
224,224,41715,1,0,0:0:0:0:
224,224,41778,1,2,0:0:0:0:
224,224,41840,1,0,0:0:0:0:
224,224,41903,1,2,0:0:0:0:
224,224,41965,1,2,0:0:0:0:
224,224,42028,1,0,0:0:0:0:
224,224,42153,1,2,0:0:0:0:
224,224,42215,1,2,0:0:0:0:
224,224,42278,1,0,0:0:0:0:
224,192,42403,1,2,0:0:0:0:
224,192,42465,1,2,0:0:0:0:
224,192,42528,1,0,0:0:0:0:
224,256,42653,1,2,0:0:0:0:
192,224,42778,1,0,0:0:0:0:
224,224,42903,1,0,0:0:0:0:
224,192,42965,1,0,0:0:0:0:
224,192,43028,1,2,0:0:0:0:
224,192,43153,1,0,0:0:0:0:
224,192,43278,1,0,0:0:0:0:
224,192,43340,1,0,0:0:0:0:
224,192,43403,1,2,0:0:0:0:
224,192,43465,1,2,0:0:0:0:
224,192,43528,1,0,0:0:0:0:
224,192,43653,1,2,0:0:0:0:
224,192,43778,1,0,0:0:0:0:
224,192,43903,1,2,0:0:0:0:
224,192,43965,1,2,0:0:0:0:
224,192,44028,1,0,0:0:0:0:
224,192,44153,1,2,0:0:0:0:
224,192,44278,1,0,0:0:0:0:
256,224,44340,1,0,0:0:0:0:
256,224,44403,1,2,0:0:0:0:
256,224,44465,1,2,0:0:0:0:
256,224,44528,1,0,0:0:0:0:
224,224,44653,1,2,0:0:0:0:
224,224,44778,1,0,0:0:0:0:
256,224,44903,1,2,0:0:0:0:
256,224,44965,1,0,0:0:0:0:
256,256,45028,1,2,0:0:0:0:
256,224,45153,1,2,0:0:0:0:
256,256,45278,1,0,0:0:0:0:
256,224,45528,1,2,0:0:0:0:
256,224,45653,1,0,0:0:0:0:
288,288,45715,1,0,0:0:0:0:
256,224,45778,1,0,0:0:0:0:
288,288,45903,1,0,0:0:0:0:
256,224,46028,1,2,0:0:0:0:
256,224,46153,1,0,0:0:0:0:
256,224,46278,1,2,0:0:0:0:
256,256,46340,1,2,0:0:0:0:
256,256,46403,1,0,0:0:0:0:
224,256,46528,1,0,0:0:0:0:
256,256,46653,1,2,0:0:0:0:
256,256,46778,1,0,0:0:0:0:
256,256,46903,1,0,0:0:0:0:
256,256,47028,1,2,0:0:0:0:
256,256,47153,1,0,0:0:0:0:
256,256,47278,1,4,0:0:0:0:
256,256,47403,1,0,0:0:0:0:
256,256,47465,1,0,0:0:0:0:
256,256,47528,1,2,0:0:0:0:
256,256,47653,1,0,0:0:0:0:
256,256,47778,1,2,0:0:0:0:
256,256,47840,1,2,0:0:0:0:
256,256,47903,1,0,0:0:0:0:
256,256,47965,1,0,0:0:0:0:
256,256,48028,1,2,0:0:0:0:
256,256,48153,1,2,0:0:0:0:
224,256,48278,1,2,0:0:0:0:
224,256,48340,1,0,0:0:0:0:
224,256,48403,1,0,0:0:0:0:
256,256,48528,1,0,0:0:0:0:
288,288,48653,1,6,0:0:0:0:
256,256,48903,1,0,0:0:0:0:
256,256,49028,1,2,0:0:0:0:
256,192,49278,1,4,0:0:0:0:
224,192,49528,1,2,0:0:0:0:
224,224,49778,1,6,0:0:0:0:
224,224,50028,1,0,0:0:0:0:
224,192,50278,1,4,0:0:0:0:
224,224,50528,1,0,0:0:0:0:
256,224,50653,1,2,0:0:0:0:
288,288,50778,1,4,0:0:0:0:
256,224,51028,1,2,0:0:0:0:
256,256,51278,1,4,0:0:0:0:
256,256,51778,1,4,0:0:0:0:
256,256,52278,1,4,0:0:0:0:
256,256,52778,1,4,0:0:0:0:
256,192,53278,12,0,54153,0:0:0:0:
256,224,54278,5,6,0:0:0:0:
256,288,54778,1,2,0:0:0:0:
256,288,54840,1,0,0:0:0:0:
256,288,54903,1,0,0:0:0:0:
256,288,54965,1,0,0:0:0:0:
256,288,55028,1,2,0:0:0:0:
256,288,55090,1,0,0:0:0:0:
256,288,55153,1,2,0:0:0:0:
256,288,55215,1,2,0:0:0:0:
256,288,55278,1,0,0:0:0:0:
256,288,55403,1,0,0:0:0:0:
256,288,55465,1,0,0:0:0:0:
256,288,55528,1,2,0:0:0:0:
256,288,55653,1,0,0:0:0:0:
256,256,55778,1,2,0:0:0:0:
256,256,55840,1,0,0:0:0:0:
256,256,55903,1,0,0:0:0:0:
256,256,56028,1,2,0:0:0:0:
224,288,56153,1,0,0:0:0:0:
224,224,56278,1,2,0:0:0:0:
224,224,56340,1,2,0:0:0:0:
224,224,56403,1,0,0:0:0:0:
224,224,56465,1,0,0:0:0:0:
224,224,56528,1,2,0:0:0:0:
224,224,56653,1,2,0:0:0:0:
224,224,56778,1,0,0:0:0:0:
224,224,56903,1,0,0:0:0:0:
224,224,56965,1,0,0:0:0:0:
224,224,57028,1,2,0:0:0:0:
224,224,57153,1,0,0:0:0:0:
256,256,57278,1,4,0:0:0:0:
256,256,57403,1,0,0:0:0:0:
256,256,57465,1,0,0:0:0:0:
256,256,57528,1,2,0:0:0:0:
256,256,57653,1,2,0:0:0:0:
256,256,57778,1,0,0:0:0:0:
256,256,57840,1,0,0:0:0:0:
256,256,57903,1,0,0:0:0:0:
256,256,57965,1,0,0:0:0:0:
256,256,58028,1,2,0:0:0:0:
256,256,58090,1,2,0:0:0:0:
256,256,58153,1,0,0:0:0:0:
256,256,58215,1,0,0:0:0:0:
256,256,58278,1,2,0:0:0:0:
256,256,58528,1,0,0:0:0:0:
256,256,58653,1,2,0:0:0:0:
256,256,58778,1,0,0:0:0:0:
256,256,58903,1,0,0:0:0:0:
256,256,58965,1,0,0:0:0:0:
256,256,59028,1,2,0:0:0:0:
256,256,59153,1,2,0:0:0:0:
224,256,59278,1,0,0:0:0:0:
256,256,59403,1,0,0:0:0:0:
256,256,59465,1,0,0:0:0:0:
256,256,59528,1,2,0:0:0:0:
256,256,59653,1,0,0:0:0:0:
256,256,59778,1,0,0:0:0:0:
256,256,59840,1,0,0:0:0:0:
256,256,59903,1,2,0:0:0:0:
256,256,59965,1,2,0:0:0:0:
256,256,60028,1,0,0:0:0:0:
256,256,60153,1,2,0:0:0:0:
224,256,60278,1,0,0:0:0:0:
224,256,60403,1,0,0:0:0:0:
256,256,60528,1,2,0:0:0:0:
256,256,60590,1,2,0:0:0:0:
256,256,60653,1,0,0:0:0:0:
256,256,60778,1,2,0:0:0:0:
256,256,60840,1,0,0:0:0:0:
256,256,60903,1,0,0:0:0:0:
288,288,60965,1,0,0:0:0:0:
256,256,61028,1,2,0:0:0:0:
288,256,61090,1,0,0:0:0:0:
256,256,61153,1,2,0:0:0:0:
256,256,61215,1,2,0:0:0:0:
256,256,61278,1,0,0:0:0:0:
192,192,61403,1,0,0:0:0:0:
256,256,61465,1,0,0:0:0:0:
192,192,61528,1,2,0:0:0:0:
192,192,61653,1,0,0:0:0:0:
192,192,61778,1,0,0:0:0:0:
192,192,61840,1,0,0:0:0:0:
192,192,61903,1,2,0:0:0:0:
192,192,61965,1,2,0:0:0:0:
192,192,62028,1,0,0:0:0:0:
192,192,62153,1,0,0:0:0:0:
192,192,62278,1,0,0:0:0:0:
192,192,62340,1,0,0:0:0:0:
192,192,62403,1,0,0:0:0:0:
192,192,62465,1,0,0:0:0:0:
192,192,62528,1,2,0:0:0:0:
192,192,62590,1,2,0:0:0:0:
192,192,62653,1,0,0:0:0:0:
192,192,62715,1,0,0:0:0:0:
192,192,62778,1,2,0:0:0:0:
256,224,62840,1,0,0:0:0:0:
256,224,62903,1,0,0:0:0:0:
256,224,63028,1,2,0:0:0:0:
256,192,63153,1,0,0:0:0:0:
224,256,63278,1,0,0:0:0:0:
256,224,63403,1,0,0:0:0:0:
256,224,63465,1,0,0:0:0:0:
256,224,63528,1,2,0:0:0:0:
256,224,63653,1,0,0:0:0:0:
256,224,63778,1,2,0:0:0:0:
256,224,63840,1,2,0:0:0:0:
256,224,63903,1,0,0:0:0:0:
224,256,63965,1,0,0:0:0:0:
224,256,64028,1,2,0:0:0:0:
256,224,64153,1,0,0:0:0:0:
224,256,64278,1,2,0:0:0:0:
224,256,64340,1,0,0:0:0:0:
224,256,64403,1,0,0:0:0:0:
224,256,64465,1,0,0:0:0:0:
224,256,64528,1,2,0:0:0:0:
256,224,64590,1,2,0:0:0:0:
224,224,64653,1,0,0:0:0:0:
256,224,64778,1,2,0:0:0:0:
256,224,64840,1,0,0:0:0:0:
256,224,64903,1,2,0:0:0:0:
256,224,65028,1,2,0:0:0:0:
256,224,65153,1,0,0:0:0:0:
224,256,65278,1,2,0:0:0:0:
256,224,65403,1,0,0:0:0:0:
256,224,65465,1,0,0:0:0:0:
256,224,65528,1,2,0:0:0:0:
256,224,65590,1,0,0:0:0:0:
256,224,65653,1,0,0:0:0:0:
288,256,65715,1,0,0:0:0:0:
256,224,65778,1,2,0:0:0:0:
256,224,65903,1,0,0:0:0:0:
256,224,65965,1,0,0:0:0:0:
256,224,66028,1,2,0:0:0:0:
288,224,66153,1,0,0:0:0:0:
288,224,66278,1,2,0:0:0:0:
224,224,66528,1,0,0:0:0:0:
224,224,66653,1,0,0:0:0:0:
224,224,66778,1,2,0:0:0:0:
224,224,66903,1,0,0:0:0:0:
224,224,66965,1,0,0:0:0:0:
224,192,67028,1,2,0:0:0:0:
256,192,67153,1,2,0:0:0:0:
224,192,67278,1,4,0:0:0:0:
224,192,67528,1,2,0:0:0:0:
224,192,67653,1,0,0:0:0:0:
224,192,67715,1,0,0:0:0:0:
224,192,67778,1,0,0:0:0:0:
224,192,67903,1,0,0:0:0:0:
224,192,68028,1,2,0:0:0:0:
224,192,68153,1,0,0:0:0:0:
224,256,68278,1,0,0:0:0:0:
256,224,68403,1,0,0:0:0:0:
256,224,68465,1,0,0:0:0:0:
256,224,68528,1,2,0:0:0:0:
256,224,68653,1,0,0:0:0:0:
288,288,68778,1,2,0:0:0:0:
288,288,68840,1,0,0:0:0:0:
288,288,68903,1,0,0:0:0:0:
288,288,68965,1,0,0:0:0:0:
288,288,69028,1,2,0:0:0:0:
288,288,69090,1,0,0:0:0:0:
288,288,69153,1,2,0:0:0:0:
288,288,69215,1,2,0:0:0:0:
288,288,69278,1,0,0:0:0:0:
256,288,69403,1,0,0:0:0:0:
256,288,69465,1,0,0:0:0:0:
256,288,69528,1,2,0:0:0:0:
256,256,69590,1,0,0:0:0:0:
256,288,69653,1,0,0:0:0:0:
256,288,69715,1,0,0:0:0:0:
256,288,69778,1,2,0:0:0:0:
256,256,69840,1,2,0:0:0:0:
288,288,69903,1,0,0:0:0:0:
256,320,69965,1,0,0:0:0:0:
288,288,70028,1,2,0:0:0:0:
288,256,70153,1,0,0:0:0:0:
256,256,70278,1,0,0:0:0:0:
256,320,70340,1,0,0:0:0:0:
224,256,70403,1,2,0:0:0:0:
224,256,70465,1,2,0:0:0:0:
224,256,70528,1,0,0:0:0:0:
224,256,70590,1,0,0:0:0:0:
224,256,70653,1,2,0:0:0:0:
224,256,70715,1,0,0:0:0:0:
224,256,70778,1,2,0:0:0:0:
224,256,70840,1,2,0:0:0:0:
256,256,70903,1,0,0:0:0:0:
256,256,71028,1,0,0:0:0:0:
256,256,71153,1,0,0:0:0:0:
288,288,71278,1,6,0:0:0:0:
288,288,71528,1,0,0:0:0:0:
288,288,71653,1,0,0:0:0:0:
288,288,71778,1,2,0:0:0:0:
288,288,72028,1,0,0:0:0:0:
288,288,72278,1,0,0:0:0:0:
288,288,72403,1,2,0:0:0:0:
224,256,72528,1,0,0:0:0:0:
288,288,72653,1,0,0:0:0:0:
288,288,72778,1,2,0:0:0:0:
288,288,73028,1,0,0:0:0:0:
288,352,73278,1,4,0:0:0:0:
256,288,73528,1,0,0:0:0:0:
256,224,73653,1,0,0:0:0:0:
224,224,73778,1,2,0:0:0:0:
224,224,74028,1,0,0:0:0:0:
256,224,74278,1,0,0:0:0:0:
256,224,74403,1,2,0:0:0:0:
320,320,74528,1,0,0:0:0:0:
256,224,74653,1,0,0:0:0:0:
288,320,74778,1,2,0:0:0:0:
288,320,74840,1,2,0:0:0:0:
288,320,74903,1,2,0:0:0:0:
256,320,74965,1,2,0:0:0:0:
320,352,75028,1,0,0:0:0:0:
320,352,75090,1,0,0:0:0:0:
288,320,75153,1,0,0:0:0:0:
288,352,75215,1,0,0:0:0:0:
288,320,75278,1,2,0:0:0:0:
288,288,75403,1,0,0:0:0:0:
288,288,75465,1,0,0:0:0:0:
288,288,75528,1,2,0:0:0:0:
288,288,75653,1,0,0:0:0:0:
288,288,75778,1,2,0:0:0:0:
288,288,75840,1,2,0:0:0:0:
288,288,75903,1,0,0:0:0:0:
288,288,75965,1,0,0:0:0:0:
288,288,76028,1,2,0:0:0:0:
288,288,76090,1,0,0:0:0:0:
288,288,76153,1,2,0:0:0:0:
288,256,76215,1,2,0:0:0:0:
288,256,76278,1,0,0:0:0:0:
288,256,76403,1,0,0:0:0:0:
288,256,76465,1,0,0:0:0:0:
288,256,76528,1,2,0:0:0:0:
288,256,76653,1,0,0:0:0:0:
288,256,76778,1,2,0:0:0:0:
288,256,76840,1,0,0:0:0:0:
288,256,76903,1,0,0:0:0:0:
288,256,76965,1,0,0:0:0:0:
288,256,77028,1,2,0:0:0:0:
288,256,77153,1,0,0:0:0:0:
288,288,77278,1,0,0:0:0:0:
288,288,77403,1,0,0:0:0:0:
288,288,77465,1,0,0:0:0:0:
288,288,77528,1,2,0:0:0:0:
288,288,77590,1,0,0:0:0:0:
288,288,77653,1,0,0:0:0:0:
288,288,77715,1,0,0:0:0:0:
288,288,77778,1,2,0:0:0:0:
288,288,77840,1,2,0:0:0:0:
288,288,77903,1,2,0:0:0:0:
288,256,77965,1,2,0:0:0:0:
288,256,78028,1,0,0:0:0:0:
288,256,78090,1,0,0:0:0:0:
288,256,78153,1,0,0:0:0:0:
288,256,78215,1,0,0:0:0:0:
288,256,78278,1,2,0:0:0:0:
288,256,78403,1,0,0:0:0:0:
288,256,78465,1,0,0:0:0:0:
288,256,78528,1,2,0:0:0:0:
288,256,78653,1,0,0:0:0:0:
288,256,78715,1,0,0:0:0:0:
288,256,78778,1,2,0:0:0:0:
352,352,78840,1,0,0:0:0:0:
288,256,78903,1,0,0:0:0:0:
288,256,78965,1,0,0:0:0:0:
288,256,79028,1,2,0:0:0:0:
288,256,79153,1,0,0:0:0:0:
288,320,79278,1,4,0:0:0:0:
288,320,79403,1,0,0:0:0:0:
320,256,79465,1,0,0:0:0:0:
288,256,79528,1,2,0:0:0:0:
320,256,79653,1,0,0:0:0:0:
352,352,79778,1,0,0:0:0:0:
352,352,79840,1,0,0:0:0:0:
320,256,79903,1,2,0:0:0:0:
320,256,79965,1,2,0:0:0:0:
320,256,80028,1,0,0:0:0:0:
288,256,80153,1,0,0:0:0:0:
288,352,80278,1,0,0:0:0:0:
288,256,80340,1,0,0:0:0:0:
288,256,80403,1,0,0:0:0:0:
288,256,80465,1,0,0:0:0:0:
288,256,80528,1,2,0:0:0:0:
288,256,80590,1,2,0:0:0:0:
288,256,80653,1,0,0:0:0:0:
288,256,80715,1,0,0:0:0:0:
288,256,80778,1,2,0:0:0:0:
288,256,81278,1,4,0:0:0:0:
352,352,81403,1,0,0:0:0:0:
352,352,81465,1,0,0:0:0:0:
352,352,81528,1,2,0:0:0:0:
352,352,81653,1,0,0:0:0:0:
352,352,81778,1,2,0:0:0:0:
352,352,81840,1,2,0:0:0:0:
352,352,81903,1,2,0:0:0:0:
352,352,81965,1,2,0:0:0:0:
320,352,82028,1,0,0:0:0:0:
320,352,82153,1,0,0:0:0:0:
320,352,82278,1,2,0:0:0:0:
320,352,82340,1,0,0:0:0:0:
320,352,82403,1,0,0:0:0:0:
320,352,82465,1,0,0:0:0:0:
320,352,82528,1,2,0:0:0:0:
320,352,82590,1,0,0:0:0:0:
320,352,82653,1,2,0:0:0:0:
320,352,82715,1,2,0:0:0:0:
320,352,82778,1,0,0:0:0:0:
288,352,82903,1,2,0:0:0:0:
288,352,82965,1,2,0:0:0:0:
288,352,83028,1,0,0:0:0:0:
288,352,83153,1,0,0:0:0:0:
320,352,83278,1,2,0:0:0:0:
256,192,83340,1,0,0:0:0:0:
256,192,83403,1,2,0:0:0:0:
256,192,83465,1,2,0:0:0:0:
256,192,83528,1,0,0:0:0:0:
256,192,83653,1,0,0:0:0:0:
256,192,83778,1,2,0:0:0:0:
256,288,83840,1,0,0:0:0:0:
256,288,83903,1,0,0:0:0:0:
256,288,84028,1,2,0:0:0:0:
256,288,84090,1,0,0:0:0:0:
256,288,84153,1,0,0:0:0:0:
256,288,84278,1,0,0:0:0:0:
256,288,84340,1,0,0:0:0:0:
256,288,84403,1,0,0:0:0:0:
256,288,84465,1,0,0:0:0:0:
256,288,84528,1,2,0:0:0:0:
256,288,84590,1,0,0:0:0:0:
256,288,84653,1,2,0:0:0:0:
160,256,84715,1,2,0:0:0:0:
256,288,84778,1,0,0:0:0:0:
224,320,84903,1,2,0:0:0:0:
224,320,84965,1,0,0:0:0:0:
224,320,85028,1,2,0:0:0:0:
224,320,85153,1,2,0:0:0:0:
224,320,85278,1,4,0:0:0:0:
256,256,85403,1,0,0:0:0:0:
256,256,85465,1,0,0:0:0:0:
256,256,85528,1,2,0:0:0:0:
256,256,85653,1,0,0:0:0:0:
288,352,85778,1,2,0:0:0:0:
288,352,85840,1,0,0:0:0:0:
288,352,85903,1,2,0:0:0:0:
288,352,86028,1,2,0:0:0:0:
288,352,86153,1,0,0:0:0:0:
288,352,86278,1,0,0:0:0:0:
288,352,86403,1,2,0:0:0:0:
288,352,86465,1,2,0:0:0:0:
288,352,86528,1,0,0:0:0:0:
288,352,86653,1,0,0:0:0:0:
288,352,86778,1,2,0:0:0:0:
288,352,86840,1,0,0:0:0:0:
288,352,86903,1,0,0:0:0:0:
288,352,87028,1,2,0:0:0:0:
288,352,87153,1,0,0:0:0:0:
288,352,87278,1,4,0:0:0:0:
352,320,87403,1,0,0:0:0:0:
288,288,87465,1,0,0:0:0:0:
288,288,87528,1,2,0:0:0:0:
288,288,87653,1,0,0:0:0:0:
288,256,87778,1,2,0:0:0:0:
288,256,87840,1,2,0:0:0:0:
288,256,87903,1,2,0:0:0:0:
288,256,87965,1,0,0:0:0:0:
288,256,88028,1,2,0:0:0:0:
288,256,88153,1,0,0:0:0:0:
288,256,88278,1,2,0:0:0:0:
288,256,88340,1,2,0:0:0:0:
288,256,88403,1,2,0:0:0:0:
288,256,88465,1,2,0:0:0:0:
288,256,88528,1,0,0:0:0:0:
288,256,88590,1,0,0:0:0:0:
288,256,88653,1,2,0:0:0:0:
288,256,88715,1,0,0:0:0:0:
288,256,88778,1,2,0:0:0:0:
288,256,88903,1,0,0:0:0:0:
288,256,88965,1,0,0:0:0:0:
288,256,89028,1,2,0:0:0:0:
288,256,89153,1,0,0:0:0:0:
320,288,89278,1,0,0:0:0:0:
288,256,89403,1,2,0:0:0:0:
288,256,89465,1,0,0:0:0:0:
288,256,89590,1,2,0:0:0:0:
288,256,89653,1,0,0:0:0:0:
288,256,89778,1,0,0:0:0:0:
288,256,89840,1,0,0:0:0:0:
288,256,89903,1,0,0:0:0:0:
288,256,89965,1,0,0:0:0:0:
288,256,90028,1,2,0:0:0:0:
256,256,90278,1,4,0:0:0:0:
256,288,90528,1,2,0:0:0:0:
256,288,90653,1,0,0:0:0:0:
256,288,90715,1,0,0:0:0:0:
256,288,90778,1,2,0:0:0:0:
256,288,90903,1,2,0:0:0:0:
256,288,91028,1,0,0:0:0:0:
256,288,91153,1,2,0:0:0:0:
256,288,91278,1,0,0:0:0:0:
256,288,91340,1,0,0:0:0:0:
256,288,91403,1,2,0:0:0:0:
256,288,91465,1,0,0:0:0:0:
256,288,91528,1,0,0:0:0:0:
256,288,91653,1,2,0:0:0:0:
256,288,91715,1,2,0:0:0:0:
256,288,91778,1,0,0:0:0:0:
256,288,91840,1,0,0:0:0:0:
256,288,91903,1,2,0:0:0:0:
256,288,92028,1,2,0:0:0:0:
256,288,92153,1,0,0:0:0:0:
320,288,92278,1,0,0:0:0:0:
256,320,92403,1,0,0:0:0:0:
256,320,92465,1,0,0:0:0:0:
256,320,92528,1,2,0:0:0:0:
288,320,92653,1,0,0:0:0:0:
256,320,92778,1,2,0:0:0:0:
256,320,92840,1,0,0:0:0:0:
256,320,92903,1,0,0:0:0:0:
256,320,92965,1,0,0:0:0:0:
256,320,93028,1,2,0:0:0:0:
256,320,93153,1,2,0:0:0:0:
288,320,93278,1,2,0:0:0:0:
320,256,93340,1,2,0:0:0:0:
320,256,93403,1,2,0:0:0:0:
320,256,93465,1,2,0:0:0:0:
320,256,93528,1,0,0:0:0:0:
320,256,93590,1,0,0:0:0:0:
256,288,93653,1,2,0:0:0:0:
256,288,93715,1,0,0:0:0:0:
320,256,93778,1,2,0:0:0:0:
288,256,93840,1,2,0:0:0:0:
288,256,93903,1,0,0:0:0:0:
288,256,93965,1,0,0:0:0:0:
288,256,94028,1,2,0:0:0:0:
288,256,94153,1,0,0:0:0:0:
320,288,94278,1,0,0:0:0:0:
320,256,94403,1,0,0:0:0:0:
320,256,94465,1,0,0:0:0:0:
320,256,94528,1,2,0:0:0:0:
320,256,94653,1,0,0:0:0:0:
320,256,94778,1,2,0:0:0:0:
320,256,94840,1,0,0:0:0:0:
320,256,94903,1,2,0:0:0:0:
320,256,94965,1,2,0:0:0:0:
320,256,95028,1,0,0:0:0:0:
320,256,95153,1,2,0:0:0:0:
288,256,95278,1,2,0:0:0:0:
288,256,95340,1,0,0:0:0:0:
288,256,95403,1,0,0:0:0:0:
288,256,95528,1,2,0:0:0:0:
288,256,95653,1,0,0:0:0:0:
288,256,95715,1,0,0:0:0:0:
288,256,95778,1,0,0:0:0:0:
288,256,95903,1,0,0:0:0:0:
288,256,96028,1,2,0:0:0:0:
320,224,96153,1,0,0:0:0:0:
288,192,96278,1,4,0:0:0:0:
256,224,96403,1,0,0:0:0:0:
256,224,96465,1,0,0:0:0:0:
256,224,96528,1,2,0:0:0:0:
256,224,96653,1,0,0:0:0:0:
224,192,96778,1,2,0:0:0:0:
224,192,96840,1,0,0:0:0:0:
224,192,96903,1,0,0:0:0:0:
224,192,96965,1,0,0:0:0:0:
224,192,97028,1,2,0:0:0:0:
224,192,97153,1,0,0:0:0:0:
224,192,97278,1,0,0:0:0:0:
256,256,97340,1,0,0:0:0:0:
256,192,97403,1,0,0:0:0:0:
224,224,97528,1,0,0:0:0:0:
256,224,97653,1,2,0:0:0:0:
288,224,97778,1,0,0:0:0:0:
256,224,97903,1,0,0:0:0:0:
256,224,98028,1,2,0:0:0:0:
256,224,98153,1,0,0:0:0:0:
256,224,98278,1,0,0:0:0:0:
256,256,98403,1,0,0:0:0:0:
256,256,98465,1,0,0:0:0:0:
256,256,98528,1,2,0:0:0:0:
256,256,98653,1,0,0:0:0:0:
256,256,98778,1,2,0:0:0:0:
256,256,98840,1,2,0:0:0:0:
256,288,98903,1,0,0:0:0:0:
256,288,98965,1,0,0:0:0:0:
256,288,99028,1,2,0:0:0:0:
256,256,99153,1,0,0:0:0:0:
224,256,99278,1,0,0:0:0:0:
224,256,99403,1,2,0:0:0:0:
224,256,99528,1,0,0:0:0:0:
224,256,99653,1,0,0:0:0:0:
256,160,99778,1,2,0:0:0:0:
256,288,99840,1,0,0:0:0:0:
256,288,99903,1,0,0:0:0:0:
256,288,99965,1,0,0:0:0:0:
256,288,100028,1,2,0:0:0:0:
256,288,100153,1,0,0:0:0:0:
256,224,100278,1,2,0:0:0:0:
256,320,100403,1,0,0:0:0:0:
256,256,100465,1,0,0:0:0:0:
256,256,100528,1,2,0:0:0:0:
256,256,100653,1,0,0:0:0:0:
256,288,100778,1,2,0:0:0:0:
256,288,100840,1,2,0:0:0:0:
256,288,100903,1,0,0:0:0:0:
256,288,101028,1,2,0:0:0:0:
256,288,101153,1,0,0:0:0:0:
256,288,101278,1,0,0:0:0:0:
256,288,101403,1,2,0:0:0:0:
256,288,101465,1,0,0:0:0:0:
256,288,101528,1,0,0:0:0:0:
256,288,101653,1,0,0:0:0:0:
256,288,101778,1,2,0:0:0:0:
256,288,101840,1,2,0:0:0:0:
256,288,101903,1,0,0:0:0:0:
256,288,101965,1,0,0:0:0:0:
256,288,102028,1,2,0:0:0:0:
256,288,102153,1,0,0:0:0:0:
256,256,102278,1,4,0:0:0:0:
256,256,102778,1,2,0:0:0:0:
256,256,103278,1,4,0:0:0:0:
256,256,103778,1,2,0:0:0:0:
256,256,104278,1,4,0:0:0:0:
256,256,104778,1,2,0:0:0:0:
256,256,105278,1,4,0:0:0:0:
256,256,105778,1,2,0:0:0:0:
288,224,106278,1,4,0:0:0:0:
256,224,106528,1,0,0:0:0:0:
288,256,106778,1,2,0:0:0:0:
288,256,107028,1,0,0:0:0:0:
288,256,107278,1,2,0:0:0:0:
288,224,107403,1,2,0:0:0:0:
288,224,107528,1,0,0:0:0:0:
288,224,107653,1,2,0:0:0:0:
256,224,107778,1,0,0:0:0:0:
288,224,107903,1,0,0:0:0:0:
288,224,108028,1,2,0:0:0:0:
288,224,108153,1,0,0:0:0:0:
288,224,108278,1,2,0:0:0:0:
256,224,108403,1,0,0:0:0:0:
256,224,108465,1,0,0:0:0:0:
256,224,108528,1,2,0:0:0:0:
256,224,108653,1,0,0:0:0:0:
256,224,108778,1,2,0:0:0:0:
256,224,108840,1,0,0:0:0:0:
256,224,108903,1,0,0:0:0:0:
256,224,109028,1,2,0:0:0:0:
256,224,109153,1,0,0:0:0:0:
224,224,109278,1,0,0:0:0:0:
224,224,109340,1,0,0:0:0:0:
224,224,109403,1,0,0:0:0:0:
224,224,109465,1,0,0:0:0:0:
224,224,109528,1,2,0:0:0:0:
224,224,109590,1,0,0:0:0:0:
224,224,109653,1,2,0:0:0:0:
224,224,109715,1,2,0:0:0:0:
224,224,109778,1,0,0:0:0:0:
224,224,109903,1,0,0:0:0:0:
224,224,109965,1,0,0:0:0:0:
224,224,110028,1,2,0:0:0:0:
224,224,110153,1,0,0:0:0:0:
224,224,110278,1,4,0:0:0:0:
256,224,110528,1,2,0:0:0:0:
256,224,110653,1,0,0:0:0:0:
256,224,110715,1,0,0:0:0:0:
256,224,110778,1,0,0:0:0:0:
256,224,110903,1,0,0:0:0:0:
256,224,111028,1,2,0:0:0:0:
256,224,111153,1,0,0:0:0:0:
256,224,111278,1,2,0:0:0:0:
224,224,111340,1,2,0:0:0:0:
224,224,111403,1,2,0:0:0:0:
224,224,111465,1,2,0:0:0:0:
224,224,111528,1,0,0:0:0:0:
224,224,111653,1,2,0:0:0:0:
224,224,111778,1,0,0:0:0:0:
256,224,111903,1,0,0:0:0:0:
256,224,112028,1,2,0:0:0:0:
256,224,112153,1,0,0:0:0:0:
256,256,112278,1,2,0:0:0:0:
256,256,112340,1,0,0:0:0:0:
256,224,112403,1,0,0:0:0:0:
256,256,112465,1,0,0:0:0:0:
288,192,112528,1,2,0:0:0:0:
288,192,112653,1,0,0:0:0:0:
288,192,112778,1,2,0:0:0:0:
288,192,112840,1,2,0:0:0:0:
288,192,112903,1,0,0:0:0:0:
288,192,113028,1,2,0:0:0:0:
288,192,113153,1,0,0:0:0:0:
256,160,113278,1,0,0:0:0:0:
256,192,113403,1,0,0:0:0:0:
288,192,113465,1,0,0:0:0:0:
256,192,113528,1,2,0:0:0:0:
288,192,113653,1,0,0:0:0:0:
288,192,113778,1,2,0:0:0:0:
288,192,113903,1,2,0:0:0:0:
288,192,113965,1,2,0:0:0:0:
288,192,114028,1,0,0:0:0:0:
288,192,114153,1,2,0:0:0:0:
288,192,114278,1,4,0:0:0:0:
288,192,114528,1,0,0:0:0:0:
288,192,114653,1,0,0:0:0:0:
288,192,114778,1,6,0:0:0:0:
288,192,115028,1,0,0:0:0:0:
288,192,115278,1,6,0:0:0:0:
288,192,115528,1,0,0:0:0:0:
288,192,115653,1,2,0:0:0:0:
288,192,115778,1,4,0:0:0:0:
288,192,116028,1,2,0:0:0:0:
288,192,116278,1,4,0:0:0:0:
288,192,116403,1,0,0:0:0:0:
288,192,116465,1,0,0:0:0:0:
288,192,116528,1,2,0:0:0:0:
288,192,116653,1,0,0:0:0:0:
256,160,116778,1,2,0:0:0:0:
288,192,116840,1,0,0:0:0:0:
288,192,116903,1,2,0:0:0:0:
288,192,116965,1,2,0:0:0:0:
288,192,117028,1,0,0:0:0:0:
288,192,117153,1,0,0:0:0:0:
288,160,117278,1,2,0:0:0:0:
256,192,117340,1,2,0:0:0:0:
288,160,117403,1,0,0:0:0:0:
288,160,117465,1,0,0:0:0:0:
256,192,117528,1,2,0:0:0:0:
256,192,117653,1,0,0:0:0:0:
320,192,117778,1,0,0:0:0:0:
320,192,117840,1,0,0:0:0:0:
320,192,117903,1,0,0:0:0:0:
320,192,117965,1,0,0:0:0:0:
320,192,118028,1,2,0:0:0:0:
320,192,118153,1,0,0:0:0:0:
288,192,118278,1,0,0:0:0:0:
320,192,118403,1,2,0:0:0:0:
320,192,118465,1,2,0:0:0:0:
320,192,118528,1,0,0:0:0:0:
320,192,118653,1,2,0:0:0:0:
320,192,118715,1,2,0:0:0:0:
320,192,118778,1,0,0:0:0:0:
320,192,118903,1,2,0:0:0:0:
320,192,118965,1,2,0:0:0:0:
320,192,119028,1,0,0:0:0:0:
320,192,119153,1,2,0:0:0:0:
320,192,119215,1,2,0:0:0:0:
320,192,119278,1,0,0:0:0:0:
320,224,119340,1,0,0:0:0:0:
320,224,119403,1,0,0:0:0:0:
320,224,119465,1,0,0:0:0:0:
320,224,119528,1,2,0:0:0:0:
320,224,119590,1,0,0:0:0:0:
320,224,119653,1,2,0:0:0:0:
320,224,119715,1,2,0:0:0:0:
320,224,119778,1,0,0:0:0:0:
320,224,120278,1,4,0:0:0:0:
288,192,120403,1,0,0:0:0:0:
288,192,120465,1,0,0:0:0:0:
288,192,120528,1,2,0:0:0:0:
288,192,120653,1,0,0:0:0:0:
288,192,120715,1,0,0:0:0:0:
288,192,120778,1,2,0:0:0:0:
288,192,120840,1,0,0:0:0:0:
288,192,120903,1,2,0:0:0:0:
288,192,120965,1,2,0:0:0:0:
288,192,121028,1,0,0:0:0:0:
288,192,121153,1,2,0:0:0:0:
288,192,121278,1,0,0:0:0:0:
288,224,121340,1,0,0:0:0:0:
288,192,121403,1,0,0:0:0:0:
288,192,121465,1,0,0:0:0:0:
288,192,121528,1,2,0:0:0:0:
320,224,121590,1,0,0:0:0:0:
320,224,121653,1,2,0:0:0:0:
320,224,121715,1,2,0:0:0:0:
320,224,121778,1,0,0:0:0:0:
320,224,121903,1,2,0:0:0:0:
320,224,121965,1,2,0:0:0:0:
320,224,122028,1,0,0:0:0:0:
320,224,122153,1,2,0:0:0:0:
288,192,122278,1,0,0:0:0:0:
320,224,122403,1,2,0:0:0:0:
320,224,122465,1,2,0:0:0:0:
256,128,122528,1,0,0:0:0:0:
288,224,122653,1,2,0:0:0:0:
288,224,122778,1,0,0:0:0:0:
288,224,122840,1,0,0:0:0:0:
288,224,122903,1,0,0:0:0:0:
288,224,122965,1,0,0:0:0:0:
288,224,123028,1,2,0:0:0:0:
288,224,123090,1,0,0:0:0:0:
288,224,123153,1,0,0:0:0:0:
288,224,123215,1,0,0:0:0:0:
288,224,123278,1,2,0:0:0:0:
288,224,123528,1,0,0:0:0:0:
288,224,123653,1,0,0:0:0:0:
288,224,123778,1,2,0:0:0:0:
288,224,123903,1,0,0:0:0:0:
288,224,123965,1,0,0:0:0:0:
288,224,124028,1,2,0:0:0:0:
288,224,124153,1,2,0:0:0:0:
288,192,124278,1,0,0:0:0:0:
288,224,124403,1,0,0:0:0:0:
288,224,124465,1,0,0:0:0:0:
288,224,124528,1,2,0:0:0:0:
288,224,124653,1,2,0:0:0:0:
288,224,124778,1,0,0:0:0:0:
288,224,124903,1,0,0:0:0:0:
288,224,124965,1,0,0:0:0:0:
288,224,125028,1,2,0:0:0:0:
288,224,125090,1,0,0:0:0:0:
288,224,125153,1,2,0:0:0:0:
288,224,125215,1,2,0:0:0:0:
288,224,125278,1,0,0:0:0:0:
288,224,125403,1,0,0:0:0:0:
288,224,125465,1,0,0:0:0:0:
288,224,125528,1,2,0:0:0:0:
288,224,125653,1,0,0:0:0:0:
288,224,125778,1,2,0:0:0:0:
288,224,125840,1,0,0:0:0:0:
288,224,125903,1,0,0:0:0:0:
288,224,126028,1,2,0:0:0:0:
288,224,126090,1,2,0:0:0:0:
288,224,126153,1,2,0:0:0:0:
288,224,126215,1,2,0:0:0:0:
288,224,126278,1,0,0:0:0:0:
288,224,126403,1,0,0:0:0:0:
288,224,126465,1,0,0:0:0:0:
288,224,126528,1,2,0:0:0:0:
288,224,126653,1,0,0:0:0:0:
288,224,126778,1,2,0:0:0:0:
288,224,126840,1,2,0:0:0:0:
288,224,126903,1,0,0:0:0:0:
288,224,126965,1,0,0:0:0:0:
288,224,127028,1,2,0:0:0:0:
288,224,127153,1,0,0:0:0:0:
288,224,127278,1,0,0:0:0:0:
288,224,127340,1,0,0:0:0:0:
288,224,127403,1,0,0:0:0:0:
288,224,127465,1,0,0:0:0:0:
288,224,127528,1,2,0:0:0:0:
288,224,127590,1,0,0:0:0:0:
288,224,127653,1,0,0:0:0:0:
288,224,127715,1,0,0:0:0:0:
288,224,127778,1,2,0:0:0:0:
288,224,127840,1,2,0:0:0:0:
288,224,127903,1,0,0:0:0:0:
288,224,127965,1,0,0:0:0:0:
288,224,128028,1,2,0:0:0:0:
288,224,128278,1,2,0:0:0:0:
288,256,128340,1,2,0:0:0:0:
288,224,128403,1,0,0:0:0:0:
320,256,128465,1,0,0:0:0:0:
288,224,128528,1,2,0:0:0:0:
288,224,128653,1,0,0:0:0:0:
288,256,128778,1,2,0:0:0:0:
288,256,128840,1,2,0:0:0:0:
288,256,128903,1,0,0:0:0:0:
288,256,128965,1,0,0:0:0:0:
288,256,129028,1,2,0:0:0:0:
288,256,129090,1,0,0:0:0:0:
288,256,129153,1,2,0:0:0:0:
288,256,129215,1,2,0:0:0:0:
288,256,129278,1,0,0:0:0:0:
256,256,129403,1,0,0:0:0:0:
256,256,129465,1,0,0:0:0:0:
256,256,129528,1,2,0:0:0:0:
224,224,129653,1,0,0:0:0:0:
256,256,129778,1,2,0:0:0:0:
256,256,129840,1,0,0:0:0:0:
256,256,129903,1,2,0:0:0:0:
256,224,130028,1,2,0:0:0:0:
256,224,130153,1,0,0:0:0:0:
256,224,130278,1,2,0:0:0:0:
288,224,130340,1,0,0:0:0:0:
288,224,130403,1,0,0:0:0:0:
288,224,130528,1,2,0:0:0:0:
288,224,130653,1,2,0:0:0:0:
288,224,130778,1,0,0:0:0:0:
256,224,130903,1,0,0:0:0:0:
256,224,130965,1,0,0:0:0:0:
288,224,131028,1,2,0:0:0:0:
288,224,131153,1,0,0:0:0:0:
256,224,131278,1,2,0:0:0:0:
256,224,131528,1,0,0:0:0:0:
256,192,131653,1,0,0:0:0:0:
256,224,131778,1,2,0:0:0:0:
256,224,131840,1,0,0:0:0:0:
256,224,131903,1,0,0:0:0:0:
256,224,131965,1,0,0:0:0:0:
256,224,132028,1,2,0:0:0:0:
256,224,132153,1,2,0:0:0:0:
288,224,132278,1,0,0:0:0:0:
256,224,132403,1,0,0:0:0:0:
256,192,132465,1,0,0:0:0:0:
256,224,132528,1,2,0:0:0:0:
256,224,132653,1,0,0:0:0:0:
256,192,132778,1,2,0:0:0:0:
256,192,132840,1,2,0:0:0:0:
256,192,132903,1,0,0:0:0:0:
256,192,132965,1,0,0:0:0:0:
256,192,133028,1,2,0:0:0:0:
256,192,133153,1,0,0:0:0:0:
256,192,133278,1,0,0:0:0:0:
256,192,133403,1,0,0:0:0:0:
256,192,133465,1,0,0:0:0:0:
256,192,133528,1,2,0:0:0:0:
256,192,133653,1,0,0:0:0:0:
256,192,133778,1,2,0:0:0:0:
256,192,133840,1,0,0:0:0:0:
256,192,133903,1,0,0:0:0:0:
256,192,133965,1,0,0:0:0:0:
256,192,134028,1,2,0:0:0:0:
256,192,134153,1,0,0:0:0:0:
288,224,134278,1,2,0:0:0:0:
288,224,134403,1,0,0:0:0:0:
288,192,134465,1,0,0:0:0:0:
288,192,134528,1,2,0:0:0:0:
288,192,134590,1,2,0:0:0:0:
288,192,134653,1,2,0:0:0:0:
288,192,134715,1,2,0:0:0:0:
288,192,134778,1,0,0:0:0:0:
256,192,134840,1,0,0:0:0:0:
288,192,134903,1,0,0:0:0:0:
288,192,134965,1,0,0:0:0:0:
288,192,135028,1,2,0:0:0:0:
320,192,135090,1,0,0:0:0:0:
288,192,135153,1,0,0:0:0:0:
288,192,135215,1,0,0:0:0:0:
288,192,135278,1,2,0:0:0:0:
256,224,135403,1,2,0:0:0:0:
256,224,135528,1,0,0:0:0:0:
256,224,135653,1,0,0:0:0:0:
256,224,135778,1,2,0:0:0:0:
256,224,135840,1,2,0:0:0:0:
256,224,135903,1,0,0:0:0:0:
256,224,135965,1,0,0:0:0:0:
256,224,136028,1,2,0:0:0:0:
256,224,136153,1,0,0:0:0:0:
256,224,136278,1,4,0:0:0:0:
288,224,136528,1,0,0:0:0:0:
256,224,136653,1,0,0:0:0:0:
288,192,136778,1,2,0:0:0:0:
288,192,137028,1,0,0:0:0:0:
288,224,137278,1,0,0:0:0:0:
288,256,137403,1,2,0:0:0:0:
288,256,137528,1,0,0:0:0:0:
288,256,137653,1,0,0:0:0:0:
288,256,137778,1,2,0:0:0:0:
288,256,138028,1,0,0:0:0:0:
320,256,138278,1,4,0:0:0:0:
288,192,138528,1,0,0:0:0:0:
288,224,138653,1,0,0:0:0:0:
288,224,138778,1,2,0:0:0:0:
288,224,139028,1,0,0:0:0:0:
320,224,139278,1,0,0:0:0:0:
320,224,139403,1,2,0:0:0:0:
320,224,139528,1,0,0:0:0:0:
320,224,139653,1,0,0:0:0:0:
320,224,139778,1,2,0:0:0:0:
320,224,139903,1,2,0:0:0:0:
320,224,140028,1,0,0:0:0:0:
288,256,140090,1,0,0:0:0:0:
320,224,140153,1,0,0:0:0:0:
288,256,140215,1,0,0:0:0:0:
320,224,140278,1,2,0:0:0:0:
320,256,140528,1,0,0:0:0:0:
320,256,140653,1,0,0:0:0:0:
320,256,140715,1,0,0:0:0:0:
320,256,140778,1,2,0:0:0:0:
320,256,140840,1,0,0:0:0:0:
320,256,140903,1,0,0:0:0:0:
320,256,141028,1,2,0:0:0:0:
320,256,141153,1,0,0:0:0:0:
320,256,141278,1,2,0:0:0:0:
320,256,141340,1,2,0:0:0:0:
320,256,141403,1,0,0:0:0:0:
320,256,141528,1,2,0:0:0:0:
320,256,141653,1,0,0:0:0:0:
320,256,141778,1,0,0:0:0:0:
320,256,141840,1,0,0:0:0:0:
320,256,141903,1,0,0:0:0:0:
320,256,142028,1,2,0:0:0:0:
320,256,142153,1,0,0:0:0:0:
320,256,142278,1,6,0:0:0:0:
320,256,142403,1,0,0:0:0:0:
320,256,142465,1,0,0:0:0:0:
320,256,142528,1,2,0:0:0:0:
320,256,142653,1,0,0:0:0:0:
320,256,142715,1,0,0:0:0:0:
320,256,142778,1,2,0:0:0:0:
320,256,142840,1,0,0:0:0:0:
320,256,142903,1,0,0:0:0:0:
320,256,142965,1,0,0:0:0:0:
320,256,143028,1,2,0:0:0:0:
320,256,143090,1,0,0:0:0:0:
320,256,143153,1,2,0:0:0:0:
320,256,143215,1,2,0:0:0:0:
320,256,143278,1,0,0:0:0:0:
320,256,143403,1,2,0:0:0:0:
320,256,143465,1,2,0:0:0:0:
320,256,143528,1,0,0:0:0:0:
320,256,143653,1,0,0:0:0:0:
320,256,143778,1,0,0:0:0:0:
320,256,143840,1,0,0:0:0:0:
320,256,143903,1,0,0:0:0:0:
320,256,143965,1,0,0:0:0:0:
320,256,144028,1,2,0:0:0:0:
320,256,144090,1,2,0:0:0:0:
320,256,144153,1,0,0:0:0:0:
288,256,144278,1,4,0:0:0:0:
256,192,144403,12,0,148278,0:0:0:0:
256,192,152278,5,4,0:0:0:0:
256,192,152653,1,0,0:0:0:0:
320,160,152778,1,2,0:0:0:0:
256,192,153028,1,0,0:0:0:0:
256,192,153278,1,0,0:0:0:0:
256,192,153653,1,2,0:0:0:0:
256,192,153778,1,0,0:0:0:0:
256,192,154028,1,2,0:0:0:0:
256,192,154278,1,0,0:0:0:0:
256,192,154653,1,0,0:0:0:0:
320,192,154778,1,2,0:0:0:0:
256,192,155028,1,2,0:0:0:0:
256,192,155278,1,0,0:0:0:0:
256,192,155653,1,0,0:0:0:0:
256,192,155778,1,2,0:0:0:0:
256,192,156028,1,0,0:0:0:0:
256,192,156278,1,2,0:0:0:0:
256,192,156653,1,0,0:0:0:0:
256,192,156778,1,2,0:0:0:0:
256,192,157028,1,2,0:0:0:0:
256,192,157278,1,0,0:0:0:0:
256,192,157653,1,2,0:0:0:0:
256,192,157778,1,0,0:0:0:0:
256,192,158028,1,2,0:0:0:0:
256,192,158278,1,0,0:0:0:0:
224,192,158653,1,0,0:0:0:0:
224,192,158778,1,2,0:0:0:0:
224,192,159028,1,0,0:0:0:0:
224,192,159278,1,0,0:0:0:0:
224,192,159653,1,0,0:0:0:0:
224,192,159778,1,2,0:0:0:0:
224,192,159903,1,2,0:0:0:0:
224,192,160028,1,0,0:0:0:0:
256,224,160278,1,4,0:0:0:0:
256,224,160403,1,0,0:0:0:0:
256,224,160465,1,0,0:0:0:0:
256,224,160528,1,2,0:0:0:0:
256,224,160653,1,4,0:0:0:0:
256,224,160903,1,0,0:0:0:0:
288,224,161028,1,2,0:0:0:0:
256,224,161278,1,4,0:0:0:0:
288,224,161403,1,0,0:0:0:0:
288,224,161465,1,0,0:0:0:0:
288,224,161528,1,2,0:0:0:0:
288,224,161653,1,4,0:0:0:0:
288,224,161903,1,0,0:0:0:0:
288,224,162028,1,2,0:0:0:0:
256,224,162278,1,4,0:0:0:0:
288,256,162403,1,0,0:0:0:0:
288,256,162465,1,0,0:0:0:0:
288,256,162528,1,2,0:0:0:0:
288,256,162653,1,4,0:0:0:0:
288,256,162903,1,0,0:0:0:0:
288,256,163028,1,2,0:0:0:0:
288,256,163153,1,0,0:0:0:0:
288,256,163278,1,4,0:0:0:0:
288,256,163403,1,2,0:0:0:0:
256,288,163465,1,2,0:0:0:0:
288,256,163528,1,0,0:0:0:0:
320,288,163653,1,0,0:0:0:0:
288,256,163715,1,0,0:0:0:0:
288,256,163778,1,2,0:0:0:0:
288,256,163840,1,2,0:0:0:0:
288,256,163903,1,0,0:0:0:0:
288,256,163965,1,0,0:0:0:0:
288,256,164028,1,2,0:0:0:0:
288,256,164153,1,0,0:0:0:0:
288,256,164278,1,4,0:0:0:0:
288,256,164653,1,0,0:0:0:0:
288,256,164778,1,2,0:0:0:0:
288,256,165028,1,0,0:0:0:0:
288,256,165278,1,0,0:0:0:0:
288,256,165403,1,2,0:0:0:0:
288,256,165528,1,0,0:0:0:0:
288,256,165653,1,0,0:0:0:0:
288,256,165778,1,2,0:0:0:0:
320,256,165903,1,2,0:0:0:0:
288,256,166028,1,0,0:0:0:0:
320,256,166278,1,0,0:0:0:0:
320,256,166528,1,0,0:0:0:0:
320,256,166653,1,0,0:0:0:0:
320,256,166778,1,2,0:0:0:0:
320,256,166903,1,2,0:0:0:0:
320,256,167028,1,0,0:0:0:0:
320,256,167278,1,0,0:0:0:0:
288,224,167403,1,2,0:0:0:0:
288,224,167528,1,0,0:0:0:0:
288,224,167653,1,0,0:0:0:0:
288,224,167778,1,2,0:0:0:0:
288,224,167903,1,2,0:0:0:0:
288,224,168028,1,0,0:0:0:0:
320,224,168153,1,2,0:0:0:0:
288,224,168278,1,2,0:0:0:0:
288,224,168340,1,2,0:0:0:0:
288,224,168403,1,2,0:0:0:0:
288,192,168465,1,2,0:0:0:0:
288,192,168528,1,0,0:0:0:0:
288,192,168590,1,0,0:0:0:0:
288,192,168653,1,0,0:0:0:0:
288,192,168715,1,0,0:0:0:0:
288,192,168778,1,2,0:0:0:0:
288,192,168840,1,0,0:0:0:0:
288,192,168903,1,0,0:0:0:0:
288,192,168965,1,0,0:0:0:0:
288,192,169028,1,2,0:0:0:0:
288,192,169090,1,0,0:0:0:0:
288,192,169153,1,0,0:0:0:0:
288,192,169215,1,0,0:0:0:0:
288,192,169278,1,2,0:0:0:0:
224,160,169340,1,2,0:0:0:0:
256,160,169403,1,0,0:0:0:0:
256,160,169465,1,0,0:0:0:0:
256,160,169528,1,2,0:0:0:0:
256,160,169590,1,0,0:0:0:0:
256,160,169653,1,0,0:0:0:0:
256,160,169715,1,0,0:0:0:0:
256,160,169778,1,2,0:0:0:0:
256,128,169840,1,2,0:0:0:0:
224,128,169903,1,0,0:0:0:0:
256,128,169965,1,0,0:0:0:0:
224,128,170028,1,2,0:0:0:0:
224,128,170090,1,0,0:0:0:0:
224,128,170153,1,2,0:0:0:0:
256,224,170215,1,2,0:0:0:0:
224,192,170278,1,0,0:0:0:0:
224,192,170528,1,0,0:0:0:0:
224,192,170778,1,0,0:0:0:0:
288,160,171028,1,0,0:0:0:0:
288,160,171278,1,6,0:0:0:0:
192,160,171778,1,0,0:0:0:0:
224,160,171840,1,0,0:0:0:0:
224,160,171903,1,2,0:0:0:0:
256,192,171965,1,2,0:0:0:0:
256,192,172028,1,2,0:0:0:0:
256,192,172090,1,2,0:0:0:0:
256,192,172153,1,2,0:0:0:0:
256,192,172215,1,2,0:0:0:0:
256,192,172278,1,0,0:0:0:0:
256,192,172403,1,0,0:0:0:0:
256,192,172465,1,0,0:0:0:0:
256,192,172528,1,2,0:0:0:0:
256,192,172653,1,0,0:0:0:0:
256,192,172715,1,0,0:0:0:0:
256,192,172778,1,2,0:0:0:0:
256,192,172840,1,2,0:0:0:0:
256,192,172903,1,0,0:0:0:0:
256,192,172965,1,0,0:0:0:0:
256,192,173028,1,2,0:0:0:0:
256,192,173090,1,0,0:0:0:0:
256,192,173153,1,2,0:0:0:0:
256,192,173215,1,2,0:0:0:0:
256,192,173278,1,0,0:0:0:0:
256,224,173403,1,0,0:0:0:0:
256,224,173465,1,0,0:0:0:0:
256,224,173528,1,2,0:0:0:0:
256,224,173653,1,0,0:0:0:0:
256,224,173715,1,0,0:0:0:0:
256,224,173778,1,2,0:0:0:0:
256,224,173840,1,0,0:0:0:0:
256,224,173903,1,0,0:0:0:0:
256,224,174028,1,2,0:0:0:0:
256,224,174153,1,0,0:0:0:0:
288,224,174278,1,0,0:0:0:0:
256,224,174403,1,2,0:0:0:0:
256,224,174465,1,2,0:0:0:0:
256,224,174528,1,0,0:0:0:0:
256,224,174653,1,2,0:0:0:0:
256,224,174715,1,2,0:0:0:0:
256,224,174778,1,0,0:0:0:0:
256,224,174840,1,0,0:0:0:0:
256,224,174903,1,0,0:0:0:0:
256,224,174965,1,0,0:0:0:0:
256,224,175028,1,2,0:0:0:0:
256,224,175090,1,0,0:0:0:0:
256,224,175153,1,2,0:0:0:0:
256,224,175215,1,2,0:0:0:0:
256,224,175278,1,0,0:0:0:0:
256,224,175528,1,2,0:0:0:0:
256,224,175653,1,0,0:0:0:0:
256,224,175778,1,0,0:0:0:0:
256,224,175840,1,0,0:0:0:0:
256,224,175903,1,0,0:0:0:0:
256,224,175965,1,0,0:0:0:0:
256,224,176028,1,2,0:0:0:0:
256,224,176090,1,2,0:0:0:0:
256,224,176153,1,2,0:0:0:0:
256,224,176215,1,2,0:0:0:0:
256,224,176278,1,0,0:0:0:0:
256,224,176403,1,0,0:0:0:0:
256,192,176465,1,0,0:0:0:0:
256,224,176528,1,2,0:0:0:0:
256,224,176653,1,0,0:0:0:0:
256,224,176715,1,0,0:0:0:0:
256,224,176778,1,2,0:0:0:0:
256,224,176840,1,2,0:0:0:0:
256,192,176903,1,0,0:0:0:0:
256,192,176965,1,0,0:0:0:0:
256,192,177028,1,2,0:0:0:0:
256,224,177090,1,0,0:0:0:0:
256,224,177153,1,2,0:0:0:0:
256,224,177215,1,2,0:0:0:0:
256,224,177278,1,0,0:0:0:0:
256,224,177403,1,0,0:0:0:0:
256,224,177465,1,0,0:0:0:0:
256,224,177528,1,2,0:0:0:0:
256,224,177653,1,0,0:0:0:0:
256,224,177778,1,2,0:0:0:0:
256,192,177840,1,0,0:0:0:0:
256,192,177903,1,0,0:0:0:0:
288,224,178028,1,2,0:0:0:0:
256,192,178090,1,2,0:0:0:0:
256,192,178153,1,0,0:0:0:0:
256,192,178278,1,2,0:0:0:0:
256,192,178340,1,2,0:0:0:0:
256,192,178403,1,2,0:0:0:0:
256,192,178465,1,2,0:0:0:0:
256,192,178528,1,0,0:0:0:0:
256,192,178590,1,0,0:0:0:0:
256,192,178653,1,2,0:0:0:0:
256,192,178715,1,0,0:0:0:0:
256,192,178778,1,0,0:0:0:0:
256,192,178840,1,0,0:0:0:0:
256,192,178903,1,0,0:0:0:0:
256,192,178965,1,0,0:0:0:0:
256,192,179028,1,2,0:0:0:0:
256,192,179090,1,0,0:0:0:0:
256,192,179153,1,0,0:0:0:0:
256,192,179215,1,0,0:0:0:0:
256,192,179278,1,2,0:0:0:0:
256,224,179340,1,2,0:0:0:0:
256,224,179403,1,2,0:0:0:0:
256,224,179465,1,2,0:0:0:0:
256,224,179528,1,0,0:0:0:0:
256,224,179590,1,0,0:0:0:0:
256,224,179653,1,0,0:0:0:0:
256,224,179715,1,0,0:0:0:0:
256,224,179778,1,2,0:0:0:0:
256,224,179840,1,2,0:0:0:0:
256,224,179903,1,0,0:0:0:0:
256,224,179965,1,0,0:0:0:0:
256,224,180028,1,2,0:0:0:0:
256,224,180278,1,4,0:0:0:0:
256,224,180403,1,0,0:0:0:0:
256,224,180465,1,0,0:0:0:0:
256,224,180528,1,2,0:0:0:0:
256,224,180653,1,0,0:0:0:0:
256,224,180778,1,2,0:0:0:0:
256,224,180840,1,2,0:0:0:0:
256,224,180903,1,0,0:0:0:0:
256,224,181028,1,0,0:0:0:0:
256,224,181090,1,0,0:0:0:0:
256,224,181153,1,0,0:0:0:0:
256,224,181215,1,0,0:0:0:0:
256,224,181278,1,2,0:0:0:0:
288,224,181403,1,0,0:0:0:0:
256,224,181528,1,2,0:0:0:0:
256,256,181590,1,0,0:0:0:0:
256,224,181653,1,0,0:0:0:0:
256,256,181778,1,2,0:0:0:0:
256,256,181840,1,0,0:0:0:0:
256,256,181903,1,2,0:0:0:0:
256,256,181965,1,2,0:0:0:0:
256,256,182028,1,0,0:0:0:0:
256,256,182153,1,2,0:0:0:0:
288,256,182278,1,0,0:0:0:0:
256,256,182403,1,0,0:0:0:0:
256,256,182465,1,0,0:0:0:0:
256,256,182528,1,2,0:0:0:0:
256,256,182653,1,2,0:0:0:0:
256,256,182778,1,0,0:0:0:0:
256,256,182903,1,0,0:0:0:0:
256,224,182965,1,0,0:0:0:0:
256,256,183028,1,2,0:0:0:0:
256,224,183090,1,0,0:0:0:0:
256,256,183153,1,0,0:0:0:0:
256,224,183215,1,0,0:0:0:0:
256,256,183278,1,2,0:0:0:0:
256,192,183528,1,0,0:0:0:0:
256,192,183778,1,0,0:0:0:0:
256,192,183903,1,0,0:0:0:0:
256,192,183965,1,0,0:0:0:0:
256,192,184028,1,2,0:0:0:0:
256,192,184153,1,2,0:0:0:0:
256,192,184278,1,4,0:0:0:0:
256,192,184528,1,2,0:0:0:0:
256,192,184653,1,0,0:0:0:0:
256,192,184715,1,0,0:0:0:0:
256,192,184778,1,2,0:0:0:0:
256,192,184840,1,0,0:0:0:0:
256,192,184903,1,2,0:0:0:0:
256,192,184965,1,2,0:0:0:0:
256,192,185028,1,0,0:0:0:0:
256,192,185153,1,2,0:0:0:0:
320,256,185278,1,4,0:0:0:0:
256,192,185528,1,2,0:0:0:0:
256,192,185653,1,0,0:0:0:0:
256,192,185778,1,2,0:0:0:0:
256,160,185840,1,2,0:0:0:0:
256,160,185903,1,0,0:0:0:0:
256,160,185965,1,0,0:0:0:0:
256,160,186028,1,2,0:0:0:0:
256,160,186153,1,2,0:0:0:0:
256,160,186278,1,0,0:0:0:0:
224,192,186340,1,0,0:0:0:0:
224,192,186403,1,0,0:0:0:0:
224,192,186465,1,0,0:0:0:0:
224,192,186528,1,2,0:0:0:0:
224,192,186590,1,0,0:0:0:0:
224,192,186653,1,0,0:0:0:0:
224,192,186715,1,0,0:0:0:0:
224,192,186778,1,2,0:0:0:0:
224,192,186840,1,2,0:0:0:0:
224,192,186903,1,0,0:0:0:0:
224,192,186965,1,0,0:0:0:0:
224,192,187028,1,2,0:0:0:0:
224,192,187090,1,2,0:0:0:0:
224,192,187153,1,2,0:0:0:0:
224,192,187215,1,2,0:0:0:0:
224,192,187278,1,0,0:0:0:0:
224,192,187340,1,0,0:0:0:0:
224,192,187403,1,0,0:0:0:0:
224,192,187465,1,0,0:0:0:0:
224,192,187528,1,2,0:0:0:0:
224,192,187590,1,0,0:0:0:0:
224,192,187653,1,0,0:0:0:0:
224,192,187715,1,0,0:0:0:0:
224,192,187778,1,2,0:0:0:0:
224,192,187840,1,2,0:0:0:0:
224,192,187903,1,0,0:0:0:0:
224,192,187965,1,0,0:0:0:0:
224,192,188028,1,2,0:0:0:0:
224,192,188153,1,0,0:0:0:0:
256,192,188278,1,0,0:0:0:0:
224,192,188403,1,0,0:0:0:0:
224,192,188465,1,0,0:0:0:0:
224,192,188528,1,2,0:0:0:0:
224,192,188653,1,0,0:0:0:0:
224,192,188778,1,2,0:0:0:0:
224,192,188840,1,0,0:0:0:0:
224,192,188903,1,0,0:0:0:0:
224,192,189028,1,2,0:0:0:0:
224,192,189153,1,2,0:0:0:0:
256,192,189278,1,0,0:0:0:0:
256,192,189403,1,2,0:0:0:0:
256,192,189465,1,2,0:0:0:0:
256,192,189528,1,0,0:0:0:0:
256,192,189653,1,2,0:0:0:0:
256,192,189778,1,0,0:0:0:0:
256,192,189840,1,0,0:0:0:0:
256,192,189903,1,0,0:0:0:0:
256,192,190028,1,2,0:0:0:0:
256,192,190153,1,0,0:0:0:0:
224,160,190278,1,0,0:0:0:0:
256,160,190403,1,0,0:0:0:0:
288,160,190465,1,0,0:0:0:0:
288,160,190528,1,2,0:0:0:0:
288,160,190653,1,0,0:0:0:0:
288,160,190778,1,2,0:0:0:0:
320,192,190840,1,2,0:0:0:0:
320,192,190903,1,2,0:0:0:0:
320,192,190965,1,2,0:0:0:0:
320,192,191028,1,0,0:0:0:0:
320,192,191153,1,0,0:0:0:0:
320,192,191278,1,2,0:0:0:0:
320,192,191403,1,0,0:0:0:0:
320,192,191465,1,0,0:0:0:0:
320,192,191528,1,2,0:0:0:0:
320,192,191653,1,0,0:0:0:0:
288,192,191778,1,2,0:0:0:0:
320,192,191840,1,2,0:0:0:0:
320,160,191903,1,0,0:0:0:0:
352,192,191965,1,0,0:0:0:0:
320,160,192028,1,2,0:0:0:0:
320,160,192153,1,0,0:0:0:0:
224,160,192278,1,0,0:0:0:0:
256,192,192403,1,0,0:0:0:0:
256,192,192465,1,0,0:0:0:0:
256,192,192528,1,2,0:0:0:0:
256,192,192653,1,0,0:0:0:0:
320,160,192778,1,0,0:0:0:0:
320,160,192840,1,0,0:0:0:0:
288,160,192903,1,0,0:0:0:0:
288,160,192965,1,0,0:0:0:0:
288,160,193028,1,2,0:0:0:0:
288,160,193090,1,0,0:0:0:0:
288,160,193153,1,2,0:0:0:0:
288,160,193215,1,2,0:0:0:0:
288,160,193278,1,0,0:0:0:0:
288,128,193528,1,2,0:0:0:0:
288,128,193653,1,0,0:0:0:0:
288,128,193715,1,0,0:0:0:0:
288,128,193778,1,2,0:0:0:0:
288,128,193840,1,0,0:0:0:0:
288,128,193903,1,0,0:0:0:0:
288,128,194028,1,2,0:0:0:0:
256,128,194153,1,0,0:0:0:0:
224,160,194278,1,0,0:0:0:0:
256,128,194403,1,0,0:0:0:0:
256,128,194465,1,0,0:0:0:0:
256,128,194528,1,2,0:0:0:0:
256,128,194653,1,0,0:0:0:0:
256,128,194715,1,0,0:0:0:0:
256,128,194778,1,2,0:0:0:0:
256,128,194840,1,0,0:0:0:0:
256,128,194903,1,0,0:0:0:0:
256,128,194965,1,0,0:0:0:0:
256,128,195028,1,2,0:0:0:0:
256,128,195153,1,2,0:0:0:0:
224,160,195278,1,0,0:0:0:0:
224,128,195403,1,2,0:0:0:0:
224,128,195465,1,0,0:0:0:0:
224,128,195528,1,2,0:0:0:0:
224,128,195653,1,0,0:0:0:0:
224,128,195778,1,2,0:0:0:0:
224,128,195840,1,2,0:0:0:0:
224,128,195903,1,2,0:0:0:0:
224,128,195965,1,2,0:0:0:0:
224,128,196028,1,0,0:0:0:0:
224,128,196153,1,0,0:0:0:0:
224,128,196278,1,4,0:0:0:0:
224,128,196528,1,0,0:0:0:0:
224,128,196653,1,0,0:0:0:0:
224,128,196778,1,2,0:0:0:0:
224,128,197028,1,0,0:0:0:0:
224,128,197278,1,0,0:0:0:0:
224,128,197340,1,0,0:0:0:0:
224,128,197403,1,2,0:0:0:0:
224,128,197528,1,0,0:0:0:0:
224,128,197653,1,0,0:0:0:0:
224,128,197778,1,2,0:0:0:0:
224,128,197903,1,2,0:0:0:0:
224,128,198028,1,0,0:0:0:0:
224,128,198278,1,4,0:0:0:0:
224,128,198528,1,0,0:0:0:0:
224,128,198653,1,0,0:0:0:0:
224,128,198778,1,2,0:0:0:0:
128,64,199028,1,0,0:0:0:0:
224,160,199278,1,2,0:0:0:0:
224,160,199403,1,0,0:0:0:0:
224,160,199465,1,0,0:0:0:0:
224,160,199528,1,2,0:0:0:0:
224,160,199653,1,0,0:0:0:0:
224,160,199715,1,0,0:0:0:0:
224,160,199778,1,2,0:0:0:0:
224,160,199840,1,0,0:0:0:0:
224,160,199903,1,2,0:0:0:0:
224,160,199965,1,2,0:0:0:0:
224,160,200028,1,0,0:0:0:0:
224,160,200153,1,0,0:0:0:0:
224,160,200278,1,0,0:0:0:0:
224,160,200403,1,2,0:0:0:0:
224,160,200465,1,2,0:0:0:0:
224,160,200528,1,0,0:0:0:0:
224,160,200653,1,2,0:0:0:0:
224,160,200715,1,2,0:0:0:0:
224,160,200778,1,0,0:0:0:0:
224,160,200903,1,2,0:0:0:0:
224,160,200965,1,2,0:0:0:0:
224,160,201028,1,0,0:0:0:0:
224,160,201153,1,2,0:0:0:0:
288,160,201215,1,2,0:0:0:0:
224,192,201278,1,0,0:0:0:0:
224,192,201340,1,0,0:0:0:0:
224,192,201403,1,2,0:0:0:0:
224,192,201465,1,2,0:0:0:0:
224,192,201528,1,0,0:0:0:0:
224,192,201653,1,2,0:0:0:0:
224,192,201778,1,0,0:0:0:0:
224,192,201840,1,0,0:0:0:0:
224,192,201903,1,0,0:0:0:0:
224,192,201965,1,0,0:0:0:0:
224,192,202028,1,2,0:0:0:0:
224,192,202090,1,2,0:0:0:0:
224,192,202153,1,0,0:0:0:0:
224,192,202215,1,0,0:0:0:0:
224,192,202278,1,2,0:0:0:0:
224,192,203528,1,4,0:0:0:0:
224,192,203778,1,2,0:0:0:0:
224,192,203840,1,2,0:0:0:0:
224,192,203903,1,2,0:0:0:0:
224,192,204028,1,2,0:0:0:0:
224,192,204153,1,2,0:0:0:0:
224,192,204278,1,4,0:0:0:0:
224,192,204403,1,0,0:0:0:0:
224,192,204465,1,0,0:0:0:0:
224,192,204528,1,2,0:0:0:0:
224,192,204653,1,0,0:0:0:0:
224,192,204778,1,2,0:0:0:0:
224,192,204840,1,2,0:0:0:0:
224,192,204903,1,0,0:0:0:0:
224,192,204965,1,0,0:0:0:0:
224,192,205028,1,2,0:0:0:0:
224,192,205153,1,0,0:0:0:0:
224,224,205278,1,2,0:0:0:0:
224,224,205340,1,0,0:0:0:0:
224,224,205403,1,0,0:0:0:0:
224,224,205465,1,0,0:0:0:0:
224,224,205528,1,2,0:0:0:0:
224,224,205653,1,2,0:0:0:0:
224,224,205778,1,4,0:0:0:0:
224,224,205903,1,0,0:0:0:0:
224,224,205965,1,0,0:0:0:0:
224,224,206028,1,2,0:0:0:0:
224,224,206153,1,0,0:0:0:0:
224,224,206278,1,2,0:0:0:0:
224,224,206340,1,2,0:0:0:0:
224,224,206403,1,0,0:0:0:0:
224,224,206465,1,0,0:0:0:0:
224,224,206528,1,2,0:0:0:0:
224,224,206653,1,0,0:0:0:0:
224,224,206778,1,2,0:0:0:0:
256,224,206840,1,0,0:0:0:0:
256,224,206903,1,0,0:0:0:0:
256,224,207028,1,2,0:0:0:0:
256,224,207153,1,0,0:0:0:0:
224,192,207278,1,0,0:0:0:0:
224,192,207340,1,0,0:0:0:0:
224,192,207403,1,0,0:0:0:0:
224,192,207465,1,0,0:0:0:0:
224,192,207528,1,2,0:0:0:0:
224,192,207590,1,0,0:0:0:0:
224,192,207653,1,2,0:0:0:0:
224,192,207715,1,2,0:0:0:0:
224,192,207778,1,0,0:0:0:0:
224,192,207903,1,0,0:0:0:0:
224,192,207965,1,0,0:0:0:0:
224,192,208028,1,2,0:0:0:0:
224,192,208153,1,0,0:0:0:0:
224,192,208278,1,4,0:0:0:0:
224,224,208403,1,0,0:0:0:0:
224,224,208465,1,0,0:0:0:0:
224,224,208528,1,2,0:0:0:0:
224,224,208653,1,0,0:0:0:0:
224,224,208715,1,0,0:0:0:0:
224,224,208778,1,2,0:0:0:0:
224,224,208840,1,0,0:0:0:0:
224,224,208903,1,2,0:0:0:0:
224,224,208965,1,2,0:0:0:0:
224,224,209028,1,0,0:0:0:0:
224,224,209153,1,2,0:0:0:0:
224,224,209215,1,2,0:0:0:0:
224,224,209278,1,0,0:0:0:0:
224,224,209403,1,0,0:0:0:0:
224,224,209528,1,2,0:0:0:0:
224,224,209653,1,0,0:0:0:0:
224,224,209778,1,6,0:0:0:0:
224,224,209903,1,0,0:0:0:0:
256,224,209965,1,0,0:0:0:0:
224,224,210028,1,2,0:0:0:0:
224,224,210153,1,0,0:0:0:0:
224,224,210278,1,4,0:0:0:0:
256,224,210403,1,0,0:0:0:0:
256,224,210465,1,0,0:0:0:0:
256,224,210528,1,2,0:0:0:0:
256,224,210653,1,0,0:0:0:0:
256,224,210715,1,0,0:0:0:0:
256,224,210778,1,2,0:0:0:0:
256,224,210840,1,2,0:0:0:0:
256,224,210903,1,0,0:0:0:0:
256,224,210965,1,0,0:0:0:0:
256,224,211028,1,2,0:0:0:0:
256,224,211153,1,0,0:0:0:0:
224,192,211278,1,2,0:0:0:0:
224,192,211340,1,2,0:0:0:0:
224,192,211403,1,2,0:0:0:0:
224,192,211465,1,2,0:0:0:0:
224,192,211528,1,0,0:0:0:0:
224,192,211590,1,0,0:0:0:0:
224,192,211653,1,0,0:0:0:0:
224,192,211715,1,0,0:0:0:0:
224,192,211778,1,2,0:0:0:0:
224,192,212028,1,4,0:0:0:0:
