osu file format v14

[General]
AudioFilename: audio.mp3
AudioLeadIn: 0
PreviewTime: 55204
Countdown: 0
SampleSet: Soft
StackLeniency: 0.4
Mode: 0
LetterboxInBreaks: 0
WidescreenStoryboard: 0

[Editor]
DistanceSpacing: 1.1
BeatDivisor: 4
GridSize: 4
TimelineZoom: 2.2

[Metadata]
Title:Los! Los! Los!
TitleUnicode:Los! Los! Los!
Artist:Tanya Degurechaff (CV: Aoi Yuuki)
ArtistUnicode:ターニャ・デグレチャフ(CV:悠木碧)
Creator:Yogurtt
Version:extra
Source:幼女戦記
Tags:Youjo Senki Saga of Tanya the Evil ED ending
BeatmapID:1206946
BeatmapSetID:569362

[Difficulty]
HPDrainRate:4.8
CircleSize:3.8
OverallDifficulty:8.8
ApproachRate:9.8
SliderMultiplier:1.7
SliderTickRate:1

[Events]
//Background and Video events
0,0,"crazy loli.jpg",0,0
//Break Periods
//Storyboard Layer 0 (Background)
//Storyboard Layer 1 (Fail)
//Storyboard Layer 2 (Pass)
//Storyboard Layer 3 (Foreground)
//Storyboard Sound Samples

[TimingPoints]
1204,250,4,2,1,50,1,0
4954,-66.6666666666667,4,2,1,50,0,0
5204,-100,4,2,1,50,0,0
6954,-66.6666666666667,4,2,1,50,0,0
7204,-100,4,2,1,50,0,0
8954,-66.6666666666667,4,2,1,50,0,0
9204,-100,4,2,1,50,0,0
10954,-66.6666666666667,4,2,1,50,0,0
11204,-100,4,2,1,50,0,0
13204,-100,4,2,2,70,0,0
13266,-100,4,2,1,70,0,0
17204,-100,4,2,1,40,0,0
17704,-100,4,2,1,50,0,0
18079,-100,4,2,1,60,0,0
18454,-100,4,2,1,70,0,0
33204,-133.333333333333,4,2,1,70,0,0
37204,-100,4,2,1,70,0,0
51204,-142.857142857143,4,2,1,40,0,0
51704,-125,4,2,1,50,0,0
52204,-111.111111111111,4,2,1,60,0,0
52704,-100,4,2,1,70,0,0
55204,-100,4,2,2,70,0,1
55266,-100,4,2,1,70,0,1
62704,-100,4,3,1,70,0,1
63204,-100,4,2,2,70,0,1
63266,-100,4,2,1,70,0,1
71204,-100,4,2,1,70,0,0
75204,-100,4,2,1,70,0,1
80704,-133.333333333333,4,2,1,70,0,1
81204,-100,4,2,1,70,0,0
88954,-133.333333333333,4,2,1,50,0,0
89204,-133.333333333333,4,2,1,20,0,0

[HitObjects]
248,192,1204,6,0,P|212:152|92:152,1,170,4|8,0:0|0:0,0:0:0:0:
384,188,1579,2,0,P|352:244|344:284,1,85
192,328,1829,2,0,P|168:292|154:252,1,85,0|8,0:0|0:0,0:0:0:0:
300,72,2079,1,0,0:0:0:0:
192,48,2204,6,0,L|96:44,1,85
84,156,2454,2,0,L|0:159,1,85,8|0,0:0|0:0,0:0:0:0:
212,348,2704,2,0,P|236:300|220:252,1,85
104,240,2954,2,0,P|80:288|96:336,1,85,8|0,0:0|0:0,0:0:0:0:
232,160,3204,6,0,B|352:144|352:144|300:128,1,170,4|8,0:0|0:0,0:0:0:0:
124,84,3579,2,0,L|112:192,1,85
252,184,3829,2,0,L|264:292,1,85,0|8,0:0|0:0,0:0:0:0:
104,64,4079,1,0,0:0:0:0:
240,60,4204,6,0,P|304:40|340:20,1,85
512,160,4454,2,0,P|448:140|412:120,1,85,8|0,0:0|0:0,0:0:0:0:
261,268,4704,2,0,P|299:250|340:240,1,85
240,360,4891,1,0,0:0:0:0:
240,360,4954,6,0,P|188:328|248:352,1,191.250007295609,8|0,0:0|0:0,0:0:0:0:
112,380,5204,6,0,P|100:328|116:280,1,85,4|0,0:0|0:0,0:0:0:0:
64,164,5454,2,0,P|116:152|164:168,1,85,8|0,0:0|0:0,0:0:0:0:
252,232,5704,2,0,L|260:128,1,85,2|0,0:0|0:0,0:0:0:0:
268,40,5954,1,8,0:0:0:0:
268,40,6079,1,0,0:0:0:0:
344,316,6204,6,0,L|336:212,1,85,2|0,0:0|0:0,0:0:0:0:
372,152,6454,2,0,L|365:236,1,85,8|0,0:0|0:0,0:0:0:0:
248,336,6704,2,0,P|204:300|160:292,1,85,2|0,0:0|0:0,0:0:0:0:
60,308,6954,6,0,P|16:260|68:160,1,191.250007295609,8|0,0:0|0:0,0:0:0:0:
160,140,7204,5,4,0:0:0:0:
264,212,7329,1,0,0:0:0:0:
248,336,7454,1,8,0:0:0:0:
284,192,7579,1,0,0:0:0:0:
284,192,7704,2,0,P|300:144|324:96,1,85,2|0,0:0|0:0,0:0:0:0:
416,16,7954,2,0,P|433:54|446:95,1,85,8|0,0:0|0:0,0:0:0:0:
228,104,8204,6,0,L|316:96,1,85,2|0,0:0|0:0,0:0:0:0:
60,24,8454,2,0,L|144:31,1,85,8|0,0:0|0:0,0:0:0:0:
120,196,8704,2,0,L|136:136,3,42.5,2|0|0|0,0:0|0:0|0:0|0:0,0:0:0:0:
132,220,8954,6,0,P|200:176|280:256,1,191.250007295609,8|0,0:0|0:0,0:0:0:0:
292,340,9204,6,0,L|300:220,1,85,4|0,0:0|0:0,0:0:0:0:
400,104,9454,2,0,P|400:152|408:192,1,85,8|0,0:0|0:0,0:0:0:0:
256,100,9704,2,0,P|216:56|160:48,1,85,2|0,0:0|0:0,0:0:0:0:
84,216,9954,2,0,P|124:260|180:268,1,85,8|0,0:0|0:0,0:0:0:0:
340,256,10204,5,2,0:0:0:0:
200,172,10329,1,0,0:0:0:0:
360,276,10454,1,8,0:0:0:0:
300,32,10579,1,0,0:0:0:0:
296,308,10704,2,0,L|396:292,1,85,2|0,0:0|0:0,0:0:0:0:
220,248,10954,6,0,P|192:300|72:272,1,191.250007295609,8|0,0:0|0:0,0:0:0:0:
40,192,11204,5,4,0:0:0:0:
168,84,11329,1,0,0:0:0:0:
24,68,11454,1,10,0:0:0:0:
184,68,11579,1,0,0:0:0:0:
20,212,11704,1,10,0:0:0:0:
204,48,11829,1,0,0:0:0:0:
432,160,11954,2,0,P|380:168|320:192,1,85,10|0,0:0|0:0,0:0:0:0:
256,300,12204,6,0,L|240:200,1,85,10|0,0:0|0:0,0:0:0:0:
104,136,12454,2,0,L|117:219,1,85,10|0,0:0|0:0,0:0:0:0:
200,72,12704,1,8,0:0:0:0:
240,48,12766,1,8,0:0:0:0:
288,44,12829,1,8,0:0:0:0:
332,56,12891,1,8,0:0:0:0:
368,84,12954,1,8,0:0:0:0:
392,124,13016,1,8,0:0:0:0:
404,168,13079,1,8,0:0:0:0:
400,216,13141,1,8,0:0:0:0:
384,260,13204,6,0,P|360:216|248:192,1,170,4|8,0:0|0:0,0:0:0:0:
136,380,13579,1,0,0:0:0:0:
76,264,13704,2,0,L|80:176,1,85,2|0,0:0|0:0,0:0:0:0:
136,20,13954,2,0,P|164:68|212:92,1,85,8|0,0:0|0:0,0:0:0:0:
320,48,14204,6,0,P|364:24|484:88,1,170,2|8,0:0|0:0,0:0:0:0:
384,320,14579,1,0,0:0:0:0:
380,200,14704,2,0,P|384:144|396:96,1,85,2|0,0:0|0:0,0:0:0:0:
256,280,14954,2,0,P|263:321|266:364,1,85,8|0,0:0|0:0,0:0:0:0:
152,180,15204,5,2,0:0:0:0:
112,300,15329,1,0,0:0:0:0:
16,128,15454,1,8,0:0:0:0:
88,316,15579,1,0,0:0:0:0:
172,160,15704,1,2,0:0:0:0:
266,364,15829,1,0,0:0:0:0:
404,164,15954,2,0,P|360:132|316:120,1,85,8|0,0:0|0:0,0:0:0:0:
192,140,16204,6,0,P|272:136|368:80,2,170,2|8|2,0:0|0:0|0:0,0:0:0:0:
0,72,16829,1,0,0:0:0:0:
112,28,16954,1,8,0:0:0:0:
94,146,17079,1,0,0:0:0:0:
240,288,17204,5,4,0:0:0:0:
192,140,17329,1,0,0:0:0:0:
84,352,17454,1,8,0:0:0:0:
260,308,17579,1,0,0:0:0:0:
16,240,17704,6,0,L|120:224,1,85
280,328,17954,1,8,0:0:0:0:
36,220,18079,6,0,P|88:188|120:148,1,85,8|0,0:0|0:0,0:0:0:0:
304,348,18329,1,8,0:0:0:0:
60,196,18454,6,0,P|80:148|76:112,1,85,10|0,0:0|0:0,0:0:0:0:
288,32,18704,2,0,L|192:12,1,85,8|0,0:0|0:0,0:0:0:0:
256,200,18954,2,0,L|339:217,1,85,8|0,0:0|0:0,0:0:0:0:
484,136,19204,5,4,0:0:0:0:
320,236,19329,1,0,0:0:0:0:
472,320,19454,1,10,0:0:0:0:
368,100,19579,1,0,0:0:0:0:
472,320,19704,1,2,0:0:0:0:
368,100,19829,1,0,0:0:0:0:
256,368,19954,2,0,L|148:360,1,85,10|0,0:0|0:0,0:0:0:0:
20,152,20204,5,2,0:0:0:0:
160,224,20329,1,0,0:0:0:0:
27,309,20454,1,10,0:0:0:0:
84,96,20579,1,0,0:0:0:0:
171,361,20704,1,2,0:0:0:0:
84,96,20829,1,0,0:0:0:0:
360,252,20954,2,0,L|256:268,1,85,10|0,0:0|0:0,0:0:0:0:
444,136,21204,5,8,0:0:0:0:
444,136,21329,1,8,0:0:0:0:
444,136,21454,1,8,0:0:0:0:
296,96,21704,1,0,0:0:0:0:
256,244,21954,1,0,0:0:0:0:
404,284,22204,1,0,0:0:0:0:
212,116,22454,6,0,P|168:140|120:148,1,85
48,72,22704,2,0,L|60:264,1,170
140,40,23204,5,8,0:0:0:0:
140,40,23329,1,8,0:0:0:0:
140,40,23454,1,8,0:0:0:0:
232,136,23704,1,0,0:0:0:0:
324,40,23954,1,0,0:0:0:0:
416,136,24204,6,0,B|432:176|432:176|415:232,1,85,2|0,0:0|0:0,0:0:0:0:
268,243,24454,2,0,B|252:203|252:203|269:147,1,85,2|0,0:0|0:0,0:0:0:0:
60,337,24704,1,2,0:0:0:0:
172,254,24829,1,0,0:0:0:0:
237,384,24954,1,2,0:0:0:0:
45,196,25079,1,0,0:0:0:0:
45,196,25141,1,0,0:0:0:0:
45,196,25204,6,0,P|94:188|137:171,1,85,4|0,0:0|0:0,0:0:0:0:
212,116,25454,2,0,P|171:102|129:95,1,85,8|0,0:0|0:0,0:0:0:0:
256,216,25704,1,2,0:0:0:0:
292,56,25829,1,0,0:0:0:0:
276,236,25954,2,0,P|292:292|312:328,1,85,8|0,0:0|0:0,0:0:0:0:
448,240,26204,6,0,P|396:216|292:260,1,170,2|8,0:0|0:0,0:0:0:0:
184,360,26579,2,0,L|168:184,1,170
132,32,26954,1,8,0:0:0:0:
12,112,27079,1,0,0:0:0:0:
152,12,27204,6,0,L|248:24,1,85,2|0,0:0|0:0,0:0:0:0:
408,64,27454,2,0,P|360:96|340:136,1,85,8|0,0:0|0:0,0:0:0:0:
432,256,27704,2,0,P|443:199|429:157,1,85,2|0,0:0|0:0,0:0:0:0:
216,280,27954,1,8,0:0:0:0:
324,204,28079,1,0,0:0:0:0:
205,149,28204,6,0,P|148:188|40:172,1,170,2|8,0:0|0:0,0:0:0:0:
304,224,28579,1,0,0:0:0:0:
112,76,28704,1,2,0:0:0:0:
264,28,28829,1,0,0:0:0:0:
416,76,28954,1,8,0:0:0:0:
489,217,29079,1,0,0:0:0:0:
440,368,29204,6,0,P|392:296|304:308,1,170,2|8,0:0|0:0,0:0:0:0:
228,364,29579,2,0,L|216:264,1,85,0|2,0:0|0:0,0:0:0:0:
107,92,29829,2,0,P|99:148|79:188,1,85,0|8,0:0|0:0,0:0:0:0:
199,34,30079,1,0,0:0:0:0:
3,212,30204,6,0,P|47:260|151:244,1,170,2|8,0:0|0:0,0:0:0:0:
195,147,30579,2,0,L|386:128,1,170
431,207,30954,1,8,0:0:0:0:
342,30,31079,1,0,0:0:0:0:
347,361,31204,6,0,L|354:263,1,85,2|0,0:0|0:0,0:0:0:0:
316,218,31454,2,0,L|322:302,1,85,8|0,0:0|0:0,0:0:0:0:
209,370,31704,2,0,L|202:272,1,85,2|0,0:0|0:0,0:0:0:0:
123,114,31954,2,0,L|116:198,1,85,8|0,0:0|0:0,0:0:0:0:
268,76,32204,5,10,0:0:0:0:
140,136,32329,1,8,0:0:0:0:
316,192,32454,5,10,0:0:0:0:
120,16,32579,1,8,0:0:0:0:
316,192,32704,1,10,0:0:0:0:
44,296,32829,6,8,L|39:235,5,42.5,8|8|10|8|8|8,0:0|0:0|0:0|0:0|0:0|0:0,0:0:0:0:
36,210,33204,6,0,P|67:267|147:279,1,127.500004863739,4|0,0:0|0:0,0:0:0:0:
260,192,33704,2,0,L|256:268,1,63.7500024318696,8|0,0:0|0:0,0:0:0:0:
356,124,33954,2,0,L|360:200,1,63.7500024318696,8|0,0:0|0:0,0:0:0:0:
240,172,34204,6,0,L|248:320,2,127.500004863739,8|0|0,0:0|0:0|0:0,0:0:0:0:
116,104,34954,1,8,0:0:0:0:
220,152,35079,1,8,0:0:0:0:
96,128,35204,6,0,P|48:132|12:56,1,127.500004863739,8|0,0:0|0:0,0:0:0:0:
200,48,35704,2,0,L|288:32,1,63.7500024318696,8|0,0:0|0:0,0:0:0:0:
352,132,35954,2,0,L|289:143,1,63.7500024318696,8|0,0:0|0:0,0:0:0:0:
180,28,36204,6,0,L|328:56,2,127.500004863739,8|0|0,0:0|0:0|0:0,0:0:0:0:
172,252,36829,1,0,0:0:0:0:
180,248,36891,1,0,0:0:0:0:
188,244,36954,1,0,0:0:0:0:
196,240,37016,1,0,0:0:0:0:
234,267,37078,1,0,0:0:0:0:
281,276,37141,1,0,0:0:0:0:
327,265,37204,6,0,P|400:240|496:296,1,170,4|8,0:0|0:0,0:0:0:0:
237,351,37579,2,0,P|234:303|234:258,1,85,0|2,0:0|0:0,0:0:0:0:
366,108,37829,2,0,P|323:108|281:111,2,85,0|8|0,0:0|0:0|0:0,0:0:0:0:
76,162,38204,6,0,L|81:62,1,85,2|0,0:0|0:0,0:0:0:0:
208,160,38454,2,0,L|212:244,1,85,8|0,0:0|0:0,0:0:0:0:
8,296,38704,2,0,P|40:256|96:244,1,85,2|0,0:0|0:0,0:0:0:0:
232,264,38954,2,0,P|284:296|360:288,1,127.5,8|0,0:0|0:0,0:0:0:0:
424,224,39204,5,2,0:0:0:0:
312,192,39329,1,0,0:0:0:0:
460,104,39454,1,8,0:0:0:0:
292,172,39579,1,0,0:0:0:0:
456,328,39704,2,0,P|449:276|441:224,1,85,2|0,0:0|0:0,0:0:0:0:
284,64,39954,2,0,P|278:106|272:148,1,85,8|0,0:0|0:0,0:0:0:0:
156,328,40204,5,2,0:0:0:0:
112,204,40329,1,0,0:0:0:0:
176,348,40454,1,8,0:0:0:0:
192,120,40579,1,0,0:0:0:0:
0,192,40704,1,2,0:0:0:0:
192,364,40829,1,0,0:0:0:0:
192,364,40891,1,0,0:0:0:0:
192,364,40954,1,8,0:0:0:0:
216,324,41016,1,0,0:0:0:0:
256,300,41079,1,0,0:0:0:0:
304,296,41141,1,0,0:0:0:0:
344,320,41204,6,0,P|360:264|368:224,1,85,2|0,0:0|0:0,0:0:0:0:
212,100,41454,2,0,P|221:141|233:182,1,85,8|0,0:0|0:0,0:0:0:0:
192,364,41704,2,0,P|148:340|104:344,1,85,2|0,0:0|0:0,0:0:0:0:
8,180,41954,2,0,L|0:284,1,85,8|0,0:0|0:0,0:0:0:0:
120,92,42204,6,0,P|152:32|252:16,1,170,2|8,0:0|0:0,0:0:0:0:
420,216,42579,1,0,0:0:0:0:
432,104,42704,2,0,L|440:16,1,85,2|0,0:0|0:0,0:0:0:0:
304,140,42954,2,0,L|311:224,1,85,8|0,0:0|0:0,0:0:0:0:
216,380,43204,6,0,P|200:324|172:284,1,85,2|0,0:0|0:0,0:0:0:0:
0,284,43454,2,0,P|50:312|98:320,1,85,8|0,0:0|0:0,0:0:0:0:
188,176,43704,2,0,P|132:192|92:219,1,85,2|0,0:0|0:0,0:0:0:0:
331,244,43954,2,0,L|324:160,1,85,8|0,0:0|0:0,0:0:0:0:
440,16,44204,6,0,L|436:196,1,170,2|8,0:0|0:0,0:0:0:0:
344,140,44579,1,0,0:0:0:0:
496,280,44704,1,8,0:0:0:0:
496,280,44766,1,8,0:0:0:0:
496,280,44829,1,8,0:0:0:0:
392,376,44954,1,8,0:0:0:0:
288,280,45079,1,8,0:0:0:0:
184,376,45204,6,0,L|176:276,1,85,4|0,0:0|0:0,0:0:0:0:
164,188,45454,2,0,L|157:272,1,85,8|0,0:0|0:0,0:0:0:0:
288,280,45704,2,0,L|296:180,1,85,2|0,0:0|0:0,0:0:0:0:
308,92,45954,2,0,L|314:176,1,85,8|0,0:0|0:0,0:0:0:0:
172,80,46204,6,0,P|136:48|12:72,1,170,2|8,0:0|0:0,0:0:0:0:
76,232,46579,2,0,P|82:186|87:125,2,85,0|2|0,0:0|0:0|0:0,0:0:0:0:
212,289,46954,2,0,P|215:331|221:373,1,85,8|0,0:0|0:0,0:0:0:0:
398,182,47204,6,0,L|313:176,1,85,2|0,0:0|0:0,0:0:0:0:
485,105,47454,1,8,0:0:0:0:
485,105,47579,1,0,0:0:0:0:
372,288,47704,2,0,L|377:203,1,85,2|0,0:0|0:0,0:0:0:0:
449,375,47954,1,8,0:0:0:0:
449,375,48079,1,0,0:0:0:0:
268,308,48204,6,0,L|352:313,1,85,2|0,0:0|0:0,0:0:0:0:
88,368,48454,1,8,0:0:0:0:
248,288,48579,1,0,0:0:0:0:
52,220,48704,1,2,0:0:0:0:
168,20,48829,1,0,0:0:0:0:
175,47,48891,1,0,0:0:0:0:
182,75,48954,1,8,0:0:0:0:
187,103,49016,1,0,0:0:0:0:
190,131,49079,1,0,0:0:0:0:
192,159,49141,1,0,0:0:0:0:
192,187,49204,6,0,L|284:160,1,85,2|0,0:0|0:0,0:0:0:0:
448,148,49454,2,0,P|408:192|392:244,1,85,8|0,0:0|0:0,0:0:0:0:
300,352,49704,2,0,L|292:164,1,170,2|8,0:0|0:0,0:0:0:0:
144,68,50204,6,0,P|135:118|110:161,1,85,2|0,0:0|0:0,0:0:0:0:
15,268,50454,2,0,L|122:299,1,85,8|0,0:0|0:0,0:0:0:0:
312,160,50704,2,0,L|132:168,1,170,2|0,0:0|0:0,0:0:0:0:
446,263,51204,6,0,P|414:215|510:135,1,208.249993644715,4|0,0:0|0:0,0:0:0:0:
446,263,51704,6,0,P|406:235|510:203,1,238,4|0,0:0|0:0,0:0:0:0:
446,263,52204,6,0,P|398:251|478:235,1,267.749991828919,4|0,0:0|0:0,0:0:0:0:
446,263,52704,6,0,P|382:287|450:251,1,297.5,4|0,0:0|0:0,0:0:0:0:
344,384,53204,6,0,P|292:348|536:312,1,680,4|8,0:0|0:0,0:0:0:0:
200,363,54704,5,8,0:0:0:0:
181,325,54766,1,8,0:0:0:0:
169,284,54829,1,8,0:0:0:0:
165,241,54891,1,8,0:0:0:0:
170,199,54954,1,8,0:0:0:0:
182,159,55016,1,8,0:0:0:0:
201,121,55079,1,8,0:0:0:0:
227,87,55141,1,8,0:0:0:0:
259,59,55204,6,0,P|170:38|76:36,1,170,4|8,0:0|0:0,0:0:0:0:
165,241,55579,1,0,0:0:0:0:
165,241,55704,2,0,P|223:224|277:219,1,85,2|0,0:0|0:0,0:0:0:0:
416,294,55954,2,0,L|412:194,1,85,8|0,0:0|0:0,0:0:0:0:
268,240,56204,5,2,0:0:0:0:
432,104,56329,1,0,0:0:0:0:
264,8,56454,2,0,P|204:40|168:48,1,85,8|0,0:0|0:0,0:0:0:0:
60,216,56704,2,0,L|48:120,1,85,2|0,0:0|0:0,0:0:0:0:
248,260,56954,2,0,L|237:344,1,85,8|0,0:0|0:0,0:0:0:0:
416,176,57204,5,2,0:0:0:0:
228,280,57329,1,0,0:0:0:0:
264,128,57454,1,8,0:0:0:0:
380,328,57579,1,0,0:0:0:0:
440,72,57704,2,0,L|352:56,1,85,2|0,0:0|0:0,0:0:0:0:
168,180,57954,2,0,P|228:156|260:132,1,85,8|0,0:0|0:0,0:0:0:0:
64,96,58204,6,0,P|32:136|48:256,2,170,2|8|2,0:0|0:0|0:0,0:0:0:0:
304,76,58829,1,0,0:0:0:0:
164,16,58954,1,8,0:0:0:0:
324,56,59079,1,0,0:0:0:0:
168,180,59204,5,4,0:0:0:0:
400,264,59329,1,0,0:0:0:0:
148,200,59454,1,8,0:0:0:0:
420,284,59579,5,0,0:0:0:0:
148,368,59704,1,10,0:0:0:0:
440,304,59829,1,0,0:0:0:0:
284,96,59954,5,8,0:0:0:0:
168,348,60079,1,0,0:0:0:0:
20,164,60204,2,0,B|156:176|156:176|196:156,1,170,6|8,0:0|0:0,0:0:0:0:
280,11,60579,5,0,0:0:0:0:
280,11,60704,2,0,L|284:119,1,85,8|0,0:0|0:0,0:0:0:0:
368,300,60954,2,0,L|371:215,1,85,8|0,0:0|0:0,0:0:0:0:
128,32,61204,5,14,0:0:0:0:
184,168,61329,1,0,0:0:0:0:
283,95,61454,1,10,0:0:0:0:
301,240,61579,1,0,0:0:0:0:
416,195,61704,1,10,0:0:0:0:
396,340,61829,1,0,0:0:0:0:
216,236,61954,1,10,0:0:0:0:
234,381,62079,1,0,0:0:0:0:
52,195,62204,5,8,0:0:0:0:
84,164,62266,1,8,0:0:0:0:
128,148,62329,1,8,0:0:0:0:
176,152,62391,1,8,0:0:0:0:
216,180,62454,1,8,0:0:0:0:
248,212,62516,1,8,0:0:0:0:
292,232,62579,1,8,0:0:0:0:
340,236,62641,1,8,0:0:0:0:
380,212,62704,5,8,0:0:0:0:
374,192,62766,1,8,0:0:0:0:
369,172,62829,1,8,0:0:0:0:
365,152,62891,1,8,0:0:0:0:
360,132,62954,1,8,0:0:0:0:
357,112,63016,1,8,0:0:0:0:
353,92,63079,1,8,0:0:0:0:
351,72,63141,1,8,0:0:0:0:
348,52,63204,6,0,P|304:16|184:32,1,170,4|8,0:0|0:0,0:0:0:0:
108,176,63579,1,0,0:0:0:0:
108,176,63704,2,0,P|104:128|96:72,1,85,2|0,0:0|0:0,0:0:0:0:
0,304,63954,2,0,P|48:300|104:292,1,85,8|0,0:0|0:0,0:0:0:0:
280,140,64204,5,2,0:0:0:0:
336,356,64329,1,0,0:0:0:0:
300,120,64454,2,0,P|308:56|308:24,1,85,8|0,0:0|0:0,0:0:0:0:
188,260,64704,2,0,L|280:252,1,85,2|0,0:0|0:0,0:0:0:0:
404,104,64954,2,0,L|312:96,1,85,8|0,0:0|0:0,0:0:0:0:
44,224,65204,5,2,0:0:0:0:
208,132,65329,1,0,0:0:0:0:
24,204,65454,1,8,0:0:0:0:
112,24,65579,1,0,0:0:0:0:
168,280,65704,2,0,P|208:304|260:320,1,85,2|0,0:0|0:0,0:0:0:0:
440,192,65954,2,0,P|400:216|348:232,1,85,8|0,0:0|0:0,0:0:0:0:
196,124,66204,6,0,P|280:108|320:24,2,170,2|8|2,0:0|0:0|0:0,0:0:0:0:
52,32,66829,1,0,0:0:0:0:
176,144,66954,1,8,0:0:0:0:
17,195,67079,1,0,0:0:0:0:
220,24,67204,5,4,0:0:0:0:
266,285,67329,1,0,0:0:0:0:
36,176,67454,1,10,0:0:0:0:
352,140,67579,5,0,0:0:0:0:
56,156,67704,1,10,0:0:0:0:
372,160,67829,1,0,0:0:0:0:
172,332,67954,5,10,0:0:0:0:
240,44,68079,1,0,0:0:0:0:
196,356,68204,2,0,P|220:304|348:280,1,170,10|10,0:0|0:0,0:0:0:0:
456,360,68579,5,0,0:0:0:0:
456,360,68704,2,0,L|452:256,1,85,10|0,0:0|0:0,0:0:0:0:
352,52,68954,2,0,L|348:136,1,85,10|0,0:0|0:0,0:0:0:0:
84,240,69204,5,10,0:0:0:0:
208,132,69329,1,0,0:0:0:0:
84,240,69454,1,10,0:0:0:0:
300,220,69579,1,0,0:0:0:0:
4,136,69704,1,10,0:0:0:0:
300,220,69829,1,0,0:0:0:0:
136,16,69954,1,10,0:0:0:0:
184,368,70079,1,0,0:0:0:0:
276,112,70204,6,0,L|280:204,2,85,4|0|8,0:0|0:0|0:0,0:0:0:0:
460,176,70579,1,0,0:0:0:0:
460,176,70704,2,0,L|456:268,2,85,8|0|8,0:0|0:0|0:0,0:0:0:0:
256,92,71079,1,0,0:0:0:0:
256,92,71204,6,0,L|248:276,1,170,4|8,0:0|0:0,0:0:0:0:
96,136,71579,1,0,0:0:0:0:
96,136,71704,1,0,0:0:0:0:
96,136,71829,1,0,0:0:0:0:
236,72,71954,2,0,L|328:60,1,85,8|0,0:0|0:0,0:0:0:0:
496,88,72204,6,0,P|444:120|416:232,1,170,0|8,0:0|0:0,0:0:0:0:
304,372,72579,1,0,0:0:0:0:
304,372,72704,1,0,0:0:0:0:
304,372,72829,1,0,0:0:0:0:
244,200,72954,2,0,P|208:168|156:156,1,85,8|0,0:0|0:0,0:0:0:0:
88,244,73204,6,0,L|88:40,1,170,0|8,0:0|0:0,0:0:0:0:
264,176,73579,1,0,0:0:0:0:
264,176,73704,1,0,0:0:0:0:
264,176,73829,1,0,0:0:0:0:
372,96,73954,2,0,L|472:88,1,85,8|0,0:0|0:0,0:0:0:0:
339,308,74204,6,0,P|295:284|271:156,2,170,0|8|0,0:0|0:0|0:0,0:0:0:0:
364,204,74829,1,0,0:0:0:0:
184,356,74954,1,8,0:0:0:0:
166,354,75016,1,8,0:0:0:0:
148,353,75079,1,8,0:0:0:0:
130,351,75141,1,8,0:0:0:0:
112,348,75204,6,0,P|108:260|101:176,1,170,4|8,0:0|0:0,0:0:0:0:
55,30,75579,2,0,P|106:34|154:33,1,85,0|2,0:0|0:0,0:0:0:0:
235,194,75829,2,0,P|235:151|238:109,2,85,0|8|0,0:0|0:0|0:0,0:0:0:0:
357,150,76204,6,0,P|386:100|514:90,2,170,2|8|2,0:0|0:0|0:0,0:0:0:0:
478,324,76829,1,0,0:0:0:0:
453,170,76954,1,8,0:0:0:0:
460,344,77079,1,0,0:0:0:0:
305,263,77204,6,0,P|260:236|208:224,1,85,2|0,0:0|0:0,0:0:0:0:
24,292,77454,2,0,P|64:278|99:255,1,85,8|0,0:0|0:0,0:0:0:0:
212,96,77704,2,0,P|171:109|136:132,1,85,2|0,0:0|0:0,0:0:0:0:
180,344,77954,2,0,P|215:366|255:380,1,85,8|0,0:0|0:0,0:0:0:0:
460,200,78204,5,2,0:0:0:0:
360,312,78329,1,0,0:0:0:0:
360,108,78454,1,8,0:0:0:0:
512,280,78579,1,0,0:0:0:0:
484,16,78704,1,2,0:0:0:0:
240,196,78829,2,0,L|332:188,2,85,0|8|0,0:0|0:0|0:0,0:0:0:0:
112,96,79204,5,4,0:0:0:0:
112,96,79329,1,0,0:0:0:0:
112,96,79454,2,0,B|104:204|104:204|72:136,1,170,8|2,0:0|0:0,0:0:0:0:
240,8,79829,5,8,0:0:0:0:
240,8,79891,1,8,0:0:0:0:
240,8,79954,2,8,L|244:64,3,42.5,8|8|8|8,0:0|0:0|0:0|0:0,0:0:0:0:
376,72,80204,2,8,L|372:128,3,42.5
200,144,80454,2,8,L|204:200,3,42.5
376,264,80704,5,4,0:0:0:0:
100,192,81204,6,0,L|200:208,1,85,4|0,0:0|0:0,0:0:0:0:
380,68,81454,2,0,P|316:92|288:120,1,85,8|0,0:0|0:0,0:0:0:0:
348,328,81704,2,0,L|356:232,1,85,2|0,0:0|0:0,0:0:0:0:
196,96,81954,2,0,L|203:180,1,85,8|0,0:0|0:0,0:0:0:0:
120,328,82204,6,0,P|184:352|212:380,1,85,2|0,0:0|0:0,0:0:0:0:
80,172,82454,2,0,P|16:196|-12:224,1,85,8|0,0:0|0:0,0:0:0:0:
156,48,82704,1,2,0:0:0:0:
184,200,82829,1,0,0:0:0:0:
336,124,82954,1,8,0:0:0:0:
308,276,83079,1,0,0:0:0:0:
454,225,83204,6,0,L|456:336,1,85,2|0,0:0|0:0,0:0:0:0:
308,276,83454,2,0,P|292:220|272:184,1,85,8|0,0:0|0:0,0:0:0:0:
384,20,83704,2,0,P|366:58|355:99,1,85,2|0,0:0|0:0,0:0:0:0:
328,296,83954,1,8,0:0:0:0:
168,176,84079,1,0,0:0:0:0:
96,352,84204,6,0,P|52:328|0:316,1,85,2|0,0:0|0:0,0:0:0:0:
216,308,84454,1,8,0:0:0:0:
192,156,84579,1,8,0:0:0:0:
192,156,84641,1,8,0:0:0:0:
192,156,84704,1,10,0:0:0:0:
236,328,84829,1,8,0:0:0:0:
272,96,84954,1,8,0:0:0:0:
54,181,85079,1,8,0:0:0:0:
260,348,85204,6,0,L|364:332,1,85,4|0,0:0|0:0,0:0:0:0:
504,272,85454,2,0,P|460:252|416:212,1,85,8|0,0:0|0:0,0:0:0:0:
292,116,85704,2,0,L|308:220,1,85,2|0,0:0|0:0,0:0:0:0:
100,96,85954,1,8,0:0:0:0:
228,20,86079,1,0,0:0:0:0:
208,304,86204,6,0,P|172:252|172:200,1,85,2|0,0:0|0:0,0:0:0:0:
372,120,86454,2,0,P|408:172|408:224,1,85,8|0,0:0|0:0,0:0:0:0:
248,40,86704,2,0,L|348:28,1,85,2|0,0:0|0:0,0:0:0:0:
152,128,86954,2,0,L|52:116,1,85,8|0,0:0|0:0,0:0:0:0:
296,320,87204,5,2,0:0:0:0:
256,156,87329,1,0,0:0:0:0:
316,340,87454,2,0,P|364:320|400:316,1,85,8|0,0:0|0:0,0:0:0:0:
484,164,87704,2,0,P|436:144|400:140,1,85,2|0,0:0|0:0,0:0:0:0:
240,48,87954,2,0,L|236:152,1,85,8|0,0:0|0:0,0:0:0:0:
72,300,88204,5,2,0:0:0:0:
104,268,88266,1,0,0:0:0:0:
148,256,88329,1,0,0:0:0:0:
192,264,88391,1,0,0:0:0:0:
228,296,88454,1,8,0:0:0:0:
264,328,88516,1,0,0:0:0:0:
308,340,88579,1,0,0:0:0:0:
356,336,88641,1,0,0:0:0:0:
392,304,88704,1,2,0:0:0:0:
412,260,88766,1,0,0:0:0:0:
400,216,88829,1,0,0:0:0:0:
368,184,88891,1,0,0:0:0:0:
316,176,88954,6,0,L|444:156,1,127.500004863739,8|0,0:0|0:0,0:0:0:0:
