osu file format v14

[General]
AudioFilename: audio.mp3
AudioLeadIn: 0
PreviewTime: 171244
Countdown: 1
SampleSet: Normal
StackLeniency: 0.7
Mode: 3
LetterboxInBreaks: 0
SpecialStyle: 0
WidescreenStoryboard: 0

[Editor]
DistanceSpacing: 0.9
BeatDivisor: 4
GridSize: 4
TimelineZoom: 2.899999

[Metadata]
Title:Los! Los! Los!
TitleUnicode:Los! Los! Los!
Artist:Tanya Degurechaff (CV: Aoi Yuuki)
ArtistUnicode:ターニャ・デグレチャフ(CV:悠木碧)
Creator:Valentrixe
Version:Insane
Source:幼女戦記
Tags:
BeatmapID:1272308
BeatmapSetID:602343

[Difficulty]
HPDrainRate:5
CircleSize:4
OverallDifficulty:5
ApproachRate:5
SliderMultiplier:1.4
SliderTickRate:1

[Events]
//Background and Video events
0,0,"sick_loli.png",0,0
//Break Periods
2,24740,210090
//Storyboard Layer 0 (Background)
//Storyboard Layer 1 (Fail)
//Storyboard Layer 2 (Pass)
//Storyboard Layer 3 (Foreground)
//Storyboard Sound Samples

[TimingPoints]
540,250,4,1,1,30,1,0
12540,-100,4,1,1,30,0,1
20540,-100,4,1,1,30,0,0
54540,-100,4,1,1,30,0,1
70540,-100,4,1,1,30,0,0
119540,-100,4,1,1,30,0,1
135540,-100,4,1,1,30,0,0
171540,-100,4,1,1,30,0,1
187540,-100,4,1,1,30,0,0

[HitObjects]
64,192,540,5,0,0:0:0:0:
192,192,540,1,0,0:0:0:0:
320,192,540,1,0,0:0:0:0:
448,192,665,1,0,0:0:0:0:
320,192,790,1,0,0:0:0:0:
448,192,915,1,0,0:0:0:0:
320,192,1040,1,0,0:0:0:0:
192,192,1040,1,0,0:0:0:0:
448,192,1165,1,0,0:0:0:0:
320,192,1290,1,0,0:0:0:0:
64,192,1290,1,0,0:0:0:0:
448,192,1415,1,0,0:0:0:0:
320,192,1540,1,0,0:0:0:0:
448,192,1665,1,0,0:0:0:0:
320,192,1790,1,0,0:0:0:0:
448,192,1915,1,0,0:0:0:0:
320,192,2040,1,0,0:0:0:0:
192,192,2040,1,0,0:0:0:0:
64,192,2290,1,0,0:0:0:0:
448,192,2290,1,0,0:0:0:0:
192,192,2540,1,0,0:0:0:0:
320,192,2540,1,0,0:0:0:0:
448,192,2540,1,0,0:0:0:0:
64,192,2665,1,0,0:0:0:0:
192,192,2790,1,0,0:0:0:0:
64,192,2915,1,0,0:0:0:0:
192,192,3040,1,0,0:0:0:0:
448,192,3040,1,0,0:0:0:0:
64,192,3165,1,0,0:0:0:0:
192,192,3290,1,0,0:0:0:0:
320,192,3290,1,0,0:0:0:0:
64,192,3415,1,0,0:0:0:0:
192,192,3540,1,0,0:0:0:0:
448,192,3540,1,0,0:0:0:0:
64,192,3665,1,0,0:0:0:0:
320,192,3790,1,0,0:0:0:0:
448,192,3790,1,0,0:0:0:0:
64,192,3915,1,0,0:0:0:0:
192,192,4040,1,0,0:0:0:0:
320,192,4040,1,0,0:0:0:0:
64,192,4165,1,0,0:0:0:0:
192,192,4290,1,0,0:0:0:0:
448,192,4290,1,0,0:0:0:0:
64,192,4415,1,0,0:0:0:0:
192,192,4540,1,0,0:0:0:0:
320,192,4540,1,0,0:0:0:0:
448,192,4540,1,0,0:0:0:0:
64,192,4665,1,0,0:0:0:0:
320,192,4790,1,0,0:0:0:0:
192,192,4790,1,0,0:0:0:0:
64,192,4915,1,0,0:0:0:0:
320,192,5040,1,0,0:0:0:0:
448,192,5040,1,0,0:0:0:0:
64,192,5165,1,0,0:0:0:0:
192,192,5290,1,0,0:0:0:0:
448,192,5290,1,0,0:0:0:0:
320,192,5415,1,0,0:0:0:0:
192,192,5540,1,0,0:0:0:0:
64,192,5540,1,0,0:0:0:0:
320,192,5665,1,0,0:0:0:0:
448,192,5790,1,0,0:0:0:0:
192,192,5790,1,0,0:0:0:0:
64,192,5915,1,0,0:0:0:0:
192,192,6040,1,0,0:0:0:0:
320,192,6040,1,0,0:0:0:0:
64,192,6165,1,0,0:0:0:0:
320,192,6290,1,0,0:0:0:0:
448,192,6290,1,0,0:0:0:0:
192,192,6415,1,0,0:0:0:0:
320,192,6540,1,0,0:0:0:0:
64,192,6540,1,0,0:0:0:0:
448,192,6540,1,0,0:0:0:0:
192,192,6665,1,0,0:0:0:0:
64,192,6790,1,0,0:0:0:0:
448,192,6790,1,0,0:0:0:0:
320,192,6915,1,0,0:0:0:0:
448,192,7040,1,0,0:0:0:0:
192,192,7040,1,0,0:0:0:0:
64,192,7165,1,0,0:0:0:0:
320,192,7290,1,0,0:0:0:0:
448,192,7290,1,0,0:0:0:0:
64,192,7415,1,0,0:0:0:0:
192,192,7540,1,0,0:0:0:0:
320,192,7540,1,0,0:0:0:0:
448,192,7665,1,0,0:0:0:0:
320,192,7790,1,0,0:0:0:0:
64,192,7790,1,0,0:0:0:0:
448,192,7915,1,0,0:0:0:0:
320,192,8040,1,0,0:0:0:0:
192,192,8040,1,0,0:0:0:0:
448,192,8165,1,0,0:0:0:0:
320,192,8290,1,0,0:0:0:0:
64,192,8290,1,0,0:0:0:0:
192,192,8415,1,0,0:0:0:0:
320,192,8540,1,0,0:0:0:0:
448,192,8540,1,0,0:0:0:0:
64,192,8540,1,0,0:0:0:0:
192,192,8665,1,0,0:0:0:0:
64,192,8790,1,0,0:0:0:0:
448,192,8790,1,0,0:0:0:0:
320,192,8915,1,0,0:0:0:0:
192,192,9040,1,0,0:0:0:0:
64,192,9040,1,0,0:0:0:0:
320,192,9165,1,0,0:0:0:0:
448,192,9290,1,0,0:0:0:0:
64,192,9290,1,0,0:0:0:0:
192,192,9415,1,0,0:0:0:0:
320,192,9540,1,0,0:0:0:0:
448,192,9540,1,0,0:0:0:0:
192,192,9665,1,0,0:0:0:0:
64,192,9790,1,0,0:0:0:0:
320,192,9790,1,0,0:0:0:0:
448,192,9915,1,0,0:0:0:0:
192,192,10040,1,0,0:0:0:0:
320,192,10040,1,0,0:0:0:0:
448,192,10165,1,0,0:0:0:0:
320,192,10290,1,0,0:0:0:0:
192,192,10290,1,0,0:0:0:0:
64,192,10290,1,0,0:0:0:0:
448,192,10415,1,0,0:0:0:0:
64,192,10540,1,0,0:0:0:0:
192,192,10540,1,0,0:0:0:0:
448,192,10602,1,0,0:0:0:0:
320,192,10665,1,0,0:0:0:0:
192,192,10790,1,0,0:0:0:0:
448,192,10790,1,0,0:0:0:0:
64,192,10915,1,0,0:0:0:0:
320,192,11040,1,0,0:0:0:0:
448,192,11040,1,0,0:0:0:0:
64,192,11102,1,0,0:0:0:0:
192,192,11165,1,0,0:0:0:0:
320,192,11290,1,0,0:0:0:0:
448,192,11290,1,0,0:0:0:0:
64,192,11415,1,0,0:0:0:0:
320,192,11415,1,0,0:0:0:0:
192,192,11540,1,0,0:0:0:0:
64,192,11540,1,0,0:0:0:0:
192,192,11665,1,0,0:0:0:0:
448,192,11665,1,0,0:0:0:0:
320,192,11790,1,0,0:0:0:0:
448,192,11790,1,0,0:0:0:0:
64,192,11852,1,0,0:0:0:0:
320,192,11915,1,0,0:0:0:0:
192,192,12040,1,0,0:0:0:0:
448,192,12040,1,0,0:0:0:0:
64,192,12102,1,0,0:0:0:0:
320,192,12165,1,0,0:0:0:0:
192,192,12227,1,0,0:0:0:0:
64,192,12290,128,0,12352:0:0:0:0:
448,192,12290,1,0,0:0:0:0:
192,192,12352,128,0,12415:0:0:0:0:
320,192,12415,128,0,12477:0:0:0:0:
448,192,12477,128,0,12540:0:0:0:0:
64,192,12540,1,0,0:0:0:0:
192,192,12540,1,0,0:0:0:0:
320,192,12540,1,0,0:0:0:0:
320,192,12665,1,0,0:0:0:0:
448,192,12665,1,0,0:0:0:0:
64,192,12790,1,0,0:0:0:0:
192,192,12790,1,0,0:0:0:0:
448,192,12790,1,0,0:0:0:0:
320,192,12915,1,0,0:0:0:0:
192,192,13040,1,0,0:0:0:0:
64,192,13040,1,0,0:0:0:0:
192,192,13165,1,0,0:0:0:0:
448,192,13165,1,0,0:0:0:0:
320,192,13290,1,0,0:0:0:0:
448,192,13290,1,0,0:0:0:0:
64,192,13290,1,0,0:0:0:0:
192,192,13415,1,0,0:0:0:0:
320,192,13415,1,0,0:0:0:0:
64,192,13540,1,0,0:0:0:0:
448,192,13540,1,0,0:0:0:0:
320,192,13665,1,0,0:0:0:0:
192,192,13790,1,0,0:0:0:0:
64,192,13790,1,0,0:0:0:0:
448,192,13790,1,0,0:0:0:0:
320,192,13915,1,0,0:0:0:0:
192,192,13915,1,0,0:0:0:0:
64,192,14040,1,0,0:0:0:0:
192,192,14165,1,0,0:0:0:0:
448,192,14165,1,0,0:0:0:0:
448,192,14290,1,0,0:0:0:0:
320,192,14290,1,0,0:0:0:0:
64,192,14290,128,0,14415:0:0:0:0:
192,192,14415,128,0,14540:0:0:0:0:
320,192,14540,1,0,0:0:0:0:
448,192,14540,1,0,0:0:0:0:
64,192,14665,1,0,0:0:0:0:
192,192,14790,1,0,0:0:0:0:
320,192,14790,1,0,0:0:0:0:
448,192,14790,128,0,14915:0:0:0:0:
64,192,14915,1,0,0:0:0:0:
320,192,15040,1,0,0:0:0:0:
192,192,15040,1,0,0:0:0:0:
64,192,15165,1,0,0:0:0:0:
192,192,15165,1,0,0:0:0:0:
64,192,15290,1,0,0:0:0:0:
320,192,15290,1,0,0:0:0:0:
448,192,15290,1,0,0:0:0:0:
192,192,15415,1,0,0:0:0:0:
64,192,15540,1,0,0:0:0:0:
448,192,15540,1,0,0:0:0:0:
320,192,15665,1,0,0:0:0:0:
192,192,15790,1,0,0:0:0:0:
64,192,15790,1,0,0:0:0:0:
448,192,15790,1,0,0:0:0:0:
320,192,15915,1,0,0:0:0:0:
192,192,15915,1,0,0:0:0:0:
448,192,16040,1,0,0:0:0:0:
192,192,16165,1,0,0:0:0:0:
64,192,16165,1,0,0:0:0:0:
64,192,16290,1,0,0:0:0:0:
320,192,16290,1,0,0:0:0:0:
448,192,16290,1,0,0:0:0:0:
192,192,16415,1,0,0:0:0:0:
320,192,16477,1,0,0:0:0:0:
192,192,16540,1,0,0:0:0:0:
64,192,16540,1,0,0:0:0:0:
448,192,16540,1,0,0:0:0:0:
320,192,16665,1,0,0:0:0:0:
448,192,16665,1,0,0:0:0:0:
192,192,16727,1,0,0:0:0:0:
64,192,16727,1,0,0:0:0:0:
320,192,16790,1,0,0:0:0:0:
448,192,16790,1,0,0:0:0:0:
64,192,16915,1,0,0:0:0:0:
192,192,16915,1,0,0:0:0:0:
448,192,16915,1,0,0:0:0:0:
320,192,17040,1,0,0:0:0:0:
192,192,17040,1,0,0:0:0:0:
320,192,17165,1,0,0:0:0:0:
192,192,17227,1,0,0:0:0:0:
448,192,17290,1,0,0:0:0:0:
320,192,17290,1,0,0:0:0:0:
64,192,17290,1,0,0:0:0:0:
192,192,17415,1,0,0:0:0:0:
64,192,17415,1,0,0:0:0:0:
192,192,17540,1,0,0:0:0:0:
448,192,17540,1,0,0:0:0:0:
320,192,17665,1,0,0:0:0:0:
448,192,17665,1,0,0:0:0:0:
64,192,17665,1,0,0:0:0:0:
192,192,17790,1,0,0:0:0:0:
64,192,17790,1,0,0:0:0:0:
320,192,17852,1,0,0:0:0:0:
448,192,17852,1,0,0:0:0:0:
192,192,17915,1,0,0:0:0:0:
64,192,17915,1,0,0:0:0:0:
192,192,18040,1,0,0:0:0:0:
320,192,18040,1,0,0:0:0:0:
448,192,18040,1,0,0:0:0:0:
320,192,18165,1,0,0:0:0:0:
64,192,18165,1,0,0:0:0:0:
192,192,18290,1,0,0:0:0:0:
64,192,18290,1,0,0:0:0:0:
448,192,18290,1,0,0:0:0:0:
320,192,18415,1,0,0:0:0:0:
448,192,18477,1,0,0:0:0:0:
192,192,18540,1,0,0:0:0:0:
64,192,18540,1,0,0:0:0:0:
320,192,18540,1,0,0:0:0:0:
320,192,18665,1,0,0:0:0:0:
448,192,18665,1,0,0:0:0:0:
192,192,18727,1,0,0:0:0:0:
64,192,18727,1,0,0:0:0:0:
320,192,18790,1,0,0:0:0:0:
448,192,18790,1,0,0:0:0:0:
192,192,18915,1,0,0:0:0:0:
64,192,18915,1,0,0:0:0:0:
448,192,18977,1,0,0:0:0:0:
320,192,18977,1,0,0:0:0:0:
192,192,19040,1,0,0:0:0:0:
64,192,19040,1,0,0:0:0:0:
192,192,19165,1,0,0:0:0:0:
448,192,19165,1,0,0:0:0:0:
320,192,19290,1,0,0:0:0:0:
448,192,19290,1,0,0:0:0:0:
320,192,19415,1,0,0:0:0:0:
64,192,19415,1,0,0:0:0:0:
192,192,19540,1,0,0:0:0:0:
64,192,19540,1,0,0:0:0:0:
448,192,19540,1,0,0:0:0:0:
320,192,19665,1,0,0:0:0:0:
64,192,19790,1,0,0:0:0:0:
448,192,19790,1,0,0:0:0:0:
320,192,19852,1,0,0:0:0:0:
192,192,19852,1,0,0:0:0:0:
64,192,19915,1,0,0:0:0:0:
448,192,19915,1,0,0:0:0:0:
320,192,20040,1,0,0:0:0:0:
192,192,20040,1,0,0:0:0:0:
64,192,20102,1,0,0:0:0:0:
448,192,20102,1,0,0:0:0:0:
320,192,20165,1,0,0:0:0:0:
192,192,20165,1,0,0:0:0:0:
320,192,20290,1,0,0:0:0:0:
448,192,20290,1,0,0:0:0:0:
192,192,20352,1,0,0:0:0:0:
64,192,20352,1,0,0:0:0:0:
320,192,20415,1,0,0:0:0:0:
448,192,20415,1,0,0:0:0:0:
192,192,20540,1,0,0:0:0:0:
64,192,20540,1,0,0:0:0:0:
448,192,20540,1,0,0:0:0:0:
448,192,20665,1,0,0:0:0:0:
192,192,20790,1,0,0:0:0:0:
64,192,20790,1,0,0:0:0:0:
448,192,20915,1,0,0:0:0:0:
192,192,21040,1,0,0:0:0:0:
64,192,21040,1,0,0:0:0:0:
320,192,21165,1,0,0:0:0:0:
192,192,21290,1,0,0:0:0:0:
64,192,21290,1,0,0:0:0:0:
320,192,21415,1,0,0:0:0:0:
192,192,21540,1,0,0:0:0:0:
64,192,21540,1,0,0:0:0:0:
448,192,21665,1,0,0:0:0:0:
192,192,21790,1,0,0:0:0:0:
64,192,21790,1,0,0:0:0:0:
448,192,21915,1,0,0:0:0:0:
192,192,22040,1,0,0:0:0:0:
64,192,22040,1,0,0:0:0:0:
320,192,22165,1,0,0:0:0:0:
192,192,22290,1,0,0:0:0:0:
64,192,22290,1,0,0:0:0:0:
320,192,22415,1,0,0:0:0:0:
192,192,22540,1,0,0:0:0:0:
64,192,22540,1,0,0:0:0:0:
448,192,22540,1,0,0:0:0:0:
320,192,22665,1,0,0:0:0:0:
448,192,22665,1,0,0:0:0:0:
64,192,22665,1,0,0:0:0:0:
64,192,22790,1,0,0:0:0:0:
192,192,22790,1,0,0:0:0:0:
320,192,22915,1,0,0:0:0:0:
192,192,22915,1,0,0:0:0:0:
320,192,23040,1,0,0:0:0:0:
64,192,23040,1,0,0:0:0:0:
192,192,23165,1,0,0:0:0:0:
64,192,23165,1,0,0:0:0:0:
192,192,23290,1,0,0:0:0:0:
448,192,23290,1,0,0:0:0:0:
320,192,23415,1,0,0:0:0:0:
448,192,23415,1,0,0:0:0:0:
320,192,23540,1,0,0:0:0:0:
64,192,23540,1,0,0:0:0:0:
192,192,23665,1,0,0:0:0:0:
64,192,23665,1,0,0:0:0:0:
320,192,23727,1,0,0:0:0:0:
448,192,23727,1,0,0:0:0:0:
192,192,23790,1,0,0:0:0:0:
64,192,23790,1,0,0:0:0:0:
192,192,23915,1,0,0:0:0:0:
448,192,23915,1,0,0:0:0:0:
320,192,24040,1,0,0:0:0:0:
448,192,24040,1,0,0:0:0:0:
320,192,24165,1,0,0:0:0:0:
64,192,24165,1,0,0:0:0:0:
192,192,24290,1,0,0:0:0:0:
64,192,24290,1,0,0:0:0:0:
448,192,24352,1,0,0:0:0:0:
320,192,24415,1,0,0:0:0:0:
192,192,24477,1,0,0:0:0:0:
64,192,24540,1,0,0:0:0:0:
448,192,24540,1,0,0:0:0:0:
64,192,211290,5,0,0:0:0:0:
448,192,211290,1,0,0:0:0:0:
