osu file format v14

[General]
AudioFilename: audio.mp3
AudioLeadIn: 0
PreviewTime: 172153
Countdown: 1
SampleSet: Soft
StackLeniency: 0.3
Mode: 0
LetterboxInBreaks: 0
WidescreenStoryboard: 0

[Editor]
DistanceSpacing: 1
BeatDivisor: 4
GridSize: 32
TimelineZoom: 8

[Metadata]
Title:Los! Los! Los!
TitleUnicode:Los! Los! Los!
Artist:Tanya Degurechaff (CV: Aoi Yuuki)
ArtistUnicode:ターニャ・デグレチャフ (CV: 悠木碧)
Creator:RugMunch
Version:No Mercy
Source:幼女戦記
Tags:anime
BeatmapID:1447559
BeatmapSetID:683982

[Difficulty]
HPDrainRate:6.4
CircleSize:4
OverallDifficulty:9.8
ApproachRate:9.8
SliderMultiplier:1.6
SliderTickRate:1

[Events]
//Background and Video events
0,0,"!25.png",0,0
//Break Periods
2,148477,151799
//Storyboard Layer 0 (Background)
//Storyboard Layer 1 (Fail)
//Storyboard Layer 2 (Pass)
//Storyboard Layer 3 (Foreground)
//Storyboard Sound Samples

[TimingPoints]
1278,250,4,2,1,60,1,0
1278,-133.333333333333,4,2,1,60,0,0
3278,-117.647058823529,4,2,1,60,0,0
3778,-133.333333333333,4,2,1,60,0,0
4903,-100,4,2,1,60,0,0
5278,-111.111111111111,4,2,1,60,0,0
7278,-90.9090909090908,4,2,1,60,0,0
7778,-111.111111111111,4,2,1,60,0,0
8778,-90.9090909090909,4,2,1,60,0,0
9028,-111.111111111111,4,2,1,60,0,0
9278,-76.9230769230769,4,2,1,60,0,0
10278,-90.9090909090909,4,2,1,80,0,0
11278,-90.9090909090909,4,2,1,40,0,0
11778,-90.9090909090909,4,2,1,60,0,0
12278,-90.9090909090909,4,2,1,80,0,0
13278,-83.3333333333333,4,2,1,75,0,0
21278,-83.3333333333333,4,2,1,60,0,0
22778,-100,4,2,1,60,0,0
23278,-100,4,2,1,70,0,0
25278,-111.111111111111,4,2,1,65,0,0
33278,-125,4,2,1,55,0,0
35278,-100,4,2,1,55,0,0
37278,-83.3333333333333,4,2,1,70,0,0
41278,-100,4,2,1,70,0,0
45278,-125,4,2,1,50,0,0
46215,-125,4,2,1,5,0,0
46278,-100,4,2,1,50,0,0
46653,-125,4,2,1,50,0,0
49278,-100,4,2,1,60,0,0
51278,-83.3333333333333,4,2,1,70,0,0
51528,-83.3333333333333,4,2,1,40,0,0
51653,-83.3333333333333,4,2,1,70,0,0
52028,-83.3333333333333,4,2,1,40,0,0
52153,-83.3333333333333,4,2,1,70,0,0
52528,-83.3333333333333,4,2,1,40,0,0
52653,-83.3333333333333,4,2,1,70,0,0
53028,-83.3333333333333,4,2,1,40,0,0
53153,-83.3333333333333,4,2,1,70,0,0
53278,-333.333333333333,4,2,1,50,0,0
54278,-100,4,2,1,80,0,0
54778,-100,4,2,1,70,0,0
55278,-76.9230769230769,4,2,1,85,0,0
71278,-100,4,2,1,70,0,0
75278,-76.9230769230769,4,2,1,85,0,0
79278,-100,4,2,1,70,0,0
80778,-142.857142857143,4,2,1,80,0,0
81278,-80,4,2,1,85,0,0
85278,-90.9090909090909,4,2,1,70,0,0
88278,-76.9230769230769,4,2,1,85,0,0
89028,-166.666666666667,4,2,1,85,0,0
89278,-100,4,2,1,60,0,0
89778,-125,4,2,1,55,0,0
90278,-111.111111111111,4,2,1,65,0,0
96215,-111.111111111111,4,2,1,5,0,0
96278,-111.111111111111,4,2,1,65,0,0
98278,-125,4,2,1,55,0,0
102278,-125,4,2,1,70,0,0
106278,-125,4,2,1,50,0,0
107528,-100,4,2,1,50,0,0
108528,-100,4,2,1,25,0,0
108778,-100,4,2,1,40,0,0
109028,-100,4,2,1,45,0,0
109278,-100,4,2,1,55,0,0
109528,-100,4,2,1,65,0,0
109778,-100,4,2,1,70,0,0
110278,-125,4,2,1,50,0,0
111278,-100,4,2,1,50,0,0
111653,-125,4,2,1,50,0,0
114278,-100,4,2,1,60,0,0
116278,-83.3333333333333,4,2,1,70,0,0
119778,-200,4,2,1,70,0,0
120278,-76.9230769230769,4,2,1,85,0,0
136278,-100,4,2,1,70,0,0
140278,-76.9230769230769,4,2,1,85,0,0
143278,-90.9090909090909,4,2,1,80,0,0
143528,-111.111111111111,4,2,1,70,0,0
144278,-200,4,2,1,60,0,0
152278,-142.857142857143,4,2,1,55,0,0
155278,-166.666666666667,4,2,1,55,0,0
155778,-200,4,2,1,55,0,0
156278,-142.857142857143,4,2,1,55,0,0
160278,-80,4,2,1,80,0,0
164278,-90.9090909090909,4,2,1,70,0,0
166028,-71.4285714285714,4,2,1,70,0,0
166278,-90.9090909090909,4,2,1,70,0,0
168278,-90.9090909090909,4,2,1,85,0,0
171778,-90.9090909090909,4,2,1,70,0,0
172278,-76.9230769230769,4,2,1,85,0,0
188278,-71.4285714285714,4,3,1,90,0,1
196278,-90.9090909090909,4,2,1,75,0,0
200028,-66.6666666666667,4,2,1,95,0,0
200278,-66.6666666666667,4,2,1,100,0,0
203278,-66.6666666666667,4,2,1,50,0,0
203403,-100,4,2,1,60,0,0
203778,-83.3333333333333,4,2,1,65,0,0
204278,-80,4,2,1,80,0,0
208278,-90.9090909090909,4,2,1,70,0,0
211778,-66.6666666666667,4,2,1,70,0,0

[HitObjects]
414,243,1278,6,0,P|387:256|340:249,1,60.0000022888184,4|2,1:2|0:0,0:0:0:0:
270,330,1528,2,0,P|272:300|301:262,1,60.0000022888184,2|0,0:0|0:0,0:0:0:0:
224,135,1778,6,0,P|253:137|302:227,1,120.000004577637,2|2,0:0|0:0,0:0:0:0:
162,178,2153,1,0,0:0:0:0:
188,59,2278,1,2,0:0:0:0:
231,210,2403,1,2,0:0:0:0:
172,46,2528,1,2,0:0:0:0:
149,195,2653,1,2,0:0:0:0:
25,109,2778,6,0,P|58:103|108:111,1,60.0000022888184,2|0,0:0|0:0,0:0:0:0:
28,240,3028,2,0,P|39:208|71:169,1,60.0000022888184,2|0,0:0|0:0,0:0:0:0:
4,344,3278,6,0,B|44:335|44:335|80:343|80:343|144:330,1,136.000002593994,12|2,0:3|0:0,0:0:0:0:
229,364,3653,1,2,0:0:0:0:
229,364,3778,2,0,P|260:367|297:353,1,60.0000022888184,2|0,0:0|0:0,0:0:0:0:
383,287,4028,2,0,P|352:284|315:298,1,60.0000022888184,2|0,0:0|0:0,0:0:0:0:
457,360,4278,5,2,0:0:0:0:
443,226,4403,1,2,0:0:0:0:
324,292,4528,1,2,0:0:0:0:
457,217,4653,1,2,0:0:0:0:
366,366,4778,1,2,0:0:0:0:
356,169,4903,6,0,B|347:143|352:113|352:113|378:77|372:25|372:25|400:37|407:66,1,200,2|0,0:3|0:0,0:0:0:0:
423,145,5278,6,0,L|343:141,1,71.9999978027344,4|0,3:0|0:0,0:0:0:0:
224,58,5528,2,0,L|304:54,1,71.9999978027344,4|0,0:3|0:0,0:0:0:0:
202,185,5778,1,4,0:3:0:0:
142,94,5903,1,0,0:0:0:0:
297,206,6028,1,4,0:3:0:0:
311,224,6278,6,0,L|234:231,1,71.9999978027344,4|0,0:3|0:0,0:0:0:0:
79,170,6528,2,0,L|156:177,1,71.9999978027344,4|0,0:3|0:0,0:0:0:0:
32,363,6778,6,0,P|3:297|22:217,1,143.999995605469,4|0,0:3|0:3,0:0:0:0:
15,228,7278,6,0,B|60:232|60:232|92:217|92:217|188:231,1,176.000005371094,12|4,3:0|0:3,0:0:0:0:
291,251,7653,1,0,0:0:0:0:
291,251,7778,2,0,P|326:251|378:280,1,71.9999978027344,4|0,0:3|0:0,0:0:0:0:
208,315,8028,2,0,P|190:284|189:225,1,71.9999978027344,4|0,0:3|0:0,0:0:0:0:
304,366,8278,5,4,0:3:0:0:
198,384,8403,1,0,0:0:0:0:
360,265,8528,1,4,0:3:0:0:
374,253,8778,6,0,L|377:204,1,44.0000013427735,4|0,0:3|0:0,0:0:0:0:
453,183,8903,2,0,L|450:134,1,44.0000013427735
391,51,9028,2,0,L|392:20,6,17.9999994506836,4|0|0|0|0|0|0,0:3|0:0|0:0|0:0|0:0|0:0|0:0,0:0:0:0:
354,135,9278,6,0,B|308:157|271:133|271:133|252:139|252:139|188:106|129:163,1,207.999990478516,4|4,1:3|0:3,0:0:0:0:
69,227,9653,1,0,0:0:0:0:
69,227,9778,1,4,0:3:0:0:
206,201,9903,1,0,0:0:0:0:
29,143,10028,1,4,0:3:0:0:
17,134,10278,6,0,L|22:255,1,88.000002685547,4|0,0:3|0:0,0:0:0:0:
140,359,10528,2,0,L|145:238,1,88.000002685547,4|0,0:3|0:0,0:0:0:0:
197,118,10778,6,0,P|264:143|256:269,1,176.000005371094,4|4,0:3|0:3,0:0:0:0:
280,237,11278,5,2,1:2:0:0:
197,118,11403,1,2,1:2:0:0:
356,185,11528,1,2,1:2:0:0:
204,289,11653,1,2,1:2:0:0:
194,33,11778,1,2,1:2:0:0:
377,205,11903,1,2,1:2:0:0:
181,110,12028,1,2,1:2:0:0:
422,55,12153,1,2,1:2:0:0:
351,284,12278,5,2,1:2:0:0:
302,83,12403,1,2,1:2:0:0:
512,183,12528,1,2,1:2:0:0:
275,333,12653,1,2,1:2:0:0:
403,131,12778,1,2,1:2:0:0:
424,352,12903,2,0,L|430:399,2,44.0000013427735,2|2|2,1:2|1:2|1:2,1:2:0:0:
403,131,13153,1,2,1:2:0:0:
275,333,13278,6,0,B|232:355|185:318|185:318|143:364|71:333,1,191.999994140625,4|2,0:3|1:2,0:0:0:0:
6,204,13653,1,0,0:0:0:0:
6,204,13778,2,0,L|114:209,1,95.9999970703126,4|4,0:3|0:3,0:0:0:0:
185,318,14028,1,2,1:2:0:0:
13,346,14153,1,0,0:0:0:0:
202,211,14278,6,0,L|408:220,1,191.999994140625,4|2,0:3|1:2,0:0:0:0:
493,112,14653,1,4,0:3:0:0:
326,106,14778,2,0,L|223:101,1,95.9999970703126,0|4,0:0|0:3,0:0:0:0:
393,219,15028,1,2,1:2:0:0:
397,24,15153,1,0,0:0:0:0:
230,101,15278,6,0,B|267:43|314:54|314:54|345:120|418:110,1,191.999994140625,4|2,0:3|1:2,0:0:0:0:
292,158,15653,5,0,0:0:0:0:
151,237,15778,2,0,P|104:228|69:189,1,95.9999970703126,4|4,0:3|0:3,0:0:0:0:
142,158,16028,5,2,1:2:0:0:
269,311,16153,1,0,0:0:0:0:
35,365,16278,6,0,B|72:347|79:315|79:315|151:286|208:360,1,191.999994140625,4|2,0:3|1:2,0:0:0:0:
191,340,16653,1,4,3:0:0:0:
263,231,16778,2,0,P|312:224|362:245,1,95.9999970703126,0|4,0:0|0:3,0:0:0:0:
436,384,17028,2,0,P|405:345|398:291,1,95.9999970703126,2|4,1:2|0:3,0:0:0:0:
469,90,17278,6,0,L|480:288,1,191.999994140625,6|4,1:2|3:0,0:0:0:0:
255,128,17653,6,0,B|293:96|294:57|294:57|345:11|421:53,1,191.999994140625,6|4,1:2|3:0,0:0:0:0:
263,231,18028,6,0,P|218:214|189:152,1,95.9999970703126,4|4,1:0|3:0,0:0:0:0:
205,65,18278,1,4,3:0:0:0:
342,237,18403,1,2,1:2:0:0:
125,224,18528,1,4,0:3:0:0:
363,216,18653,1,4,0:3:0:0:
106,246,18778,6,0,B|55:249|55:249|6:236,1,95.9999970703126,6|4,1:2|3:0,0:0:0:0:
197,267,19028,2,0,B|225:308|225:308|238:358,1,95.9999970703126,4|4,1:2|3:0,0:0:0:0:
75,149,19278,5,2,1:2:0:0:
287,175,19403,1,4,0:3:0:0:
111,358,19528,1,4,0:3:0:0:
142,90,19653,1,8,0:3:0:0:
284,282,19778,1,4,0:3:0:0:
220,132,19903,1,4,0:3:0:0:
353,127,20028,1,8,0:3:0:0:
250,204,20153,1,4,0:3:0:0:
333,53,20278,6,0,P|383:54|434:104,1,95.9999970703126,6|4,1:2|3:0,0:0:0:0:
494,188,20528,1,8,0:3:0:0:
353,127,20653,1,4,0:3:0:0:
503,92,20778,1,8,0:3:0:0:
397,214,20903,1,4,0:3:0:0:
414,54,21028,1,4,0:3:0:0:
494,188,21153,1,4,0:3:0:0:
353,127,21278,5,6,1:3:0:0:
342,123,21528,1,4,0:3:0:0:
331,119,21778,1,4,0:3:0:0:
320,115,22028,1,4,0:3:0:0:
211,200,22278,5,4,0:3:0:0:
222,196,22403,1,4,0:3:0:0:
233,192,22528,1,4,0:3:0:0:
81,134,22778,6,0,B|47:179|64:222|64:222|92:245|86:304,1,160,4|4,0:3|0:3,0:0:0:0:
99,286,23278,5,4,0:3:0:0:
110,290,23403,1,4,0:3:0:0:
121,294,23528,1,4,0:3:0:0:
303,342,23653,1,4,0:3:0:0:
171,176,23778,1,4,0:3:0:0:
95,373,23903,1,4,0:3:0:0:
297,252,24028,2,4,L|412:240,1,80,4|4,0:3|0:3,0:3:0:0:
211,166,24278,6,0,L|96:154,1,80,4|4,3:0|0:3,0:0:0:0:
324,71,24528,2,0,L|439:59,1,80,4|4,0:3|0:3,0:0:0:0:
298,168,24778,1,4,1:3:0:0:
204,21,24903,1,4,3:0:0:0:
411,107,25028,1,2,1:2:0:0:
179,48,25153,1,0,0:0:0:0:
430,99,25278,6,0,P|406:128|357:140,1,71.9999978027344,4|4,0:1|0:3,0:0:0:0:
173,83,25528,2,0,P|236:67|319:98,1,143.999995605469,2|4,1:2|0:3,0:0:0:0:
374,139,25903,1,2,1:2:0:0:
235,189,26028,1,0,0:0:0:0:
322,76,26153,1,4,0:3:0:0:
297,270,26278,6,0,L|291:361,1,71.9999978027344,2|0,1:2|0:0,0:0:0:0:
235,189,26528,1,0,0:0:0:0:
235,189,26653,2,0,P|303:166|377:207,1,143.999995605469,4|4,0:3|0:3,0:0:0:0:
198,285,27028,2,0,P|149:246|136:177,1,107.999996704102,2|0,1:2|0:0,0:0:0:0:
137,199,27278,6,0,P|148:157|133:108,1,71.9999978027344,4|4,0:3|0:3,0:0:0:0:
0,116,27528,2,0,P|30:146|80:157,1,71.9999978027344,2|0,1:2|0:0,0:0:0:0:
141,39,27778,2,0,P|99:50|64:87,1,71.9999978027344,4|2,3:0|1:2,0:0:0:0:
143,129,28028,5,0,0:0:0:0:
231,16,28153,1,4,0:3:0:0:
231,16,28278,6,0,B|268:39|312:26|295:9|348:0|387:30,1,143.999995605469,6|0,1:2|0:0,0:0:0:0:
434,66,28653,1,4,0:3:0:0:
335,104,28778,1,0,0:0:0:0:
449,33,28903,1,4,0:3:0:0:
386,183,29028,1,2,1:2:0:0:
284,25,29153,1,0,0:0:0:0:
471,161,29278,6,0,B|471:211|471:211|462:230|462:230|462:295,1,107.999996704102,4|0,0:3|0:0,0:0:0:0:
462,286,29528,2,0,L|462:379,1,71.9999978027344,2|0,1:2|0:0,0:0:0:0:
313,290,29778,2,0,L|313:197,1,71.9999978027344,4|2,0:3|1:2,0:0:0:0:
380,352,30028,1,0,0:0:0:0:
228,325,30153,1,4,0:3:0:0:
228,325,30278,6,0,B|179:325|179:325|159:333|159:333|78:333,1,143.999995605469,2|0,1:2|0:0,0:0:0:0:
4,168,30653,2,0,P|71:194|101:275,1,143.999995605469,4|4,0:3|0:3,0:0:0:0:
4,266,31028,1,2,1:2:0:0:
60,89,31153,1,0,0:0:0:0:
60,89,31278,6,0,L|66:174,1,71.9999978027344,4|4,0:3|0:3,0:0:0:0:
150,89,31528,2,0,L|156:4,1,71.9999978027344,2|0,1:2|0:0,0:0:0:0:
98,157,31778,2,0,P|135:175|190:164,1,71.9999978027344,4|2,0:3|1:2,0:0:0:0:
304,96,32028,2,0,P|262:98|220:135,1,71.9999978027344,0|2,0:0|1:2,0:0:0:0:
288,175,32278,6,0,P|361:153|382:76,1,143.999995605469,4|0,0:3|0:0,0:0:0:0:
469,8,32653,5,4,1:3:0:0:
469,8,32778,2,0,L|460:110,1,71.9999978027344,0|8,0:0|3:0,0:0:0:0:
447,245,33028,1,8,3:0:0:0:
304,96,33153,1,8,3:0:0:0:
501,148,33278,5,6,1:2:0:0:
405,318,33528,5,4,3:0:0:0:
395,323,33653,1,4,3:0:0:0:
385,328,33778,1,2,1:2:0:0:
299,339,34028,5,4,0:3:0:0:
289,344,34153,1,4,0:3:0:0:
279,349,34278,2,0,P|212:357|149:333,1,128,4|4,0:3|0:3,0:0:0:0:
11,316,34653,1,0,0:0:0:0:
11,316,34778,2,0,P|35:289|80:274,1,64,2|4,1:2|0:3,0:0:0:0:
203,233,35028,1,4,0:3:0:0:
81,355,35153,1,8,3:0:0:0:
190,223,35278,6,0,P|224:211|270:221,1,80,2|4,1:2|0:3,0:0:0:0:
11,316,35528,2,0,P|24:282|61:252,1,80,2|4,1:2|0:3,0:0:0:0:
177,213,35778,1,0,1:3:0:0:
155,337,35903,1,4,0:3:0:0:
116,155,36028,1,4,0:3:0:0:
268,289,36153,1,4,0:3:0:0:
19,222,36278,6,0,B|58:222|58:222|76:213|76:213|184:213,1,160,4|4,0:3|0:3,0:0:0:0:
324,212,36653,1,4,0:3:0:0:
155,337,36778,1,2,1:2:0:0:
289,126,36903,1,2,1:3:0:0:
289,126,36965,1,2,1:3:0:0:
289,126,37028,1,2,1:3:0:0:
383,358,37153,1,2,1:2:0:0:
383,358,37278,6,0,B|383:298|383:298|368:261|368:261|383:226|383:226|383:162,1,191.999994140625,6|2,3:2|1:2,0:0:0:0:
385,19,37653,1,0,0:0:0:0:
207,118,37778,2,0,L|332:128,2,95.9999970703126,4|4|2,3:0|3:0|1:2,0:0:0:0:
72,107,38153,1,4,3:0:0:0:
224,11,38278,5,4,3:0:0:0:
185,238,38403,1,0,0:0:0:0:
61,96,38528,1,2,1:2:0:0:
269,192,38653,1,4,3:0:0:0:
269,192,38778,2,0,P|279:236|268:286,1,95.9999970703126,2|4,1:2|3:0,0:0:0:0:
103,187,39028,2,0,P|136:156|184:140,1,95.9999970703126,2|0,1:2|0:0,0:0:0:0:
8,363,39278,6,0,L|19:155,1,191.999994140625,4|2,3:0|1:2,0:0:0:0:
116,31,39653,1,0,0:0:0:0:
116,31,39778,2,0,L|121:135,1,95.9999970703126,4|4,3:0|3:0,0:0:0:0:
13,266,40028,2,0,L|18:171,1,95.9999970703126,4|4,1:3|3:0,0:0:0:0:
21,156,40215,1,4,3:0:0:0:
21,156,40278,5,2,1:2:0:0:
198,243,40403,1,4,3:0:0:0:
97,316,40528,1,4,1:3:0:0:
149,110,40653,1,4,3:0:0:0:
207,342,40778,5,2,1:2:0:0:
87,193,40903,1,2,1:2:0:0:
217,355,41028,1,2,1:2:0:0:
76,179,41153,1,2,1:2:0:0:
305,202,41278,6,0,L|392:208,1,80,4|0,3:0|0:0,0:0:0:0:
483,88,41528,2,0,L|395:94,1,80,4|0,3:0|0:0,0:0:0:0:
402,304,41778,6,0,P|473:250|472:166,1,160,4|4,3:0|3:0,0:0:0:0:
374,131,42153,1,0,0:0:0:0:
374,131,42278,6,0,P|371:178|396:220,1,80,4|0,3:0|0:0,0:0:0:0:
473,38,42528,2,0,L|385:44,1,80,4|0,3:0|0:0,0:0:0:0:
294,125,42778,2,0,L|382:131,1,80,4|0,3:0|0:0,0:0:0:0:
229,15,43028,1,4,1:3:0:0:
243,194,43153,1,0,0:0:0:0:
77,112,43278,5,4,3:0:0:0:
77,112,43340,1,0,3:3:0:0:
77,112,43403,1,0,3:3:0:0:
77,112,43465,1,0,3:3:0:0:
77,112,43528,2,0,L|60:226,1,80,2|0,1:2|0:0,0:0:0:0:
181,363,43778,2,0,L|164:249,1,80,4|0,3:0|0:0,0:0:0:0:
155,177,44028,1,2,1:2:0:0:
155,177,44153,1,0,0:0:0:0:
52,341,44278,5,4,3:0:0:0:
268,280,44403,1,0,0:0:0:0:
45,244,44528,1,2,1:2:0:0:
272,370,44653,1,0,0:0:0:0:
148,166,44778,1,2,1:2:0:0:
175,369,44903,5,2,1:2:0:0:
349,204,45028,1,2,1:2:0:0:
169,375,45153,1,2,1:2:0:0:
355,198,45278,6,0,L|437:209,1,64,4|4,0:3|0:3,0:0:0:0:
500,282,45528,2,0,L|418:293,1,64,2|0,1:2|0:0,0:0:0:0:
300,174,45778,2,0,L|382:185,1,64,4|4,0:3|0:3,0:0:0:0:
269,257,46028,2,0,P|223:216|213:167,1,96,2|0,1:2|0:0,0:0:0:0:
211,169,46278,6,0,B|203:144|221:120|221:120|226:62|160:33,1,160,4|0,0:3|1:2,0:0:0:0:
12,116,46653,2,0,P|60:131|140:109,1,128,4|4,0:3|0:3,0:0:0:0:
72,12,47028,1,2,1:2:0:0:
32,208,47153,1,4,0:3:0:0:
32,208,47278,6,0,P|28:244|34:282,1,64,4|4,0:3|0:3,0:0:0:0:
127,304,47528,2,0,P|131:268|125:230,1,64,2|0,1:2|0:0,0:0:0:0:
5,381,47778,6,0,L|144:384,1,128,4|2,0:3|1:2,0:0:0:0:
311,265,48153,1,4,3:0:0:0:
311,265,48278,1,2,1:2:0:0:
127,240,48403,1,4,3:0:0:0:
263,371,48528,1,2,1:2:0:0:
230,186,48653,1,2,1:2:0:0:
148,353,48778,5,2,1:2:0:0:
329,255,48903,1,8,3:0:0:0:
130,363,49028,1,8,3:0:0:0:
229,159,49153,1,8,3:0:0:0:
398,321,49278,6,0,P|424:258|368:168,1,160,2|0,1:2|0:0,0:0:0:0:
280,122,49653,1,4,0:3:0:0:
280,122,49778,2,0,L|188:129,1,80,2|4,1:2|0:3,0:0:0:0:
249,248,50028,2,0,L|341:255,1,80,0|4,0:0|0:3,0:0:0:0:
157,195,50278,6,0,B|109:195|109:195|86:185|86:185|-23:185,1,160,2|0,1:2|0:0,0:0:0:0:
152,285,50653,2,0,P|211:268|234:244,1,80,4|2,0:3|1:2,0:0:0:0:
157,195,50903,1,4,0:3:0:0:
72,326,51028,2,0,P|116:368|148:376,1,80,0|4,0:0|0:3,0:0:0:0:
157,195,51278,6,0,P|159:93|86:42,1,191.999994140625,4|2,1:0|0:3,0:0:0:0:
65,145,51653,1,0,0:0:0:0:
271,257,51778,6,0,B|331:257|331:257|349:249|349:249|483:249,1,191.999994140625,4|2,1:0|0:3,0:0:0:0:
269,351,52153,1,0,0:0:0:0:
320,139,52278,6,0,B|536:139,1,191.999994140625,4|2,1:0|0:3,0:0:0:0:
271,257,52653,1,0,0:0:0:0:
377,13,52778,1,4,1:0:0:0:
224,139,53028,6,0,B|350:139,1,95.9999970703126,2|0,0:3|0:0,0:0:0:0:
178,220,53278,6,0,P|135:162|169:64,1,179.999994506836
224,139,54278,5,4,1:3:0:0:
224,139,54778,5,2,0:0:0:0:
251,161,54861,1,2,0:0:0:0:
267,192,54944,1,2,0:0:0:0:
271,227,55028,5,2,0:0:0:0:
240,298,55111,1,2,0:0:0:0:
166,321,55194,1,2,0:0:0:0:
88,275,55278,6,0,P|174:230|254:331,1,207.999990478516,4|2,1:0|1:2,0:0:0:0:
276,378,55653,1,0,0:0:0:0:
439,270,55778,2,0,L|455:123,1,103.999995239258,4|4,3:0|3:0,0:0:0:0:
468,0,56028,1,2,1:2:0:0:
262,97,56153,1,0,0:0:0:0:
507,121,56278,6,0,B|427:114|427:114|400:96|400:96|367:108|367:108|291:100,1,207.999990478516,4|2,1:0|1:2,0:0:0:0:
115,78,56653,1,4,3:0:0:0:
308,0,56778,1,2,1:2:0:0:
207,217,56903,1,4,3:0:0:0:
207,217,57028,2,0,L|189:105,1,103.999995239258,2|0,1:2|0:0,0:0:0:0:
26,90,57278,6,0,P|45:20|182:15,1,207.999990478516,4|2,1:0|1:2,0:0:0:0:
115,78,57653,1,0,0:0:0:0:
6,260,57778,2,0,L|0:142,1,103.999995239258,4|4,3:0|3:0,0:0:0:0:
186,240,58028,2,0,L|180:358,1,103.999995239258,2|0,1:2|0:0,0:0:0:0:
118,162,58278,6,0,P|202:136|289:222,1,207.999990478516,4|2,1:0|1:2,0:0:0:0:
348,362,58653,1,4,3:0:0:0:
186,240,58778,1,0,0:0:0:0:
414,165,58903,1,4,3:0:0:0:
414,165,58965,1,4,3:0:0:0:
414,165,59028,2,0,P|415:220|396:274,1,103.999995239258,2|0,1:2|0:0,0:0:0:0:
219,62,59278,6,0,B|286:62|286:62|299:54|299:54|445:54,1,207.999990478516,4|2,1:0|1:2,0:0:0:0:
317,195,59653,1,0,0:0:0:0:
317,195,59778,1,4,3:0:0:0:
202,45,59903,1,4,3:0:0:0:
411,81,60028,1,2,1:2:0:0:
209,178,60153,1,0,0:0:0:0:
317,3,60278,5,4,1:0:0:0:
315,234,60403,1,0,0:0:0:0:
117,126,60528,1,0,1:2:0:0:
382,88,60653,1,4,3:0:0:0:
86,130,60778,6,0,P|134:99|207:96,1,103.999995239258,0|4,0:0|3:0,0:0:0:0:
250,265,61028,2,0,P|199:238|160:177,1,103.999995239258,2|4,1:2|3:0,0:0:0:0:
428,185,61278,5,4,1:0:0:0:
288,348,61403,2,0,L|177:342,1,103.999995239258,4|4,3:0|3:0,0:0:0:0:
390,102,61653,5,4,1:0:0:0:
250,265,61778,2,0,L|139:259,1,103.999995239258,4|4,3:0|3:0,0:0:0:0:
352,19,62028,5,4,1:0:0:0:
219,190,62153,1,4,3:0:0:0:
219,190,62215,1,4,3:0:0:0:
219,190,62278,5,8,3:0:0:0:
191,172,62340,1,8,3:0:0:0:
160,163,62403,1,8,3:0:0:0:
128,165,62465,1,8,3:0:0:0:
98,177,62528,1,8,3:0:0:0:
73,197,62590,1,8,3:0:0:0:
56,225,62653,1,8,3:0:0:0:
48,256,62715,1,8,3:0:0:0:
50,289,62778,5,4,1:3:0:0:
86,262,62840,1,4,3:0:0:0:
112,225,62903,1,4,3:0:0:0:
126,182,62965,1,4,3:0:0:0:
126,136,63028,1,4,1:3:0:0:
112,93,63090,1,4,3:0:0:0:
85,57,63153,1,4,3:0:0:0:
48,30,63215,1,4,3:0:0:0:
7,16,63278,6,0,P|35:88|156:89,1,207.999990478516,4|2,1:0|1:2,0:0:0:0:
256,0,63653,1,0,0:0:0:0:
256,0,63778,2,0,L|391:4,1,103.999995239258,4|4,3:0|3:0,0:0:0:0:
494,160,64028,2,0,L|359:164,1,103.999995239258,2|0,1:2|0:0,0:0:0:0:
203,170,64278,5,4,1:0:0:0:
359,3,64403,1,0,0:0:0:0:
367,277,64528,2,0,P|310:265|262:231,1,103.999995239258,2|4,1:2|3:0,0:0:0:0:
470,210,64778,2,0,P|488:265|483:323,1,103.999995239258,0|4,0:0|3:0,0:0:0:0:
450,382,65028,1,2,1:2:0:0:
197,328,65153,1,0,0:0:0:0:
197,328,65278,6,0,P|260:261|395:311,1,207.999990478516,4|2,1:0|1:2,0:0:0:0:
301,363,65653,1,0,0:0:0:0:
110,297,65778,2,0,L|-23:286,1,103.999995239258,4|4,3:0|3:0,0:0:0:0:
154,186,66028,2,0,L|287:175,1,103.999995239258,2|0,1:2|0:0,0:0:0:0:
109,101,66278,6,0,P|61:173|130:279,1,207.999990478516,4|2,1:0|1:2,0:0:0:0:
224,91,66653,1,4,3:0:0:0:
3,114,66778,1,0,0:0:0:0:
249,255,66903,1,4,3:0:0:0:
249,255,66965,1,4,3:0:0:0:
249,255,67028,2,0,B|280:209|280:209|274:126,1,103.999995239258,2|0,1:2|0:0,0:0:0:0:
149,12,67278,6,0,B|217:45|217:45|351:40,1,207.999990478516,4|2,1:0|1:2,0:0:0:0:
507,33,67653,1,0,0:0:0:0:
507,33,67778,2,0,L|518:167,1,103.999995239258,4|4,3:0|3:0,0:0:0:0:
349,227,68028,2,0,L|360:93,1,103.999995239258,2|0,1:2|0:0,0:0:0:0:
474,316,68278,5,4,1:0:0:0:
250,290,68403,1,4,3:0:0:0:
443,174,68528,1,2,1:2:0:0:
429,382,68653,1,4,3:0:0:0:
235,190,68778,6,0,L|384:177,1,103.999995239258,2|4,0:0|3:0,0:0:0:0:
157,296,69028,2,0,L|8:283,1,103.999995239258,2|4,1:2|3:0,0:0:0:0:
36,287,69215,1,4,3:0:0:0:
36,287,69278,5,4,1:0:0:0:
108,82,69403,1,4,3:0:0:0:
235,190,69528,1,4,3:0:0:0:
71,183,69653,5,8,3:0:0:0:
237,54,69778,1,4,3:0:0:0:
234,294,69903,1,4,3:0:0:0:
94,62,70028,6,0,P|143:43|209:50,1,103.999995239258,2|0,1:2|0:0,0:0:0:0:
425,122,70278,5,4,3:0:0:0:
235,190,70403,1,8,3:0:0:0:
337,4,70528,1,4,3:0:0:0:
491,209,70653,1,4,3:0:0:0:
208,216,70778,5,2,1:2:0:0:
440,21,70903,1,4,3:0:0:0:
396,311,71028,1,4,3:0:0:0:
294,78,71153,1,4,3:0:0:0:
507,220,71278,6,0,B|444:228|444:228|377:307,1,160,4|0,1:0|0:0,0:0:0:0:
331,377,71653,1,4,0:3:0:0:
331,377,71715,1,4,0:3:0:0:
331,377,71778,2,0,P|298:317|216:296,1,120,2|0,1:2|0:0,0:0:0:0:
238,295,72028,2,0,L|136:288,1,80,4|0,0:3|0:0,0:0:0:0:
3,282,72278,5,4,0:3:0:0:
75,375,72403,1,2,1:2:0:0:
86,175,72528,2,0,L|93:61,1,80,0|4,0:0|0:3,0:0:0:0:
95,80,72715,1,4,0:3:0:0:
95,80,72778,2,0,P|135:96|198:81,1,80,2|0,1:2|0:0,0:0:0:0:
317,46,73028,2,0,P|277:30|214:45,1,80,4|0,0:3|0:0,0:0:0:0:
248,270,73278,6,0,L|269:101,1,160,4|0,1:0|0:0,0:0:0:0:
285,31,73652,1,4,0:3:0:0:
285,31,73715,1,4,0:3:0:0:
285,31,73777,1,2,1:2:0:0:
390,135,73903,1,0,0:0:0:0:
203,142,74028,1,4,0:3:0:0:
387,27,74153,1,0,0:0:0:0:
387,27,74278,6,0,L|391:131,2,80,4|2|0,0:3|1:2|0:0,0:0:0:0:
479,202,74653,2,0,L|482:122,2,80,4|2|4,0:3|1:2|0:3,0:0:0:0:
428,299,75028,5,2,1:2:0:0:
422,308,75090,1,2,1:2:0:0:
416,317,75153,1,2,1:2:0:0:
409,325,75215,1,2,1:2:0:0:
403,334,75278,6,0,B|320:334|320:334|271:313|271:313|181:313,1,207.999990478516,4|2,1:0|1:2,0:0:0:0:
7,317,75653,1,0,0:0:0:0:
211,149,75778,1,4,3:0:0:0:
141,372,75903,1,4,3:0:0:0:
15,158,76028,2,0,L|143:150,1,103.999995239258,2|0,1:2|0:0,0:0:0:0:
295,203,76278,6,0,P|212:151|231:40,1,207.999990478516,4|2,1:0|1:2,0:0:0:0:
297,108,76653,1,4,3:0:0:0:
118,151,76778,1,0,0:0:0:0:
330,100,76903,1,4,3:0:0:0:
358,269,77028,2,0,P|313:294|263:289,1,103.999995239258,2|4,1:2|3:0,0:0:0:0:
229,266,77215,1,4,3:0:0:0:
229,266,77278,1,4,1:0:0:0:
431,73,77403,5,4,3:0:0:0:
295,203,77528,1,2,1:2:0:0:
488,256,77653,5,4,3:0:0:0:
330,92,77778,1,2,1:2:0:0:
403,335,77903,5,4,3:0:0:0:
221,114,78028,1,2,1:2:0:0:
492,164,78153,5,4,3:0:0:0:
201,224,78278,1,2,1:2:0:0:
398,20,78403,5,4,3:0:0:0:
301,285,78528,1,2,1:2:0:0:
180,31,78653,5,4,3:0:0:0:
319,104,78778,1,2,1:2:0:0:
165,27,78903,5,4,3:0:0:0:
244,129,79028,1,2,1:2:0:0:
150,23,79153,5,2,1:2:0:0:
168,112,79278,2,0,B|168:164|168:164|157:197|157:197|168:228|168:228|168:296,1,160,4|2,1:0|1:2,0:0:0:0:
253,377,79653,1,2,1:2:0:0:
239,202,79778,5,4,3:0:0:0:
239,202,79840,1,4,3:0:0:0:
239,202,79903,2,0,L|165:209,1,40,4|4,1:3|1:3,0:0:0:0:
27,302,80028,5,4,1:3:0:0:
27,302,80090,1,4,1:3:0:0:
27,302,80153,2,0,L|101:309,1,40,0|4,3:0|3:0,0:0:0:0:
253,377,80278,5,8,3:0:0:0:
282,374,80340,1,8,3:0:0:0:
312,371,80403,1,8,3:0:0:0:
342,368,80465,1,8,3:0:0:0:
372,348,80528,5,8,3:0:0:0:
401,350,80590,1,8,3:0:0:0:
431,353,80653,1,8,3:0:0:0:
461,356,80715,1,8,3:0:0:0:
491,359,80778,6,0,B|475:338|475:338|477:312|477:312|463:299|463:299|449:227|507:179,1,195.999994018555,4|0,1:0|0:0,0:0:0:0:
499,185,81278,6,0,P|518:135|513:76,1,100,4|0,1:0|0:0,0:0:0:0:
424,22,81528,2,0,P|405:72|410:131,1,100,0|0,1:2|0:0,0:0:0:0:
505,14,81778,1,4,3:0:0:0:
505,14,81903,1,0,0:0:0:0:
313,25,82028,2,0,L|183:32,1,100,4|0,3:0|0:0,0:0:0:0:
74,190,82278,6,0,P|138:116|85:20,1,200,4|2,1:0|1:2,0:0:0:0:
51,104,82653,1,0,0:0:0:0:
8,246,82778,1,4,3:0:0:0:
162,122,82903,1,2,0:0:0:0:
0,97,83028,1,2,1:2:0:0:
245,135,83153,1,2,0:0:0:0:
225,214,83278,6,0,P|313:178|298:74,1,200,4|2,1:0|1:2,0:0:0:0:
236,8,83653,1,0,0:0:0:0:
236,8,83778,2,0,L|372:15,1,100,4|0,3:0|0:0,0:0:0:0:
399,113,84028,2,0,L|263:120,1,100,4|0,3:0|0:0,0:0:0:0:
482,27,84278,5,4,3:0:0:0:
442,248,84403,1,0,0:0:0:0:
393,99,84528,1,4,3:0:0:0:
455,274,84653,1,2,1:2:0:0:
455,274,84715,1,2,1:2:0:0:
455,274,84778,1,2,1:2:0:0:
239,226,84903,1,2,1:2:0:0:
476,153,85028,1,2,1:2:0:0:
332,348,85153,1,0,1:2:0:0:
253,104,85278,6,0,P|176:77|112:147,1,176.000005371094,4|0,1:0|0:0,0:0:0:0:
199,164,85653,1,4,3:0:0:0:
199,164,85715,1,4,3:0:0:0:
199,164,85778,2,0,L|180:50,1,88.000002685547,2|0,1:2|0:0,0:0:0:0:
56,7,86028,2,0,L|37:121,1,88.000002685547,4|0,3:0|0:0,0:0:0:0:
13,265,86278,5,4,3:1:0:0:
199,164,86403,1,0,1:2:0:0:
127,355,86528,2,0,L|113:252,1,88.000002685547,0|4,3:0|3:0,0:0:0:0:
117,257,86715,1,4,3:0:0:0:
117,257,86778,1,2,1:2:0:0:
271,184,86903,1,4,3:0:0:0:
327,314,87028,2,0,L|224:300,1,88.000002685547,0|4,0:0|3:0,0:0:0:0:
344,205,87278,6,0,L|447:191,1,88.000002685547,4|0,1:0|0:0,0:0:0:0:
512,184,87528,1,4,3:0:0:0:
457,366,87653,1,4,3:0:0:0:
425,178,87778,6,0,L|411:75,1,88.000002685547,2|0,1:2|0:0,0:0:0:0:
403,2,88028,1,4,3:0:0:0:
501,85,88153,1,4,3:0:0:0:
319,33,88278,5,2,1:2:0:0:
308,33,88340,1,2,1:2:0:0:
297,34,88403,1,2,1:2:0:0:
286,34,88465,1,2,1:2:0:0:
275,35,88528,6,0,L|262:163,1,103.999995239258,2|2,1:2|1:2,0:0:0:0:
241,337,88778,1,2,1:2:0:0:
113,193,88903,1,4,3:0:0:0:
364,255,89028,2,0,L|281:266,1,71.9999978027344,2|0,1:2|0:0,0:0:0:0:
292,264,89278,6,0,P|231:246|167:284,2,120,4|0|0,3:0|0:0|0:0,0:0:0:0:
336,321,89778,5,0,0:0:0:0:
342,328,89840,1,0,0:0:0:0:
348,335,89903,1,0,0:0:0:0:
354,342,89965,2,0,P|391:281|377:212,1,128
471,162,90278,6,0,P|435:132|400:121,1,71.9999978027344,4|0,0:1|0:0,0:0:0:0:
221,111,90528,2,0,B|240:148|240:148|342:161,1,143.999995605469,2|4,1:2|0:3,0:0:0:0:
295,67,90903,1,4,0:3:0:0:
284,230,91028,1,2,1:2:0:0:
411,123,91153,1,0,0:0:0:0:
217,31,91278,6,0,L|138:44,1,71.9999978027344,4|0,0:3|0:0,0:0:0:0:
25,150,91528,1,2,1:2:0:0:
25,150,91653,2,0,P|63:103|46:6,1,143.999995605469,0|4,0:0|0:3,0:0:0:0:
95,200,92028,2,0,L|107:320,1,107.999996704102,2|0,1:2|0:0,0:0:0:0:
106,322,92278,6,0,B|83:351|83:351|34:365,1,71.9999978027344,4|0,0:3|0:0,0:0:0:0:
175,275,92528,2,0,B|211:280|211:280|248:315,1,71.9999978027344,2|0,1:2|0:0,0:0:0:0:
100,239,92778,2,0,B|86:204|86:204|98:155,1,71.9999978027344,4|4,0:3|0:3,0:0:0:0:
175,275,93028,5,2,1:2:0:0:
19,291,93153,1,4,0:3:0:0:
192,185,93278,1,2,1:2:0:0:
157,371,93403,1,8,0:3:0:0:
157,371,93528,1,8,0:3:0:0:
94,170,93653,1,4,0:3:0:0:
94,170,93715,1,4,0:3:0:0:
94,170,93778,5,2,1:2:0:0:
303,204,93903,1,4,0:3:0:0:
165,361,94028,1,2,1:2:0:0:
199,99,94153,1,2,1:2:0:0:
199,99,94278,6,0,P|229:72|271:66,1,71.9999978027344,4|4,0:3|0:3,0:0:0:0:
439,159,94528,2,0,P|360:151|326:91,1,143.999995605469,2|4,1:2|0:3,0:0:0:0:
406,85,94903,1,2,1:2:0:0:
269,218,95028,2,0,L|259:125,1,71.9999978027344,0|4,0:0|0:3,0:0:0:0:
427,250,95278,2,0,L|417:343,1,71.9999978027344,2|0,1:2|0:0,0:0:0:0:
278,207,95528,1,4,0:3:0:0:
469,200,95653,2,0,L|452:356,1,143.999995605469,2|4,1:2|0:3,0:0:0:0:
281,381,96028,2,0,P|318:345|392:340,1,107.999996704102,2|0,1:2|0:0,0:0:0:0:
381,337,96278,6,0,P|341:323|308:288,1,71.9999978027344,4|4,0:3|0:3,0:0:0:0:
390,184,96528,2,0,P|397:225|384:271,1,71.9999978027344,2|0,1:2|0:0,0:0:0:0:
231,225,96778,2,0,L|330:220,1,71.9999978027344,4|2,0:3|1:2,0:0:0:0:
194,313,97028,2,0,L|95:308,1,71.9999978027344,2|0,0:0|1:2,0:0:0:0:
1,161,97278,6,0,B|25:130|25:130|162:133,1,143.999995605469,4|0,0:1|0:0,0:0:0:0:
264,135,97653,1,8,0:3:0:0:
114,247,97778,1,8,0:3:0:0:
116,23,97903,1,8,0:3:0:0:
276,134,98028,1,8,0:3:0:0:
1,161,98153,1,8,0:3:0:0:
236,30,98278,6,0,B|274:12|274:12|367:26,2,128,4|4|2,0:1|0:3|1:2,0:0:0:0:
400,118,99028,1,2,0:0:0:0:
505,43,99278,6,0,L|411:47,1,64,4|2,0:3|1:2,0:0:0:0:
314,100,99528,1,0,0:0:0:0:
314,100,99653,1,4,0:3:0:0:
479,133,99778,1,2,1:2:0:0:
358,24,99903,1,4,0:3:0:0:
494,148,100028,1,4,0:3:0:0:
332,204,100153,1,4,0:3:0:0:
332,204,100278,6,0,B|373:222|373:222|405:313,2,128,4|4|2,0:1|0:3|1:2,0:0:0:0:
319,362,101028,1,2,0:0:0:0:
193,272,101278,6,0,P|226:261|278:265,1,64,4|2,0:3|1:2,0:0:0:0:
241,346,101528,1,0,0:0:0:0:
241,346,101653,1,4,0:3:0:0:
57,281,101778,1,2,1:2:0:0:
242,204,101903,1,8,1:3:0:0:
130,372,102028,1,8,0:3:0:0:
111,143,102153,1,4,3:0:0:0:
241,346,102278,5,4,1:3:0:0:
241,346,102778,1,4,1:3:0:0:
111,144,103278,5,4,1:3:0:0:
111,144,103778,1,4,1:3:0:0:
316,27,104278,5,4,1:3:0:0:
316,27,104778,1,4,1:3:0:0:
34,32,105278,5,4,1:3:0:0:
34,32,105778,1,4,1:3:0:0:
34,32,106278,6,0,B|86:22|86:22|175:51,1,128,4|4,0:1|0:3,0:0:0:0:
237,73,106653,1,0,0:0:0:0:
85,174,106778,2,0,L|81:105,1,64,2|0,1:2|0:0,0:0:0:0:
232,160,107028,2,0,L|228:229,1,64,4|0,0:3|0:0,0:0:0:0:
221,368,107278,5,4,0:3:0:0:
95,273,107403,1,2,1:2:0:0:
95,273,107528,2,0,P|132:267|177:285,1,80,4|4,0:3|0:3,0:0:0:0:
297,375,107778,2,0,P|260:381|215:363,1,80,2|4,1:2|0:3,0:0:0:0:
391,182,108028,5,0,0:0:0:0:
399,365,108153,1,4,0:3:0:0:
399,365,108215,1,4,0:3:0:0:
399,365,108278,1,2,1:2:0:0:
299,147,108528,5,2,1:2:0:0:
391,182,108653,1,2,1:2:0:0:
221,213,108778,5,2,1:2:0:0:
376,85,108903,1,2,1:2:0:0:
412,295,109028,5,2,1:2:0:0:
238,69,109153,1,2,1:2:0:0:
502,102,109278,5,2,1:2:0:0:
300,251,109403,1,2,1:2:0:0:
413,1,109528,5,2,1:2:0:0:
466,203,109653,1,2,1:2:0:0:
214,68,109778,5,2,1:2:0:0:
494,102,109903,1,4,0:3:0:0:
494,102,109965,1,4,0:3:0:0:
494,102,110028,1,2,1:2:0:0:
287,259,110153,1,0,0:0:0:0:
287,259,110278,6,0,P|254:268|202:263,1,64,4|0,0:1|0:0,0:0:0:0:
126,137,110528,2,0,P|150:161|171:208,1,64,4|0,1:3|0:0,0:0:0:0:
101,338,110778,2,0,P|109:304|140:262,1,64,4|0,0:3|0:0,0:0:0:0:
288,355,111028,2,0,L|176:354,1,96,4|0,1:3|0:0,0:0:0:0:
171,346,111278,6,0,P|125:281|37:277,1,160,4|4,1:3|1:3,0:0:0:0:
12,358,111653,1,0,0:0:0:0:
12,358,111778,2,0,P|42:315|47:248,1,96,4|0,0:3|0:0,0:0:0:0:
20,202,112028,1,4,1:3:0:0:
106,50,112153,1,0,0:0:0:0:
106,50,112278,6,0,L|195:42,1,64,4|0,1:3|0:0,0:0:0:0:
252,148,112528,2,0,L|163:140,1,64,4|0,1:3|0:0,0:0:0:0:
312,75,112778,6,0,P|343:121|325:207,1,128,4|4,0:3|1:3,0:0:0:0:
274,318,113153,1,0,0:0:0:0:
274,318,113278,1,4,0:3:0:0:
252,148,113403,1,2,0:0:0:0:
431,200,113528,1,4,1:3:0:0:
214,238,113653,1,2,0:0:0:0:
411,204,113778,5,8,3:0:0:0:
251,338,113903,1,8,3:0:0:0:
253,124,114028,1,8,3:0:0:0:
403,347,114153,1,4,0:3:0:0:
403,347,114215,1,4,0:3:0:0:
403,347,114278,6,0,B|437:308|437:308|428:185,1,160,2|0,1:2|0:0,0:0:0:0:
330,158,114653,1,4,0:3:0:0:
330,158,114778,2,0,L|337:249,1,80,2|4,1:2|3:0,0:0:0:0:
431,112,115028,2,0,L|438:21,1,80,0|4,0:0|0:3,0:0:0:0:
195,79,115278,6,0,P|253:124|356:84,1,160,2|0,1:2|0:0,0:0:0:0:
277,31,115653,1,4,0:3:0:0:
81,24,115778,2,0,L|174:8,2,80,2|4|0,1:2|0:3|0:0,0:0:0:0:
9,161,116153,1,2,1:2:0:0:
195,79,116278,5,4,0:1:0:0:
45,92,116403,1,4,3:0:0:0:
231,148,116528,1,2,1:2:0:0:
231,148,116778,5,4,0:1:0:0:
45,92,116903,1,2,1:2:0:0:
139,307,117028,1,4,3:0:0:0:
56,118,117153,1,4,3:0:0:0:
251,273,117278,6,0,L|358:287,1,95.9999970703126,4|0,0:1|0:0,0:0:0:0:
508,307,117528,1,4,3:0:0:0:
355,126,117653,1,2,1:2:0:0:
355,126,117715,1,2,1:2:0:0:
355,126,117778,1,2,1:2:0:0:
404,367,117903,1,2,1:2:0:0:
512,194,118028,2,0,L|405:208,1,95.9999970703126,2|2,1:2|1:2,0:0:0:0:
401,209,118215,1,4,3:0:0:0:
401,209,118278,5,4,0:1:0:0:
200,147,118403,1,2,1:2:0:0:
353,18,118528,5,4,3:0:0:0:
280,269,118653,1,2,1:2:0:0:
128,40,118778,5,4,3:0:0:0:
396,127,118903,1,2,1:2:0:0:
172,274,119028,5,4,3:0:0:0:
248,12,119153,1,2,1:2:0:0:
280,269,119278,5,2,1:2:0:0:
16,166,119403,1,2,1:2:0:0:
313,139,119528,1,2,1:2:0:0:
252,369,119653,1,2,1:2:0:0:
0,283,119778,6,0,B|28:261|58:264|58:264|100:289|140:272,1,140,4|0,1:0|0:0,0:0:0:0:
252,369,120278,6,0,B|215:331|215:331|232:154,1,207.999990478516,4|2,1:0|1:2,0:0:0:0:
242,21,120653,1,0,0:0:0:0:
364,158,120778,2,0,L|352:292,1,103.999995239258,4|4,3:0|3:0,0:0:0:0:
168,123,121028,1,2,1:2:0:0:
386,36,121153,1,0,0:0:0:0:
243,235,121278,6,0,B|177:235|177:235|150:222|150:222|125:235|125:235|26:235,1,207.999990478516,4|2,1:0|1:2,0:0:0:0:
210,142,121653,1,4,3:0:0:0:
212,355,121778,1,0,0:0:0:0:
0,217,121903,1,4,3:0:0:0:
0,217,122028,2,0,L|149:217,1,103.999995239258,2|0,1:2|0:0,0:0:0:0:
310,165,122278,6,0,P|278:65|151:55,1,207.999990478516,4|2,1:0|1:2,0:0:0:0:
210,142,122653,1,4,3:0:0:0:
260,305,122778,2,0,P|316:281|352:227,1,103.999995239258,4|4,3:0|3:0,0:0:0:0:
302,65,123028,2,0,P|294:125|323:183,1,103.999995239258,2|0,1:2|0:0,0:0:0:0:
480,11,123278,6,0,B|425:11|425:11|414:0|414:0|242:0,1,207.999990478516,4|2,1:0|1:2,0:0:0:0:
140,1,123653,1,4,3:0:0:0:
172,237,123778,1,0,0:0:0:0:
308,64,123903,1,4,3:0:0:0:
308,64,123965,1,4,3:0:0:0:
308,64,124028,2,0,B|271:51|271:51|178:70,1,103.999995239258,2|0,1:2|0:0,0:0:0:0:
37,254,124278,6,0,B|81:208|81:208|63:42,1,207.999990478516,4|2,1:0|1:2,0:0:0:0:
3,177,124653,1,0,0:0:0:0:
232,247,124778,1,4,3:0:0:0:
160,71,124903,1,4,3:0:0:0:
71,331,125028,1,2,1:2:0:0:
248,134,125153,1,0,0:0:0:0:
37,254,125278,5,4,1:0:0:0:
258,249,125403,1,0,0:0:0:0:
153,52,125528,1,2,1:2:0:0:
155,328,125653,1,4,3:0:0:0:
337,194,125778,6,0,P|288:159|201:170,1,103.999995239258,0|4,0:0|3:0,0:0:0:0:
378,275,126028,2,0,P|432:250|466:169,1,103.999995239258,2|4,1:2|3:0,0:0:0:0:
466,204,126215,1,4,3:0:0:0:
466,204,126278,5,4,1:0:0:0:
388,18,126403,2,0,L|375:124,1,103.999995239258,4|4,3:0|3:0,0:0:0:0:
358,255,126653,5,2,1:2:0:0:
255,35,126778,2,0,L|242:141,1,103.999995239258,4|4,3:0|3:0,0:0:0:0:
225,272,127028,5,2,1:2:0:0:
123,50,127153,1,4,3:0:0:0:
123,50,127215,1,4,3:0:0:0:
123,50,127278,5,4,1:0:0:0:
92,60,127340,1,0,3:0:0:0:
67,80,127403,1,4,3:0:0:0:
49,107,127465,1,4,3:0:0:0:
42,139,127528,1,8,3:0:0:0:
46,171,127590,1,8,3:0:0:0:
61,200,127653,1,4,3:0:0:0:
85,222,127715,1,4,3:0:0:0:
114,235,127778,5,4,1:0:0:0:
146,203,127840,1,4,3:0:0:0:
189,190,127903,1,4,3:0:0:0:
233,200,127965,1,4,3:0:0:0:
267,229,128028,1,4,1:3:0:0:
283,271,128090,1,4,3:0:0:0:
276,316,128153,1,4,3:0:0:0:
249,352,128215,1,4,3:0:0:0:
208,370,128278,6,0,L|323:377,1,103.999995239258,4|0,1:0|0:0,0:0:0:0:
456,198,128528,2,0,L|341:205,1,103.999995239258,2|0,1:2|0:0,0:0:0:0:
167,214,128778,1,4,3:0:0:0:
361,364,128903,1,4,3:0:0:0:
287,143,129028,1,2,1:2:0:0:
199,336,129153,1,0,0:0:0:0:
388,170,129278,6,0,P|371:79|227:55,1,207.999990478516,4|2,1:0|1:2,0:0:0:0:
59,63,129653,1,4,3:0:0:0:
239,219,129778,1,0,0:0:0:0:
198,0,129903,1,4,3:0:0:0:
198,0,130028,2,0,L|187:119,1,103.999995239258,2|0,1:2|0:0,0:0:0:0:
30,312,130278,6,0,P|113:305|160:194,1,207.999990478516,4|2,1:0|1:2,0:0:0:0:
63,216,130653,1,0,0:0:0:0:
225,329,130778,2,0,B|259:348|259:348|334:325,1,103.999995239258,4|4,3:0|3:0,0:0:0:0:
461,280,131028,1,2,1:2:0:0:
247,186,131153,1,0,0:0:0:0:
448,372,131278,6,0,B|448:310|448:310|460:280|460:280|448:251|448:251|447:126,1,207.999990478516,4|2,1:0|1:2,0:0:0:0:
448,15,131653,1,4,3:0:0:0:
226,22,131778,1,0,0:0:0:0:
375,153,131903,1,4,3:0:0:0:
375,153,131965,1,4,3:0:0:0:
375,153,132028,2,0,P|371:89|320:27,1,103.999995239258,2|0,1:2|0:0,0:0:0:0:
119,12,132278,6,0,P|150:97|284:115,1,207.999990478516,4|2,1:0|1:2,0:0:0:0:
226,22,132653,1,0,0:0:0:0:
47,139,132778,2,0,L|32:276,1,103.999995239258,4|4,3:0|3:0,0:0:0:0:
220,329,133028,2,0,L|205:192,1,103.999995239258,2|0,1:2|0:0,0:0:0:0:
190,69,133278,5,4,1:0:0:0:
58,249,133403,1,0,0:0:0:0:
301,216,133528,1,2,1:2:0:0:
91,111,133653,1,4,3:0:0:0:
118,373,133778,2,0,P|173:368|226:315,1,103.999995239258,0|4,0:0|3:0,0:0:0:0:
301,216,134028,1,2,1:2:0:0:
145,287,134153,1,4,3:0:0:0:
145,287,134215,1,4,3:0:0:0:
145,287,134278,5,4,1:0:0:0:
362,337,134403,1,4,3:0:0:0:
247,110,134528,1,4,3:0:0:0:
227,355,134653,5,8,3:0:0:0:
432,234,134778,1,4,3:0:0:0:
240,205,134903,1,4,3:0:0:0:
485,364,135028,6,0,L|502:240,1,103.999995239258,2|4,1:2|3:0,0:0:0:0:
438,29,135278,5,4,3:0:0:0:
337,219,135403,1,8,3:0:0:0:
512,182,135528,1,4,3:0:0:0:
315,51,135653,1,4,3:0:0:0:
300,286,135778,5,4,1:0:0:0:
449,11,135903,1,4,3:0:0:0:
205,82,136028,1,8,3:0:0:0:
428,197,136153,1,4,3:0:0:0:
279,0,136278,6,0,B|245:45|245:45|139:59,1,160,4|0,1:0|0:0,0:0:0:0:
45,79,136653,1,4,3:0:0:0:
45,79,136715,1,4,3:0:0:0:
45,79,136778,2,0,P|81:125|76:206,1,120,0|0,1:2|0:0,0:0:0:0:
84,200,137028,2,0,L|75:306,1,80,4|0,3:0|0:0,0:0:0:0:
69,378,137278,5,4,3:0:0:0:
0,236,137403,1,2,1:2:0:0:
167,247,137528,2,0,L|279:255,1,80,0|4,0:0|3:0,0:0:0:0:
264,256,137715,1,4,3:0:0:0:
264,256,137778,2,0,P|264:309|244:344,1,80,2|0,1:2|0:0,0:0:0:0:
173,157,138028,2,0,P|173:104|193:69,1,80,4|0,3:0|0:0,0:0:0:0:
416,146,138278,6,0,L|248:133,1,160,4|4,1:0|3:0,0:0:0:0:
162,127,138652,1,4,3:0:0:0:
162,127,138777,1,2,1:2:0:0:
278,31,138903,1,0,0:0:0:0:
264,215,139028,1,4,3:0:0:0:
163,40,139153,1,0,0:0:0:0:
163,40,139278,6,0,L|151:148,2,80,4|2|0,3:0|1:2|0:0,0:0:0:0:
62,203,139653,1,4,3:0:0:0:
62,203,139715,1,4,3:0:0:0:
62,203,139778,1,2,1:2:0:0:
28,101,139903,1,4,3:0:0:0:
90,293,140028,5,2,1:2:0:0:
100,309,140090,1,2,1:2:0:0:
115,322,140153,1,2,1:2:0:0:
133,331,140215,1,2,1:2:0:0:
153,334,140278,6,0,B|206:334|206:334|239:323|239:323|376:323,1,207.999990478516,4|2,1:0|1:2,0:0:0:0:
497,324,140653,1,0,0:0:0:0:
366,89,140778,1,4,3:0:0:0:
308,323,140903,1,4,3:0:0:0:
501,176,141028,2,0,L|348:176,1,103.999995239258,2|0,1:2|0:0,0:0:0:0:
240,227,141278,6,0,B|269:184|254:120|220:146|204:77|240:32,1,207.999990478516,4|2,1:0|1:2,0:0:0:0:
302,84,141653,1,4,3:0:0:0:
168,182,141778,1,0,0:0:0:0:
342,55,141903,1,4,3:0:0:0:
418,252,142028,2,0,L|293:271,1,103.999995239258,2|4,1:2|3:0,0:0:0:0:
299,272,142215,1,4,3:0:0:0:
299,272,142278,5,4,1:0:0:0:
159,174,142403,1,4,3:0:0:0:
302,128,142528,5,2,1:2:0:0:
166,312,142653,1,4,3:0:0:0:
157,76,142778,5,2,1:2:0:0:
346,212,142903,1,4,3:0:0:0:
60,164,143028,5,2,1:2:0:0:
304,352,143153,1,4,3:0:0:0:
78,317,143278,6,0,L|150:312,2,58.6666684570313,4|8|2,3:0|3:0|1:2,0:0:0:0:
47,238,143528,2,0,L|-4:234,2,47.9999985351563,8|4|8,3:0|3:0|3:0,0:0:0:0:
138,186,143778,5,8,3:0:0:0:
154,141,143861,1,8,3:0:0:0:
148,94,143944,1,8,3:0:0:0:
121,54,144028,5,12,3:0:0:0:
175,99,144111,1,4,3:0:0:0:
188,169,144194,1,4,3:0:0:0:
155,231,144278,6,2,B|185:248|214:239|214:239|230:151|296:148|296:148|372:181|333:247|333:247|267:215|316:76|398:61|398:61|502:162|459:289|459:289|412:364|286:362|266:301|266:301|190:350|96:298|96:298|132:322|147:352,1,1280,4|0,0:1|0:0,0:0:0:0:
139,339,152278,6,0,P|151:277|152:217,1,111.999996582031,12|0,0:3|0:0,0:0:0:0:
45,135,152653,2,0,P|95:160|160:138,1,111.999996582031
104,76,153028,1,0,0:0:0:0:
82,233,153153,1,0,0:0:0:0:
228,168,153278,6,0,P|289:171|358:164,1,111.999996582031
439,47,153653,2,0,B|417:31|417:31|407:75|414:120,1,111.999996582031
415,196,154028,2,0,P|421:232|432:271,1,55.9999982910157
472,365,154278,6,0,P|499:310|501:241,1,111.999996582031
311,239,154653,2,0,P|345:289|403:326,1,111.999996582031
352,124,155028,1,0,0:0:0:0:
224,218,155153,1,0,0:0:0:0:
224,218,155278,6,0,B|187:239|187:239|56:230,1,167.999994873047
0,147,155778,6,0,L|154:158,1,140
216,142,156278,6,0,P|231:89|221:22,1,111.999996582031
145,206,156653,2,0,P|196:236|270:220,1,111.999996582031
356,161,157028,2,0,P|324:157|289:164,1,55.9999982910157
421,230,157278,6,0,B|438:223|448:203|448:203|437:172|446:118,1,111.999996582031
325,242,157653,2,0,P|319:304|328:371,1,111.999996582031
421,230,158028,1,0,0:0:0:0:
222,254,158153,1,0,0:0:0:0:
222,254,158278,6,0,P|260:264|293:261,1,55.9999982910157
173,191,158528,2,0,P|200:163|214:133,1,55.9999982910157
93,201,158778,2,0,P|82:163|63:136,1,55.9999982910157
26,92,159028,1,0,0:0:0:0:
25,271,159153,1,0,0:0:0:0:
256,192,159278,12,0,160153,0:0:0:0:
159,34,160278,6,0,L|143:163,1,100,2|4,1:2|3:0,0:0:0:0:
123,345,160528,1,4,3:0:0:0:
345,204,160653,6,0,L|230:207,1,100,2|4,1:2|3:0,0:0:0:0:
43,211,160903,1,4,3:0:0:0:
261,344,161028,5,2,1:2:0:0:
262,93,161153,1,4,3:0:0:0:
145,270,161278,1,2,1:2:0:0:
345,204,161403,1,4,3:0:0:0:
141,132,161528,1,4,3:0:0:0:
390,332,161653,5,8,3:0:0:0:
390,332,161778,2,0,B|425:304|425:304|420:225,1,100,8|4,3:0|3:0,0:0:0:0:
407,24,162028,1,4,3:0:0:0:
212,190,162153,1,4,3:0:0:0:
470,132,162278,5,4,1:0:0:0:
271,12,162403,1,4,3:0:0:0:
272,264,162528,1,8,3:0:0:0:
407,24,162653,5,4,1:0:0:0:
172,105,162778,1,4,3:0:0:0:
452,130,162903,1,4,3:0:0:0:
270,1,163028,5,4,1:0:0:0:
272,244,163153,1,4,3:0:0:0:
418,13,163278,1,4,3:0:0:0:
151,115,163403,5,2,1:2:0:0:
151,115,163528,2,0,L|167:247,1,100,4|4,3:0|3:0,0:0:0:0:
259,363,163778,2,0,L|275:231,1,100,8|0,3:0|0:0,0:0:0:0:
288,173,163965,1,8,3:0:0:0:
288,173,164028,2,0,P|238:176|196:204,1,100,4|0,3:0|0:0,0:0:0:0:
350,253,164278,6,0,B|395:203|395:203|388:83,1,176.000005371094,4|0,1:0|0:0,0:0:0:0:
307,176,164653,1,4,3:0:0:0:
397,333,164778,2,0,L|491:327,2,88.000002685547,2|0|4,1:2|0:0|3:0,0:0:0:0:
252,341,165153,1,0,0:0:0:0:
307,176,165278,1,4,3:0:0:0:
243,367,165403,1,2,1:2:0:0:
103,259,165528,6,0,B|145:237|145:237|193:237,1,88.000002685547,4|4,3:0|3:0,0:0:0:0:
17,348,165778,2,0,L|12:219,1,88.000002685547,2|4,1:2|3:0,0:0:0:0:
53,2,166028,6,0,B|85:31|85:31|66:164,1,167.999994873047,4|0,3:0|0:0,0:0:0:0:
54,243,166278,6,0,B|100:271|100:271|224:264,1,176.000005371094,4|0,1:0|0:0,0:0:0:0:
375,249,166653,1,4,3:0:0:0:
237,93,166778,2,0,L|223:201,2,88.000002685547,2|0|4,1:2|0:0|3:0,0:0:0:0:
250,8,167153,1,0,0:0:0:0:
365,126,167278,5,4,3:0:0:0:
166,171,167403,1,2,1:2:0:0:
343,25,167528,1,0,0:0:0:0:
392,243,167653,1,4,3:0:0:0:
392,243,167715,1,4,3:0:0:0:
392,243,167778,6,0,L|400:357,1,88.000002685547,2|4,1:2|3:0,0:0:0:0:
257,236,168028,2,0,L|265:122,1,88.000002685547,0|4,0:0|3:0,0:0:0:0:
331,345,168278,5,2,1:2:0:0:
188,323,168403,1,4,3:0:0:0:
280,228,168528,5,2,1:2:0:0:
257,384,168653,1,4,3:0:0:0:
86,235,168778,5,2,1:2:0:0:
310,267,168903,1,4,3:0:0:0:
117,361,169028,5,2,1:2:0:0:
152,117,169153,1,4,3:0:0:0:
152,117,169215,1,4,3:0:0:0:
152,117,169278,6,0,L|166:230,1,88.000002685547,2|4,1:2|3:0,0:0:0:0:
25,114,169528,2,0,L|39:1,1,88.000002685547,2|4,1:2|3:0,0:0:0:0:
280,79,169778,5,2,1:2:0:0:
86,235,169903,1,4,3:0:0:0:
173,0,170028,5,2,1:2:0:0:
325,233,170153,1,4,3:0:0:0:
25,114,170278,5,4,1:3:0:0:
280,79,170528,1,4,1:3:0:0:
86,235,170778,5,4,1:3:0:0:
173,0,171028,1,4,1:3:0:0:
325,233,171278,5,4,1:0:0:0:
325,233,171778,5,2,0:0:0:0:
352,260,171861,1,2,0:0:0:0:
388,274,171944,1,2,0:0:0:0:
427,273,172028,5,2,0:0:0:0:
363,231,172111,1,2,0:0:0:0:
290,250,172194,1,2,0:0:0:0:
222,315,172278,6,0,P|290:344|383:247,1,207.999990478516,4|2,1:0|1:2,0:0:0:0:
419,65,172653,1,0,0:0:0:0:
202,167,172778,2,0,L|346:167,1,103.999995239258,4|4,3:0|3:0,0:0:0:0:
458,167,173028,1,2,1:2:0:0:
290,5,173153,1,0,0:0:0:0:
290,252,173278,6,0,B|290:186|290:186|309:141|309:141|290:100|290:100|290:18,1,207.999990478516,4|2,1:0|1:2,0:0:0:0:
202,167,173653,1,4,3:0:0:0:
432,168,173778,1,0,0:0:0:0:
290,5,173903,1,4,3:0:0:0:
290,5,174028,2,0,L|175:14,1,103.999995239258,2|0,1:2|0:0,0:0:0:0:
54,199,174278,6,0,P|110:153|81:26,1,207.999990478516,4|2,1:0|1:2,0:0:0:0:
28,106,174653,1,0,0:0:0:0:
208,253,174778,2,0,L|213:142,1,103.999995239258,4|4,3:0|3:0,0:0:0:0:
59,281,175028,2,0,L|64:392,1,103.999995239258,2|0,1:2|0:0,0:0:0:0:
313,165,175278,6,0,P|282:73|145:72,1,207.999990478516,4|2,1:0|1:2,0:0:0:0:
212,149,175653,1,4,3:0:0:0:
382,314,175778,2,0,L|393:199,1,103.999995239258,0|4,0:0|3:0,0:0:0:0:
395,198,175965,1,4,3:0:0:0:
395,198,176028,1,2,1:2:0:0:
238,343,176153,1,0,0:0:0:0:
476,378,176278,6,0,B|476:295|476:295|485:275|485:275|485:152,1,207.999990478516,4|2,1:0|1:2,0:0:0:0:
487,9,176653,1,0,0:0:0:0:
266,139,176778,1,4,3:0:0:0:
495,141,176903,1,4,3:0:0:0:
316,0,177028,1,2,1:2:0:0:
316,249,177153,1,0,0:0:0:0:
487,9,177278,5,4,1:0:0:0:
233,157,177403,1,0,0:0:0:0:
512,156,177528,1,2,1:2:0:0:
316,0,177653,1,4,3:0:0:0:
314,279,177778,6,0,P|364:244|367:162,1,103.999995239258,0|4,0:0|3:0,0:0:0:0:
156,132,178028,2,0,P|160:193|230:237,1,103.999995239258,2|4,1:2|3:0,0:0:0:0:
200,233,178215,1,4,3:0:0:0:
200,233,178278,5,4,1:0:0:0:
251,30,178403,1,4,3:0:0:0:
26,107,178528,5,4,3:0:0:0:
217,247,178653,2,0,L|351:247,1,103.999995239258,2|4,1:2|3:0,0:0:0:0:
0,219,178903,5,4,3:0:0:0:
191,359,179028,2,0,L|325:359,1,103.999995239258,2|4,1:2|3:0,0:0:0:0:
318,363,179215,1,0,0:0:0:0:
318,363,179278,5,8,3:0:0:0:
356,357,179340,1,8,3:0:0:0:
390,338,179403,1,8,3:0:0:0:
416,309,179465,1,8,3:0:0:0:
430,273,179528,1,8,3:0:0:0:
432,234,179590,1,8,3:0:0:0:
420,197,179653,1,8,1:3:0:0:
396,167,179715,1,8,3:0:0:0:
363,146,179778,5,4,3:0:0:0:
335,180,179840,1,4,3:0:0:0:
327,225,179903,1,4,3:0:0:0:
342,267,179965,1,4,3:0:0:0:
376,296,180028,1,4,1:3:0:0:
420,305,180090,1,4,3:0:0:0:
463,290,180153,1,4,3:0:0:0:
492,256,180215,1,4,3:0:0:0:
501,212,180278,6,0,P|470:100|369:70,1,207.999990478516,4|2,1:0|1:2,0:0:0:0:
268,153,180653,1,0,0:0:0:0:
268,153,180778,2,0,L|149:144,1,103.999995239258,4|4,3:0|3:0,0:0:0:0:
0,133,181028,1,2,1:2:0:0:
174,0,181153,1,4,3:0:0:0:
156,279,181278,6,0,P|74:222|89:121,1,207.999990478516,4|2,1:0|1:2,0:0:0:0:
161,183,181653,1,4,3:0:0:0:
330,317,181778,2,0,L|216:309,1,103.999995239258,0|4,0:0|3:0,0:0:0:0:
161,183,182028,2,0,L|275:175,1,103.999995239258,2|4,1:2|3:0,0:0:0:0:
476,292,182278,6,0,P|372:277|319:371,1,207.999990478516,4|2,1:0|1:2,0:0:0:0:
413,363,182653,1,0,0:0:0:0:
483,201,182778,2,0,L|477:83,1,103.999995239258,4|0,3:0|3:0,0:0:0:0:
352,10,183028,2,0,L|346:128,1,103.999995239258,2|0,1:2|0:0,0:0:0:0:
169,134,183278,6,0,P|228:214|334:189,1,207.999990478516,4|2,1:0|1:2,0:0:0:0:
263,125,183653,1,4,3:0:0:0:
36,126,183778,1,0,0:0:0:0:
146,332,183903,1,4,3:0:0:0:
146,332,183965,1,4,3:0:0:0:
146,332,184028,2,0,P|152:280|123:224,1,103.999995239258,2|0,1:2|0:0,0:0:0:0:
223,376,184278,6,0,B|290:376|290:376|354:345|354:345|466:345,1,207.999990478516,4|2,1:0|1:2,0:0:0:0:
512,350,184653,1,0,0:0:0:0:
512,350,184778,2,0,L|504:213,1,103.999995239258,4|4,3:0|3:0,0:0:0:0:
389,137,185028,2,0,L|381:274,1,103.999995239258,2|0,1:2|0:0,0:0:0:0:
482,52,185278,5,4,1:0:0:0:
253,48,185403,1,4,3:0:0:0:
383,241,185528,1,2,1:2:0:0:
396,0,185653,1,4,3:0:0:0:
200,175,185778,6,0,B|253:180|253:180|309:159,1,103.999995239258,0|4,0:0|3:0,0:0:0:0:
129,91,186028,2,0,B|98:134|98:134|88:193,1,103.999995239258,2|4,1:2|3:0,0:0:0:0:
92,208,186215,1,4,3:0:0:0:
92,208,186278,5,4,1:0:0:0:
249,66,186403,1,4,3:0:0:0:
30,15,186528,1,8,3:0:0:0:
218,178,186653,5,2,1:2:0:0:
147,41,186778,1,4,3:0:0:0:
140,296,186903,1,4,3:0:0:0:
419,198,187028,6,0,L|299:186,1,103.999995239258,2|4,1:2|3:0,0:0:0:0:
90,162,187278,5,4,3:0:0:0:
240,356,187403,1,2,1:2:0:0:
266,78,187528,1,8,3:0:0:0:
115,339,187653,1,4,3:0:0:0:
380,259,187778,5,2,1:2:0:0:
119,171,187903,1,2,1:2:0:0:
379,100,188028,5,2,1:2:0:0:
92,252,188153,1,2,1:2:0:0:
443,345,188278,6,0,B|478:293|478:293|472:204,1,111.999996582031,4|4,0:0|0:0,0:0:0:0:
463,63,188528,1,4,1:3:0:0:
318,192,188653,1,4,0:0:0:0:
511,180,188778,1,4,0:0:0:0:
314,42,188903,1,4,0:0:0:0:
314,42,189028,2,0,B|261:19|261:19|169:39,1,111.999996582031,4|4,1:3|0:0,0:0:0:0:
84,193,189278,6,0,B|137:216|137:216|229:196,1,111.999996582031,4|4,0:1|0:0,0:0:0:0:
359,167,189528,1,4,1:3:0:0:
208,30,189653,1,4,0:0:0:0:
265,286,189778,1,4,0:0:0:0:
382,78,189903,1,4,0:0:0:0:
382,78,189965,1,4,0:0:0:0:
382,78,190028,2,0,B|329:87|329:87|269:131,1,111.999996582031,4|0,1:3|0:0,0:0:0:0:
466,109,190278,6,0,B|484:58|484:58|476:-15,1,111.999996582031,4|4,0:0|0:0,0:0:0:0:
359,167,190528,2,0,B|340:217|340:217|348:291,1,111.999996582031,4|0,1:3|0:0,0:0:0:0:
362,384,190778,1,4,0:0:0:0:
481,213,190903,1,4,0:0:0:0:
253,214,191028,1,4,1:3:0:0:
462,334,191153,1,4,0:0:0:0:
466,113,191278,5,4,0:0:0:0:
466,113,191340,1,4,0:0:0:0:
466,113,191403,2,0,L|386:154,1,55.9999982910157,4|0,0:0|2:0,0:0:0:0:
253,214,191528,2,0,B|307:242|307:242|376:228,1,111.999996582031,4|4,1:3|0:0,0:0:0:0:
377,231,191715,1,4,0:0:0:0:
377,231,191778,1,4,0:0:0:0:
160,86,191903,1,4,0:0:0:0:
190,323,192028,1,4,1:3:0:0:
330,81,192153,1,4,0:0:0:0:
69,240,192278,6,0,B|44:188|44:188|62:117,1,111.999996582031,4|4,0:1|0:0,0:0:0:0:
172,277,192528,2,0,B|139:324|139:324|68:344,1,111.999996582031,4|4,1:3|0:0,0:0:0:0:
144,131,192778,1,4,0:0:0:0:
292,324,192903,1,4,0:0:0:0:
69,240,193028,1,4,1:3:0:0:
275,115,193153,1,4,0:0:0:0:
202,380,193278,6,0,B|172:333|172:333|172:252,1,111.999996582031,4|4,3:1|0:0,0:0:0:0:
178,85,193528,1,4,1:3:0:0:
339,249,193653,1,4,0:0:0:0:
105,254,193778,1,4,0:0:0:0:
297,101,193903,1,4,0:0:0:0:
298,342,194028,1,4,1:3:0:0:
162,134,194153,1,4,0:0:0:0:
162,134,194215,1,4,0:0:0:0:
162,134,194278,6,0,B|206:93|206:93|284:87,1,111.999996582031,4|4,0:1|0:0,0:0:0:0:
420,227,194528,2,0,B|362:209|362:209|318:144,1,111.999996582031,4|4,1:3|0:0,0:0:0:0:
467,45,194778,1,4,0:0:0:0:
509,253,194903,1,4,0:0:0:0:
509,253,194965,1,4,0:0:0:0:
509,253,195028,2,0,B|491:310|491:310|426:354,1,111.999996582031,4|4,1:3|0:0,0:0:0:0:
212,242,195278,5,4,1:0:0:0:
422,138,195403,1,2,1:2:0:0:
329,384,195528,1,4,0:0:0:0:
253,127,195653,5,4,0:0:0:0:
475,327,195778,1,12,0:0:0:0:
177,331,195903,1,12,0:0:0:0:
271,82,196028,6,0,B|294:135|294:135|286:219,1,111.999996582031,8|8,0:0|0:0,0:0:0:0:
58,53,196278,6,0,B|92:19|92:19|235:19,1,176.000005371094,4|4,1:0|3:0,0:0:0:0:
335,28,196653,1,4,3:0:0:0:
335,28,196715,1,4,3:0:0:0:
335,28,196778,2,0,P|328:116|348:158,1,132.00000402832,2|0,1:2|0:0,0:0:0:0:
354,161,197028,2,0,L|262:154,1,88.000002685547,4|0,3:0|0:0,0:0:0:0:
266,155,197278,5,4,0:1:0:0:
410,67,197403,1,2,1:2:0:0:
402,247,197528,2,0,L|397:355,1,88.000002685547,0|4,0:0|3:0,0:0:0:0:
400,357,197715,1,4,3:0:0:0:
400,357,197778,6,0,P|357:372|298:360,1,88.000002685547,2|0,1:2|0:0,0:0:0:0:
185,283,198028,2,0,P|228:268|287:280,1,88.000002685547,4|0,3:0|0:0,0:0:0:0:
116,348,198278,6,0,P|93:306|147:196,1,176.000005371094,4|0,1:0|0:0,0:0:0:0:
236,169,198653,1,4,3:0:0:0:
236,169,198715,1,4,3:0:0:0:
236,169,198778,1,2,1:2:0:0:
58,100,198903,1,0,0:0:0:0:
97,253,199028,1,4,3:0:0:0:
194,56,199153,1,2,1:2:0:0:
13,183,199278,5,4,1:0:0:0:
224,253,199403,1,4,3:0:0:0:
116,35,199528,5,2,1:2:0:0:
159,312,199653,1,4,3:0:0:0:
275,25,199778,5,4,1:0:0:0:
107,217,199903,1,2,1:2:0:0:
107,217,199965,1,2,1:2:0:0:
107,217,200028,2,0,B|167:226|167:226|237:201,1,120.000004577637,2|2,1:2|1:2,0:0:0:0:
237,203,200215,1,4,3:0:0:0:
237,203,200278,5,4,1:0:0:0:
489,105,200403,1,2,1:2:0:0:
275,25,200528,5,4,3:0:0:0:
376,316,200653,1,2,1:2:0:0:
432,21,200778,5,4,3:0:0:0:
191,108,200903,1,2,1:2:0:0:
453,271,201028,5,4,3:0:0:0:
359,50,201153,1,2,1:2:0:0:
359,50,201215,1,4,3:0:0:0:
359,50,201278,5,4,3:1:0:0:
299,309,201403,1,2,1:2:0:0:
218,69,201528,5,4,3:0:0:0:
256,384,201653,1,2,1:2:0:0:
399,146,201778,5,4,3:0:0:0:
68,242,201903,1,2,1:2:0:0:
384,334,202028,5,4,3:0:0:0:
384,334,202090,1,4,3:0:0:0:
384,334,202153,1,2,1:2:0:0:
70,71,202278,1,4,1:0:0:0:
70,71,203278,5,2,0:3:0:0:
127,141,203528,2,0,L|118:233,1,80
184,84,203778,6,0,L|179:38,14,23.9999992675781
205,168,204278,6,0,L|193:287,1,100,4|0,1:0|0:0,0:0:0:0:
71,377,204528,2,0,L|59:257,1,100,4|0,1:3|0:0,0:0:0:0:
47,132,204778,1,4,3:0:0:0:
47,132,204903,1,0,0:0:0:0:
197,189,205028,2,0,L|317:201,1,100,4|0,1:3|0:0,0:0:0:0:
457,311,205278,6,0,P|390:236|436:135,1,200,4|0,1:0|1:2,0:0:0:0:
483,219,205653,1,0,0:0:0:0:
309,322,205778,1,4,3:0:0:0:
502,207,205903,1,2,0:0:0:0:
493,382,206028,1,4,1:3:0:0:
336,172,206153,1,2,0:0:0:0:
259,194,206278,6,0,P|306:96|410:140,1,200,4|2,1:0|1:2,0:0:0:0:
454,174,206653,1,0,0:0:0:0:
454,174,206778,2,0,L|463:55,1,100,4|0,3:0|0:0,0:0:0:0:
347,0,207028,2,0,L|356:119,1,100,4|0,3:0|0:0,0:0:0:0:
376,264,207278,5,4,3:0:0:0:
376,264,207403,1,0,0:0:0:0:
476,113,207528,1,4,1:3:0:0:
250,115,207653,1,0,0:0:0:0:
412,299,207778,5,2,1:2:0:0:
411,46,207903,1,8,3:0:0:0:
252,241,208028,1,8,3:0:0:0:
501,243,208153,1,4,3:0:0:0:
501,243,208215,1,4,3:0:0:0:
501,243,208278,6,0,P|433:194|340:219,1,176.000005371094,2|0,1:2|0:0,0:0:0:0:
272,356,208653,1,4,3:0:0:0:
272,356,208778,2,0,L|280:245,1,88.000002685547,2|4,1:2|3:0,0:0:0:0:
195,100,209028,1,0,0:0:0:0:
108,267,209153,1,2,1:2:0:0:
294,187,209278,6,0,L|184:181,1,88.000002685547,4|2,3:0|1:2,0:0:0:0:
27,176,209528,1,0,0:0:0:0:
174,0,209653,1,4,3:0:0:0:
174,0,209715,1,4,3:0:0:0:
174,0,209778,2,0,P|217:0|269:30,1,88.000002685547,2|0,1:2|0:0,0:0:0:0:
387,85,210028,2,0,P|349:106|289:106,1,88.000002685547,4|4,3:0|3:0,0:0:0:0:
480,6,210278,5,2,1:2:0:0:
437,235,210403,1,4,3:0:0:0:
305,110,210528,2,0,L|403:104,1,88.000002685547,2|4,1:2|3:0,0:0:0:0:
497,97,210778,5,2,1:2:0:0:
318,272,210903,1,4,3:0:0:0:
304,89,211028,2,0,L|298:-9,1,88.000002685547,2|4,1:2|3:0,0:0:0:0:
364,164,211278,5,2,1:2:0:0:
338,178,211340,1,4,3:0:0:0:
309,184,211403,1,4,3:0:0:0:
280,181,211465,1,4,3:0:0:0:
253,169,211528,1,4,3:0:0:0:
231,150,211590,1,4,3:0:0:0:
216,125,211653,2,0,L|226:60,1,44.0000013427735,4|0,3:0|0:0,0:0:0:0:
177,0,211778,6,0,B|142:59|142:59|134:109,1,120.000004577637,2|4,1:2|3:0,0:0:0:0:
195,313,212028,1,4,1:0:0:0:
