osu file format v14

[General]
AudioFilename: audio.mp3
AudioLeadIn: 0
PreviewTime: 13332
Countdown: 0
SampleSet: Normal
StackLeniency: 0.7
Mode: 0
LetterboxInBreaks: 0
WidescreenStoryboard: 1
SamplesMatchPlaybackRate: 1

[Editor]
DistanceSpacing: 0.8
BeatDivisor: 1
GridSize: 8
TimelineZoom: 3.299999

[Metadata]
Title:Los! Los! Los!
TitleUnicode:Los! Los! Los!
Artist:Tanya Degurechaff (CV: Aoi Yuuki)
ArtistUnicode:ターニャ・デグレチャフ (CV: 悠木碧)
Creator:Boruma
Version:Normal
Source:幼女戦記
Tags:幼女戦記 youjo senki saga of tanya the evil full size ending aoi yuuki losloslos
BeatmapID:1223986
BeatmapSetID:577650

[Difficulty]
HPDrainRate:4
CircleSize:3
OverallDifficulty:4
ApproachRate:5
SliderMultiplier:0.9
SliderTickRate:1

[Events]
//Background and Video events
0,0,"tanya_degurechaff-grinning-youjo_senki-281251429.png",0,0
//Break Periods
2,148282,151132
//Storyboard Layer 0 (Background)
//Storyboard Layer 1 (Fail)
//Storyboard Layer 2 (Pass)
//Storyboard Layer 3 (Foreground)
//Storyboard Sound Samples

[TimingPoints]
1332,250,4,1,0,100,1,0
152332,-133.333333333333,4,1,0,100,0,0
164582,-100,4,1,0,100,0,0

[HitObjects]
96,160,1332,6,8,B|144:104|232:160|232:160|280:160,1,180
368,256,2332,2,8,B|312:240|232:272|232:272|200:248,1,180
80,176,3332,6,8,P|32:248|104:312,1,180
232,320,4332,2,8,P|336:296|368:232,1,180
312,104,5332,6,8,B|232:112|232:112|208:240,1,180,0|0,0:0|0:0,0:0:0:0:
184,352,6332,2,8,P|88:304|88:208,1,180
112,96,7332,6,8,P|160:168|256:168,1,180
392,168,8332,2,8,P|440:264|384:328,1,180
264,320,9332,6,8,B|176:272|352:200|176:168,1,180
96,104,10332,2,8,P|184:64|280:112,1,180
368,184,11332,6,8,P|416:288|472:256,1,180
472,136,12332,2,12,B|440:96|360:88|280:112,1,180,8|8,0:0|0:0,0:0:0:0:
184,192,13332,6,8,L|184:312,1,90
256,280,13832,2,0,L|256:176,1,90
264,120,14332,2,8,L|376:120,1,90
424,120,14832,2,0,L|424:8,1,90
352,40,15332,6,8,P|304:56|264:48,1,90
200,80,15832,2,0,P|200:144|240:184,1,90
280,184,16332,2,4,P|256:232|200:240,1,90
160,280,16832,6,8,B|112:216|112:216|112:80,1,180
232,32,17832,2,8,L|232:216,1,180
344,304,18832,2,8,P|440:272|440:176,1,180
384,72,19832,2,8,P|288:88|240:176,1,180
224,296,20832,1,8,0:0:0:0:
352,224,21332,6,8,B|240:208|224:208|144:304|96:224,1,270
64,168,22332,2,8,B|24:80|80:48|176:24,1,180
208,160,23332,6,8,B|312:152|312:152|368:40|432:24,1,270
480,72,24332,2,8,P|480:136|352:192,1,180
248,208,25332,2,2,P|152:176|160:72,1,180
280,64,26332,2,8,P|344:96|352:200,1,180
256,296,27332,5,8,0:0:0:0:
256,296,27832,2,8,B|256:200|256:200|176:160,2,180
400,312,29332,2,2,P|456:208|440:144,1,180,0|0,0:0|0:0,0:0:0:0:
320,80,30332,2,8,B|224:112|176:112|144:64,1,180
64,184,31332,6,8,B|104:288|112:312|200:280,1,180
248,280,32082,1,0,0:0:0:0:
248,280,32332,2,8,B|208:216|264:144|360:168,1,180
472,152,33332,6,8,B|456:56|448:40|400:16|400:8|304:64|216:136|200:24,1,360
56,296,35332,2,8,B|160:256|184:296|248:336|272:336|312:296|312:296|200:144|336:112,1,450
472,104,37332,6,8,L|472:216,1,90
424,248,37832,2,8,P|344:240|320:136,1,180
408,48,38832,1,8,0:0:0:0:
264,64,39332,6,8,L|144:64,1,90
112,104,39832,2,8,P|120:200|200:256,1,180
312,320,40832,1,8,0:0:0:0:
424,224,41332,6,8,L|456:136,1,90
384,112,41832,2,0,L|304:192,1,90
256,152,42332,2,8,L|296:40,1,90
216,48,42832,2,0,L|144:112,1,90
112,168,43332,6,8,L|112:272,1,90
176,288,43832,2,0,L|240:192,1,90
296,232,44332,2,8,B|296:328|296:328|384:360,1,180
472,256,45332,6,8,B|480:168|448:144|344:144,1,180
304,168,46082,1,0,0:0:0:0:
240,200,46332,2,8,P|160:232|64:192,1,180
56,112,47082,6,8,B|112:56|176:120|176:120|232:96,1,180
280,80,47832,2,8,B|352:48|400:64|440:160,2,180
224,128,49082,5,0,0:0:0:0:
224,128,49332,2,8,P|232:200|344:232,1,180
224,344,50332,2,8,B|152:368|80:312|80:224,1,180
120,120,51332,6,8,L|216:32,1,90
232,112,51832,2,8,L|160:176,1,90
112,216,52332,2,4,P|128:272|168:288,1,90
224,272,52832,2,8,P|232:224|288:192,1,90
256,192,53332,12,2,54832,0:0:0:0:
360,224,55332,6,8,B|320:104|208:168,1,180
104,248,56332,2,8,P|160:320|272:304,1,180
384,296,57332,2,8,L|440:216,1,90
424,152,57832,2,4,P|368:144|352:112,1,90
328,48,58332,2,8,L|256:136,1,90
264,192,58832,6,8,B|304:264|304:264|232:344,1,180
128,248,59832,2,8,B|112:168|112:168|192:96,1,180
320,48,60832,1,8,0:0:0:0:
320,48,61082,2,0,B|288:136|416:144|376:208,1,180
336,264,61832,2,8,P|232:240|216:136,1,180
224,40,62832,1,8,0:0:0:0:
88,88,63332,6,8,B|128:160|128:160|240:160,1,180
368,176,64332,2,8,B|368:288|304:288|224:240,1,180
112,240,65332,2,8,B|88:336|136:360|232:336,1,180
352,328,66332,1,8,0:0:0:0:
432,208,66832,6,8,B|400:160|400:160|336:208|264:152,1,180
168,88,67832,2,8,P|120:64|64:72,2,90
224,136,68582,1,0,0:0:0:0:
272,80,68832,6,8,P|344:24|456:64,1,180
472,88,69582,1,0,0:0:0:0:
472,88,69832,2,8,B|384:136|440:240|344:240,1,180
232,224,70832,2,12,L|232:120,1,90
240,64,71332,6,8,P|184:48|136:64,1,90
112,112,71832,2,8,L|112:216,2,90
240,40,72832,1,8,0:0:0:0:
272,176,73332,1,8,0:0:0:0:
304,312,73832,2,8,P|280:336|224:336,1,90
160,312,74332,2,8,P|144:248|96:224,1,90
64,200,74832,1,8,0:0:0:0:
160,96,75332,6,8,P|200:112|224:168,1,90
224,224,75832,2,8,P|224:288|256:328,2,90
312,112,76832,2,8,L|424:112,1,90
456,160,77332,2,8,P|360:192|344:184,1,90
304,200,77832,2,8,P|288:288|304:304,1,90
352,312,78332,6,8,P|400:280|448:288,1,90
504,288,78832,2,8,P|496:208|472:184,1,90
256,192,79332,12,2,80832,0:0:0:0:
408,208,81332,6,8,P|296:224|288:224,1,90
256,192,81832,2,2,L|272:88,1,90
200,88,82332,2,8,L|160:192,1,90
144,240,82832,2,2,P|192:272|224:256,1,90
288,248,83332,6,8,P|272:168|288:128,1,90
328,120,83832,2,2,P|320:56|288:8,1,90
240,48,84332,2,8,L|136:48,1,90
96,96,84832,1,2,0:0:0:0:
208,184,85332,6,8,P|288:200|320:184,1,90
352,152,85832,2,2,P|392:200|384:248,1,90
336,272,86332,2,8,P|392:312|440:304,1,90
480,296,86832,1,2,0:0:0:0:
448,152,87332,6,8,B|432:56|432:56|328:24,1,180
256,136,88332,2,8,B|232:232|232:232|160:280,2,180
88,224,90332,6,0,B|176:256|184:256|264:200,1,180
368,112,91332,2,0,P|400:192|360:296,1,180
232,304,92332,6,0,L|232:200,1,90
184,160,92832,2,0,P|192:128|248:96,1,90
296,56,93332,2,0,P|216:24|120:72,1,180
64,184,94332,6,0,B|112:264|112:264|200:288,1,180
296,184,95332,2,0,B|312:96|352:96|432:120,1,180
464,256,96332,6,0,B|408:336|408:336|304:304,1,180
216,224,97332,2,0,P|216:128|304:104,1,180
424,144,98332,6,0,L|368:216,3,90
320,264,99332,2,0,P|288:224|160:232,1,180
48,312,100332,6,0,L|48:208,3,90
88,168,101332,2,0,P|184:192|240:128,1,180
336,32,102332,6,0,P|416:56|408:168,1,180
384,200,103082,1,0,0:0:0:0:
384,200,103332,2,0,B|336:240|312:160|208:224,1,180
160,272,104082,5,0,0:0:0:0:
160,272,104332,2,0,B|88:312|88:312|24:208,1,180
64,88,105332,2,0,B|128:64|192:72|224:160,1,180
280,272,106332,6,0,L|384:272,1,90
440,280,106832,2,0,L|456:176,1,90
432,120,107332,2,0,P|344:136|280:80,1,180
216,40,108082,5,0,0:0:0:0:
216,40,108332,2,0,P|152:128|192:200,1,180
296,264,109332,2,0,B|248:352|248:352|152:336,1,180
104,312,110082,6,0,L|96:216,1,90
160,192,110582,2,0,L|112:96,1,90
120,40,111082,2,0,L|240:40,2,90
48,168,112082,6,0,P|112:232|208:232,1,180
264,216,112832,2,0,P|296:112|368:104,2,180
304,272,114082,6,0,P|352:288|400:248,1,90
424,208,114582,2,0,L|424:96,2,90
416,280,115332,2,0,P|336:344|240:336,1,180
200,312,116082,6,0,P|192:216|200:200,1,90
280,112,116832,1,0,0:0:0:0:
136,136,117332,2,0,P|48:184|40:200,1,90
80,240,117832,2,0,L|176:240,1,90
256,192,118332,12,0,119832,0:0:0:0:
272,192,120332,6,0,P|296:104|304:96,1,90
368,112,120832,2,0,L|368:216,1,90
352,272,121332,2,0,B|408:280|432:280|448:272,1,90
456,208,121832,2,0,L|456:112,1,90
432,48,122332,6,0,P|320:88|296:144,1,180
272,280,123332,1,0,0:0:0:0:
128,312,123832,6,0,P|96:208|160:136,1,180
248,72,124832,2,0,P|128:56|64:104,1,180
152,208,125832,6,0,P|200:296|304:296,1,180
360,192,126832,2,0,P|312:104|208:104,1,180
120,168,127832,2,0,L|112:272,1,90
152,320,128332,6,0,B|256:320|256:320|328:240,1,180
376,136,129332,2,0,B|288:88|288:88|200:128,1,180
72,128,130332,2,0,B|104:48|104:48|224:32,1,180
328,88,131332,2,0,P|360:128|376:168,1,90
392,232,131832,6,0,P|336:312|264:264,1,180
208,160,132832,2,0,P|208:72|312:56,1,180
416,104,133832,6,0,P|424:200|384:280,1,180
336,320,134582,1,0,0:0:0:0:
336,320,134832,2,0,P|288:216|328:144,1,180
408,56,135832,2,0,L|296:56,1,90
248,80,136332,6,0,B|180:99|272:248|136:200|32:208|136:280|168:304,1,270
216,296,137332,2,0,P|280:248|296:136,1,180
200,56,138332,2,0,P|304:56|376:112,1,180
400,240,139332,2,0,B|336:328|328:312|264:216,1,180
176,128,140332,6,0,L|64:128,1,90
72,200,140832,2,0,P|128:272|144:280,1,90
200,264,141332,1,0,0:0:0:0:
264,136,141832,2,0,P|360:104|424:168,1,180
344,272,142832,2,0,P|240:304|176:248,1,180
112,144,143832,1,0,0:0:0:0:
256,192,144332,12,0,148082,0:0:0:0:
144,184,152332,6,0,B|224:160|248:160|400:184|384:288|272:344|168:296,1,405.000015449525
88,256,154332,2,0,B|40:160|56:48|248:104,1,270.000010299683
400,160,156332,6,0,B|376:64|360:48|320:8|264:16|216:160|144:64,1,337.500012874604
72,144,158082,2,0,B|72:216|88:304|160:312|272:264,1,270.000010299683
296,272,159332,2,0,B|368:288|368:288|392:352,1,135.000005149842
480,280,160332,6,0,B|480:208|480:208|424:152,1,135.000005149842
328,160,161332,2,0,B|312:240|312:240|240:272,2,135.000005149842
288,64,162832,2,0,B|272:104|264:144|160:136,1,135.000005149842
256,192,163582,12,0,165832,0:0:0:0:
32,144,166332,6,0,B|56:64|56:64|176:64,1,180
304,64,167332,2,0,P|392:80|448:160,1,180
256,192,168332,12,0,171332,0:0:0:0:
184,40,172332,6,0,P|192:144|200:152,1,90
248,144,172832,2,0,P|272:232|264:256,1,90
224,280,173332,2,0,P|248:312|304:312,1,90
360,288,173832,2,0,P|368:184|360:168,1,90
336,144,174332,6,0,P|400:136|440:152,1,90
488,176,174832,2,0,P|488:72|480:64,1,90
440,56,175332,2,0,L|344:56,1,90
280,72,175832,6,0,P|248:80|224:144,1,90
264,184,176332,1,0,0:0:0:0:
144,264,176832,2,0,P|48:272|40:184,1,180
104,88,177832,6,0,B|192:120|192:120|240:208,1,180
256,264,178582,1,0,0:0:0:0:
256,264,178832,2,0,P|344:304|424:248,1,180
472,136,179832,2,0,L|376:136,1,90
312,152,180332,6,0,P|232:112|232:96,1,90
192,72,180832,2,0,P|144:56|96:80,1,90
88,136,181332,6,0,P|136:216|136:232,1,90
144,280,181832,2,0,P|232:240|240:224,1,90
272,192,182332,2,0,L|312:296,2,90
232,128,183082,2,0,P|320:104|336:112,1,90
408,208,183832,6,0,B|400:304|384:320|288:328,1,180
168,288,184832,2,0,B|104:240|104:184|208:160,1,180
328,112,185832,6,0,P|288:48|184:80,1,180
120,184,186832,2,0,P|152:264|264:280,1,180
376,264,187832,1,0,0:0:0:0:
424,128,188332,6,0,B|456:32|456:32|352:80|280:48,1,270
224,24,189332,2,0,L|224:152,1,90
256,184,189832,2,0,L|144:184,1,90
144,248,190332,2,0,B|264:248,1,90
304,264,190832,2,0,P|288:320|240:336,1,90
192,344,191332,2,0,P|128:352|88:304,1,90
80,272,191832,2,0,L|80:152,1,90
112,120,192332,6,0,P|208:112|264:16,2,180
72,256,193832,2,0,B|144:208|192:200|256:264,1,180
352,336,194832,1,0,0:0:0:0:
440,224,195332,6,0,P|440:120|360:96,1,180
256,168,196332,2,0,P|240:280|168:328,1,180
104,208,197332,2,0,P|120:112|208:88,1,180
320,152,198332,6,0,B|336:208|336:208|256:256|288:312,1,180
344,344,199082,1,0,0:0:0:0:
344,344,199332,2,0,B|416:304|416:304|432:208,1,180
344,96,200332,6,0,B|296:184|296:184|200:136,1,180
160,120,201082,1,0,0:0:0:0:
160,120,201332,2,0,B|112:208|112:216|208:272,1,180
328,312,202332,5,0,0:0:0:0:
320,168,202832,1,0,0:0:0:0:
416,64,203332,1,0,0:0:0:0:
160,104,204332,6,0,B|112:184|112:184|128:272,1,180
264,232,205332,2,0,B|272:136|272:136|352:80,1,180
424,208,206332,6,0,P|400:296|304:304,1,180
208,224,207332,2,0,P|208:120|312:88,1,180
384,160,208332,6,0,B|344:256|336:264|336:264|256:264,1,180
136,216,209332,2,0,B|72:144|72:144|128:64,1,180
264,96,210332,6,0,P|216:192|288:232,1,180
384,304,211332,2,0,P|304:344|216:320,1,180
168,272,212082,2,0,L|224:184,1,90
