osu file format v14

[General]
AudioFilename: audio.mp3
AudioLeadIn: 0
PreviewTime: 13316
Countdown: 0
SampleSet: Normal
StackLeniency: 0.7
Mode: 0
LetterboxInBreaks: 0
WidescreenStoryboard: 1
SamplesMatchPlaybackRate: 1

[Editor]
DistanceSpacing: 2.2
BeatDivisor: 2
GridSize: 8
TimelineZoom: 3.299999

[Metadata]
Title:Los! Los! Los!
TitleUnicode:Los! Los! Los!
Artist:Tanya Degurechaff (CV: Aoi Yuuki)
ArtistUnicode:ターニャ・デグレチャフ (CV: 悠木碧)
Creator:Boruma
Version:Insane
Source:幼女戦記
Tags:幼女戦記 youjo senki saga of tanya the evil full size ending aoi yuuki losloslos
BeatmapID:1223220
BeatmapSetID:577650

[Difficulty]
HPDrainRate:6
CircleSize:4
OverallDifficulty:7
ApproachRate:9
SliderMultiplier:1.3
SliderTickRate:1

[Events]
//Background and Video events
0,0,"tanya_degurechaff-grinning-youjo_senki-281251429.png",0,0
//Break Periods
//Storyboard Layer 0 (Background)
//Storyboard Layer 1 (Fail)
//Storyboard Layer 2 (Pass)
//Storyboard Layer 3 (Foreground)
//Storyboard Sound Samples

[TimingPoints]
1316,250,4,1,0,100,1,0
152332,-133.333333333333,4,1,0,100,0,0
164582,-100,4,1,0,100,0,0

[HitObjects]
88,88,1316,6,8,B|168:160|256:48|328:192,1,260
424,336,2066,2,0,P|304:312|296:288,1,130
144,216,2566,2,8,P|208:184|280:208,1,130
360,248,2941,1,4,0:0:0:0:
360,248,3066,1,0,0:0:0:0:
256,72,3316,6,0,P|200:120|208:200,1,130
304,336,3816,2,0,P|240:336|152:312,1,130
56,168,4316,2,0,B|120:144|120:144|192:160,1,130
344,264,4816,2,0,P|408:272|448:200,1,130
376,40,5316,5,0,0:0:0:0:
192,104,5566,2,0,P|120:152|88:224,1,130
264,288,6066,2,0,P|336:288|416:248,1,130
480,96,6566,1,0,0:0:0:0:
304,176,6816,2,0,L|152:184,1,130
72,352,7316,6,0,P|64:272|80:200,1,130
224,104,7816,2,0,P|232:192|272:240,1,130
464,256,8316,2,0,L|472:184,1,65
376,120,8566,2,0,L|352:32,1,65
224,32,8816,2,0,B|176:80|176:80|176:168,1,130
264,352,9316,6,0,P|168:328|152:304,1,130
96,120,9816,2,0,L|144:184,1,65
256,144,10066,2,0,L|320:184,1,65
424,184,10316,2,0,P|488:128|456:80,1,130
208,40,10816,1,0,0:0:0:0:
64,256,11316,5,0,0:0:0:0:
184,336,11441,1,0,0:0:0:0:
312,272,11566,1,0,0:0:0:0:
448,192,11816,2,0,P|440:104|392:88,1,130
256,40,12316,5,0,0:0:0:0:
168,152,12441,1,0,0:0:0:0:
224,280,12566,1,0,0:0:0:0:
352,336,12816,2,0,L|512:336,1,130
440,120,13316,6,0,P|392:72|320:88,1,130
328,272,13816,2,0,P|296:344|232:352,1,130
240,160,14316,2,0,P|168:96|120:112,1,130
72,280,14816,2,0,P|40:216|56:160,1,130
216,56,15316,5,0,0:0:0:0:
144,240,15566,2,0,B|144:304|144:304|224:344,2,130
224,64,16316,1,0,0:0:0:0:
368,112,16816,6,0,P|368:176|352:248,1,130
184,336,17316,2,0,P|144:272|168:216,1,130
288,80,17816,1,0,0:0:0:0:
448,224,18066,1,0,0:0:0:0:
296,344,18316,1,0,0:0:0:0:
176,168,18566,6,0,P|120:128|40:152,1,130
56,328,19066,1,0,0:0:0:0:
248,344,19316,2,0,B|312:344|312:344|368:288,1,130
488,152,19816,2,0,P|432:176|368:152,1,130
200,56,20316,2,0,L|216:216,1,130
104,344,20816,2,0,L|96:200,1,130
200,48,21316,6,0,L|272:72,1,65
368,168,21566,2,0,L|448:192,1,65
352,304,21816,2,0,L|264:344,1,65
264,192,22066,2,0,L|208:160,1,65
64,128,22316,6,0,P|136:48|176:48,1,130
296,176,22816,2,0,P|328:240|400:264,1,130
472,96,23316,6,0,L|416:40,1,65
336,160,23566,2,0,L|272:208,1,65
208,80,23816,2,0,L|136:56,1,65
96,192,24066,2,0,L|40:224,1,65
168,288,24316,2,0,P|240:336|288:312,1,130
448,240,24816,2,0,L|448:88,1,130
472,40,25316,5,0,0:0:0:0:
384,256,25566,1,0,0:0:0:0:
256,88,25816,2,0,P|152:88|112:120,1,130
128,296,26316,2,0,P|192:256|272:264,1,130
464,312,26816,1,0,0:0:0:0:
376,96,27066,1,0,0:0:0:0:
176,184,27316,6,0,P|112:232|128:296,1,130
312,320,27816,2,0,P|408:296|432:256,1,130
384,80,28316,2,0,P|312:64|248:96,2,130
464,288,29066,1,0,0:0:0:0:
272,176,29316,1,0,0:0:0:0:
128,320,29566,6,0,P|64:264|64:192,1,130
192,40,30066,2,0,P|272:56|304:96,1,130
424,232,30566,2,0,P|320:240|288:216,1,130
128,136,31066,1,0,0:0:0:0:
304,48,31316,6,0,P|392:48|448:80,1,130
360,248,31816,2,0,P|328:320|264:336,1,130
160,200,32316,2,0,L|160:48,2,130
232,312,32941,1,0,0:0:0:0:
376,336,33066,1,0,0:0:0:0:
464,224,33191,1,0,0:0:0:0:
464,224,33316,6,0,P|472:144|424:112,1,130
256,104,33816,2,0,B|184:120|160:120|96:88,1,130
176,296,34316,2,0,B|208:336|208:336|304:336,1,130
376,288,35316,5,0,0:0:0:0:
456,168,35441,1,0,0:0:0:0:
312,152,35566,1,0,0:0:0:0:
160,120,35816,2,0,B|88:88|88:80|136:24|136:24,1,130
416,48,36316,2,0,B|344:48|344:48|288:88,1,130
176,240,36816,2,0,B|248:240|248:240|304:200,1,130
472,120,37316,6,0,P|440:64|360:72,1,130
200,136,37816,1,0,0:0:0:0:
312,224,37941,1,0,0:0:0:0:
336,80,38066,1,0,0:0:0:0:
176,176,38316,2,0,P|240:216|320:208,1,130
464,312,38816,2,0,L|456:176,1,130
256,56,39316,6,0,P|256:128|200:168,1,130
56,304,39816,1,0,0:0:0:0:
48,160,39941,1,0,0:0:0:0:
152,56,40066,1,0,0:0:0:0:
312,40,40316,2,0,P|376:80|344:152,1,130
280,296,40816,2,0,L|440:296,1,130
432,88,41316,6,0,L|400:168,1,65
280,216,41566,2,0,L|232:136,1,65
184,32,41816,2,0,L|160:112,1,65
120,232,42066,2,0,L|96:152,1,65
40,40,42316,6,0,L|16:120,1,65
48,240,42566,2,0,L|104:312,1,65
208,216,42816,2,0,L|176:128,1,65
328,160,43066,2,0,L|376:216,1,65
456,320,43316,5,0,0:0:0:0:
288,96,43566,1,0,0:0:0:0:
160,288,43816,1,0,0:0:0:0:
64,64,44066,1,0,0:0:0:0:
256,120,44316,6,0,L|344:120,1,65
424,224,44566,2,0,L|504:232,1,65
224,336,45066,1,0,0:0:0:0:
104,120,45316,2,0,P|184:96|248:112,1,130
360,256,45816,2,0,P|280:304|224:296,1,130
112,160,46316,6,0,P|168:80|200:80,1,130
384,112,46816,1,0,0:0:0:0:
336,304,47066,2,0,P|304:240|320:176,1,130
448,40,47566,2,0,P|360:48|312:80,1,130
208,224,48066,1,0,0:0:0:0:
96,64,48316,1,0,0:0:0:0:
32,248,48566,2,0,P|80:312|144:328,1,130
312,280,49066,6,0,L|216:176,1,130
104,32,49566,1,0,0:0:0:0:
296,32,49816,2,0,P|360:48|424:96,1,130
456,280,50316,2,0,P|376:256|368:216,2,130
384,96,51066,1,0,0:0:0:0:
256,240,51316,6,0,P|200:184|224:136,1,130
400,88,51816,2,0,P|448:136|424:200,1,130
272,304,52316,2,0,L|128:304,1,130
88,120,52816,2,0,L|240:120,1,130
256,192,53316,12,0,55066,0:0:0:0:
416,136,55316,6,0,P|352:176|320:240,1,130
144,304,55816,2,0,P|136:240|168:160,1,130
320,72,56316,2,0,P|328:152|288:200,1,130
152,320,56816,2,0,P|240:352|280:336,1,130
416,208,57316,6,0,L|400:128,1,65
288,64,57566,2,0,L|248:128,1,65
192,248,57816,1,0,0:0:0:0:
88,80,58066,1,0,0:0:0:0:
320,80,58316,2,0,L|480:80,1,130
328,248,58816,6,0,P|312:200|216:184,1,130
48,192,59316,2,0,P|40:120|96:80,1,130
304,48,59816,1,0,0:0:0:0:
368,176,59941,1,0,0:0:0:0:
248,256,60066,1,0,0:0:0:0:
80,272,60316,2,0,B|40:224|40:224|64:136,1,130
240,64,60816,6,0,P|304:128|296:184,1,130
296,360,61316,2,0,P|352:320|344:256,1,130
304,104,61816,1,0,0:0:0:0:
176,48,61941,1,0,0:0:0:0:
96,168,62066,1,0,0:0:0:0:
200,320,62316,2,0,P|312:256|328:240,1,130
392,104,62816,2,0,L|392:248,1,130
168,280,63316,6,0,L|136:208,1,65
208,88,63566,2,0,L|288:144,1,65
416,80,63816,2,0,L|432:0,1,65
480,176,64066,2,0,L|504:264,1,65
384,336,64316,6,0,L|312:304,1,65
272,120,64566,2,0,L|248:184,1,65
152,336,64816,2,0,L|152:264,1,65
112,88,65066,2,0,L|80:152,1,65
48,280,65316,5,0,0:0:0:0:
184,336,65441,1,0,0:0:0:0:
288,240,65566,1,0,0:0:0:0:
88,208,65816,2,0,B|32:168|32:168|32:88,1,130
144,32,66191,1,0,0:0:0:0:
144,32,66316,1,0,0:0:0:0:
392,168,66816,6,0,P|352:256|304:264,1,130
168,152,67316,2,0,P|128:80|72:112,1,130
56,296,67816,2,0,L|120:344,1,65
240,280,68066,2,0,L|264:192,1,65
288,48,68316,1,0,0:0:0:0:
432,216,68566,1,0,0:0:0:0:
192,304,68816,6,0,P|104:240|112:216,1,130
248,48,69316,1,0,0:0:0:0:
432,176,69566,1,0,0:0:0:0:
288,336,69816,1,0,0:0:0:0:
80,184,70066,1,0,0:0:0:0:
288,120,70316,6,0,P|352:200|344:240,1,130
168,296,70816,2,0,P|224:336|296:328,1,130
440,216,71316,6,0,B|400:152|392:144|296:192|264:352|96:184,1,390
240,48,72316,2,0,P|320:72|336:136,1,130
256,288,72816,1,0,0:0:0:0:
88,88,73316,1,0,0:0:0:0:
464,192,73816,1,0,0:0:0:0:
88,304,74316,2,0,P|40:256|72:176,1,130
240,152,74816,2,0,P|312:160|360:88,1,130
464,280,75316,6,0,P|368:288|336:272,1,130
208,232,75691,1,0,0:0:0:0:
104,136,75816,1,0,0:0:0:0:
216,48,75941,1,0,0:0:0:0:
336,128,76066,2,0,L|424:128,1,65
448,264,76316,2,0,L|392:336,1,65
264,344,76566,1,0,0:0:0:0:
88,320,76816,6,0,P|32:280|48:208,2,130
312,304,77566,1,0,0:0:0:0:
232,112,77816,2,0,P|168:88|112:128,1,130
56,320,78316,1,0,0:0:0:0:
160,216,78441,1,0,0:0:0:0:
272,304,78566,1,0,0:0:0:0:
272,304,78691,6,0,P|360:328|400:296,1,130
128,208,79316,2,0,P|72:168|72:96,1,130
248,176,79816,2,0,P|192:128|224:56,1,130
336,40,80191,6,0,P|384:56|408:64,1,65
416,200,80441,2,0,L|328:200,1,65
216,216,80691,1,0,0:0:0:0:
72,216,80816,1,0,0:0:0:0:
144,88,80941,1,0,0:0:0:0:
240,24,81316,6,0,L|312:80,1,65
312,208,81566,2,0,L|336:128,1,65
440,48,81816,2,0,L|432:144,1,65
408,256,82066,2,0,L|456:192,1,65
416,64,82316,6,0,L|320:40,1,65
296,184,82566,2,0,L|224:232,1,65
96,216,82816,2,0,P|48:144|88:96,1,130
336,40,83316,6,0,L|352:128,1,65
240,192,83566,2,0,L|320:208,1,65
432,272,83816,2,0,L|352:288,1,65
232,336,84066,2,0,L|176:264,1,65
88,192,84316,6,0,L|144:152,1,65
264,80,84566,2,0,L|200:32,1,65
72,32,84816,2,0,P|24:104|32:168,1,130
232,344,85316,6,0,P|264:264|272:256,1,65
200,144,85566,2,0,P|200:168|176:216,1,65
64,280,85816,2,0,P|120:312|136:312,1,65
256,336,86066,2,0,B|192:352|184:352|184:344,1,65
72,272,86316,6,0,L|56:176,1,65
200,184,86566,2,0,L|176:88,1,65
40,96,86816,2,0,B|80:32|80:32|160:32,1,130
400,128,87316,6,0,L|392:208,1,65
296,296,87566,2,0,L|280:216,1,65
152,176,87816,2,0,L|168:264,1,65
56,336,88066,2,0,L|64:248,1,65
96,128,88316,5,0,0:0:0:0:
240,160,88441,1,0,0:0:0:0:
200,24,88566,1,0,0:0:0:0:
88,208,88816,2,0,P|168:248|192:288,1,130
328,240,90316,5,0,0:0:0:0:
208,80,90566,2,0,P|152:120|112:184,1,130
160,296,90941,1,0,0:0:0:0:
160,296,91066,2,0,P|240:304|312:280,1,130
424,128,91566,6,0,P|360:136|280:80,1,130
176,40,91941,1,0,0:0:0:0:
72,136,92066,1,0,0:0:0:0:
192,216,92191,1,0,0:0:0:0:
192,216,92316,2,0,P|248:264|224:336,1,130
104,344,92691,5,0,0:0:0:0:
104,344,92816,2,0,B|32:312|32:312|16:184,1,195
104,80,93316,2,0,B|152:64|152:64|232:120,1,130
416,240,93816,1,0,0:0:0:0:
224,272,94066,1,0,0:0:0:0:
32,256,94316,2,0,L|40:96,1,130
112,64,94691,5,0,0:0:0:0:
112,64,94816,2,0,P|184:104|192:168,1,130
208,336,95316,2,0,P|304:312|328:256,1,130
280,168,95691,1,0,0:0:0:0:
280,168,95816,2,0,P|224:128|256:56,1,130
456,72,96316,6,0,L|440:168,1,65
328,208,96566,2,0,L|304:288,1,65
176,328,96816,2,0,L|128:248,1,65
168,128,97066,2,0,L|152:48,1,65
296,40,97316,2,0,P|368:72|432:40,2,130
64,208,98316,6,0,L|152:192,1,65
256,112,98566,2,0,L|320:176,1,65
384,296,98816,2,0,P|424:224|424:208,1,65
448,88,99066,2,0,B|400:8|336:24|232:80|232:160,1,260
128,272,100316,6,0,L|104:200,1,65
184,112,100566,2,0,L|216:24,1,65
336,144,100816,2,0,L|384:216,1,65
296,320,101066,2,0,B|232:368|136:344|104:208,1,260
376,104,102316,6,0,P|384:176|352:232,1,130
80,280,102816,2,0,P|104:200|160:160,1,130
256,88,103191,1,0,0:0:0:0:
256,88,103316,2,0,P|160:80|104:112,1,130
24,192,103691,1,0,0:0:0:0:
24,192,103816,1,0,0:0:0:0:
160,328,104066,6,0,P|160:240|216:208,1,130
304,136,104441,1,0,0:0:0:0:
304,136,104566,2,0,P|296:216|328:272,1,130
464,336,105066,1,0,0:0:0:0:
448,192,105191,1,0,0:0:0:0:
320,248,105316,1,0,0:0:0:0:
320,248,105441,1,0,0:0:0:0:
320,248,105566,2,0,P|232:240|200:184,1,130
184,88,106316,6,0,B|216:160|216:160|296:192,1,130
456,224,106816,2,0,L|432:120,1,65
336,48,107066,2,0,L|328:128,1,65
312,256,107316,1,0,0:0:0:0:
168,280,107441,1,0,0:0:0:0:
80,168,107566,2,0,P|88:72|128:40,1,130
248,64,107941,5,0,0:0:0:0:
248,64,108066,2,0,L|240:216,1,130
368,352,108566,2,0,P|456:320|480:272,1,130
400,112,109066,2,0,P|312:144|296:192,1,130
136,272,109566,2,0,P|64:184|64:152,1,130
232,72,110066,5,0,0:0:0:0:
160,256,110316,1,0,0:0:0:0:
344,328,110566,1,0,0:0:0:0:
336,136,110816,6,0,L|192:112,1,130
40,208,111316,1,0,0:0:0:0:
152,304,111441,1,0,0:0:0:0:
256,200,111566,1,0,0:0:0:0:
376,120,111691,1,0,0:0:0:0:
376,120,111816,2,0,L|376:272,1,130
256,320,112191,5,0,0:0:0:0:
256,320,112316,2,0,P|216:232|224:184,1,130
296,32,112816,2,0,B|232:32|232:32|176:72,1,130
72,208,113316,2,0,P|104:272|168:296,1,130
264,296,113691,1,0,0:0:0:0:
264,296,113816,1,0,0:0:0:0:
392,304,114066,6,0,B|336:256|336:256|328:184,1,130
224,40,114566,2,0,P|176:80|176:160,1,130
232,248,114941,1,0,0:0:0:0:
232,248,115066,2,0,P|176:288|88:264,1,130
8,192,115441,1,0,0:0:0:0:
104,88,115566,1,0,0:0:0:0:
224,168,115691,1,0,0:0:0:0:
448,320,116066,5,0,0:0:0:0:
360,144,116316,2,0,L|224:144,1,130
112,304,116816,2,0,L|248:296,1,130
416,208,117316,2,0,L|416:48,1,130
224,112,117816,2,0,L|216:272,1,130
256,192,118316,12,0,119816,0:0:0:0:
152,120,120316,6,0,L|144:216,1,65
272,264,120566,2,0,L|240:320,1,65
80,320,120816,2,0,L|32:248,1,65
24,112,121066,2,0,L|72:40,1,65
168,160,121316,6,0,L|240:240,1,65
360,224,121566,2,0,L|368:136,1,65
456,24,121816,2,0,L|456:112,1,65
448,264,122066,2,0,L|480:176,1,65
328,160,122316,6,0,L|256:216,1,65
232,368,122566,2,0,L|144:296,1,65
96,232,122816,2,0,P|112:160|176:120,1,130
296,160,123191,1,0,0:0:0:0:
440,160,123316,1,0,0:0:0:0:
368,32,123441,1,0,0:0:0:0:
296,160,123566,2,0,P|280:208|200:232,1,130
48,176,123941,5,0,0:0:0:0:
48,176,124066,2,0,B|128:200|184:232|240:104,1,195
368,88,124816,2,0,P|408:144|408:232,1,130
216,192,125316,2,0,P|224:304|200:328,1,130
72,176,125816,2,0,P|184:112|216:136,1,130
256,144,126191,5,0,0:0:0:0:
256,144,126316,2,0,P|312:176|392:168,1,130
472,192,126691,1,0,0:0:0:0:
472,192,126816,2,0,P|472:264|416:320,1,130
296,352,127191,5,0,0:0:0:0:
328,216,127316,1,0,0:0:0:0:
240,104,127441,1,0,0:0:0:0:
240,104,127566,2,0,P|144:120|88:88,1,130
72,136,128316,6,0,L|64:216,1,65
176,256,128566,2,0,L|168:336,1,65
328,344,128816,1,0,0:0:0:0:
384,152,129066,1,0,0:0:0:0:
216,88,129316,6,0,L|176:152,1,65
272,248,129566,2,0,L|216:304,1,65
80,280,129816,1,0,0:0:0:0:
112,64,130066,1,0,0:0:0:0:
320,136,130316,6,0,L|376:216,1,65
272,288,130566,2,0,L|336:352,1,65
464,288,130816,2,0,P|496:176|480:144,1,130
312,160,131316,2,0,B|248:176|208:176|176:152,1,130
104,64,131816,6,0,P|80:144|96:192,1,130
216,240,132191,1,0,0:0:0:0:
216,240,132316,2,0,P|288:200|352:200,1,130
464,280,132816,2,0,B|408:240|304:352|192:264,1,260
80,224,133441,1,0,0:0:0:0:
136,96,133566,1,0,0:0:0:0:
264,152,133691,5,0,0:0:0:0:
264,152,133816,2,0,P|352:168|416:144,1,130
488,48,134316,2,0,P|496:112|456:176,1,130
272,128,134816,2,0,P|152:168|136:184,1,130
248,336,135316,1,0,0:0:0:0:
408,56,135816,1,0,0:0:0:0:
112,304,136316,6,0,P|128:184|144:152,1,130
320,128,136816,2,0,B|384:176|384:200|336:256|456:272,1,195
384,352,137316,2,0,P|304:328|296:272,1,130
272,96,137816,5,0,0:0:0:0:
88,200,138316,2,0,P|80:272|144:320,1,130
312,288,138816,1,0,0:0:0:0:
376,104,139066,1,0,0:0:0:0:
184,128,139316,2,0,P|104:160|80:200,1,130
256,288,139816,2,0,L|264:136,1,130
416,40,140316,6,0,P|472:80|440:160,1,130
392,200,140691,1,0,0:0:0:0:
392,200,140816,2,0,P|464:232|456:288,1,130
272,320,141316,2,0,P|184:296|184:240,1,130
200,128,141691,1,0,0:0:0:0:
320,56,141816,1,0,0:0:0:0:
400,176,141941,1,0,0:0:0:0:
432,328,142316,6,0,P|336:336|288:320,1,130
144,216,142816,2,0,B|224:216|304:192|296:192,1,130
424,80,143316,2,0,P|320:120|288:104,1,130
112,128,143816,2,0,P|120:200|160:256,1,130
256,192,144316,12,0,148066,0:0:0:0:
80,216,152316,6,0,B|152:168|208:152|280:232,1,195.00000743866
392,272,153066,1,0,0:0:0:0:
400,128,153316,2,0,B|352:56|248:48|224:88|208:112,1,195.00000743866
112,176,154066,1,0,0:0:0:0:
288,224,154316,2,0,P|320:280|288:328,1,97.50000371933
120,328,154816,1,0,0:0:0:0:
80,168,155066,2,0,P|216:144|232:160,1,146.250005578995
392,248,156316,6,0,B|408:200|416:168|360:96|272:216,1,195.00000743866
208,304,157066,1,0,0:0:0:0:
72,256,157316,2,0,P|64:200|128:128,1,146.250005578995
256,96,157941,2,0,B|320:72|392:128|360:256|456:184,1,243.750009298325
368,312,158816,1,0,0:0:0:0:
224,288,159066,2,0,P|176:240|176:144,1,146.250005578995
224,104,160316,5,0,0:0:0:0:
320,320,160566,1,0,0:0:0:0:
32,336,161066,1,0,0:0:0:0:
96,104,161316,1,0,0:0:0:0:
224,256,161566,2,0,P|312:304|352:296,1,146.250005578995
424,272,162066,5,0,0:0:0:0:
432,208,162191,1,0,0:0:0:0:
416,152,162316,1,0,0:0:0:0:
120,80,162816,2,0,P|112:184|144:240,1,146.250005578995
336,296,163566,2,0,B|336:240|280:152|376:112,1,195.00000743866
496,64,164316,6,0,P|472:168|440:184,1,146.250005578995
304,176,164816,1,0,0:0:0:0:
304,176,164941,1,0,0:0:0:0:
240,304,165066,1,0,0:0:0:0:
240,304,165191,1,0,0:0:0:0:
160,184,165316,1,0,0:0:0:0:
160,184,165441,1,0,0:0:0:0:
88,312,165566,1,0,0:0:0:0:
88,312,165691,1,0,0:0:0:0:
232,320,166316,6,0,P|336:304|368:272,1,130
456,128,166816,1,0,0:0:0:0:
456,128,166941,1,0,0:0:0:0:
320,176,167066,1,0,0:0:0:0:
320,176,167191,1,0,0:0:0:0:
160,128,167316,6,0,P|64:144|40:176,1,130
128,288,167941,2,0,P|200:320|256:304,1,130
256,192,168316,12,0,171316,0:0:0:0:
104,192,172316,6,0,L|176:160,1,65
216,288,172566,2,0,L|280:248,1,65
240,80,172816,2,0,L|328:40,1,65
376,168,173066,2,0,L|432:128,1,65
464,264,173316,6,0,L|424:344,1,65
328,248,173566,2,0,L|256:192,1,65
192,112,173816,2,0,L|144:160,1,65
40,272,174066,2,0,L|32:184,1,65
88,48,174316,6,0,L|168:96,1,65
304,64,174566,2,0,L|280:152,1,65
160,240,174816,2,0,P|240:272|288:256,1,130
408,200,175191,1,0,0:0:0:0:
408,200,175316,1,0,0:0:0:0:
328,288,175816,6,0,P|224:256|216:208,1,130
232,56,176316,2,0,P|256:136|312:144,1,130
472,216,176816,2,0,P|424:272|360:272,1,130
184,224,177316,2,0,P|240:280|216:336,1,130
32,328,177816,5,0,0:0:0:0:
120,152,178066,1,0,0:0:0:0:
256,296,178316,2,0,P|176:312|128:280,1,130
80,208,178691,1,0,0:0:0:0:
80,208,178816,2,0,P|168:224|224:208,1,130
400,200,179316,6,0,L|400:56,1,130
208,80,179816,2,0,L|208:224,1,130
352,344,180316,6,0,L|360:272,1,65
232,208,180566,2,0,L|216:128,1,65
400,120,180816,2,0,L|416:32,1,65
240,24,181066,2,0,L|192:88,1,65
128,200,181316,6,0,L|176:256,1,65
336,256,181566,2,0,L|288:312,1,65
160,352,181816,2,0,L|104:288,1,65
24,200,182066,2,0,L|8:120,1,65
96,48,182316,6,0,L|176:104,1,65
160,240,182566,2,0,L|256:256,1,65
360,296,182816,2,0,P|400:224|368:168,1,130
272,104,183191,1,0,0:0:0:0:
272,104,183316,1,0,0:0:0:0:
120,200,183816,6,0,P|160:272|224:272,1,130
392,240,184316,2,0,P|320:192|344:136,1,130
456,16,184816,2,0,P|352:56|344:80,1,130
208,200,185316,2,0,P|136:160|144:104,1,130
304,24,185816,5,0,0:0:0:0:
336,216,186066,1,0,0:0:0:0:
144,224,186316,1,0,0:0:0:0:
104,48,186566,1,0,0:0:0:0:
288,96,186816,2,0,L|416:136,1,130
480,320,187316,1,0,0:0:0:0:
96,240,187816,1,0,0:0:0:0:
232,80,188316,6,0,P|304:128|304:176,1,130
224,288,188691,1,0,0:0:0:0:
224,288,188816,2,0,P|296:312|360:304,1,130
464,192,189316,2,0,L|464:56,1,130
272,72,189816,6,0,P|160:128|144:152,1,130
168,328,190316,2,0,P|112:248|120:200,1,130
256,88,190816,2,0,L|400:80,1,130
240,208,191316,2,0,L|72:208,1,130
280,304,191816,1,0,0:0:0:0:
136,192,192316,6,0,P|104:136|160:80,1,130
272,120,192691,1,0,0:0:0:0:
272,120,192816,2,0,P|296:184|264:264,1,130
48,264,193316,2,0,P|160:296|184:280,1,130
360,272,193816,6,0,P|304:224|320:152,1,130
456,48,194316,2,0,P|384:40|304:72,1,130
168,168,194816,2,0,P|168:240|200:312,1,130
384,288,195316,6,0,P|360:232|384:152,1,130
192,88,195816,2,0,P|104:80|80:48,1,130
72,248,196316,2,0,P|176:288|208:264,1,130
304,240,196691,1,0,0:0:0:0:
304,240,196816,1,0,0:0:0:0:
424,128,197066,2,0,P|352:80|296:96,1,130
80,232,197816,6,0,P|88:320|136:344,1,130
312,304,198316,2,0,P|256:232|272:176,1,130
344,64,198816,1,0,0:0:0:0:
448,168,198941,1,0,0:0:0:0:
392,296,199066,1,0,0:0:0:0:
224,336,199316,6,0,P|144:328|112:272,1,130
200,112,199816,1,0,0:0:0:0:
368,232,200316,6,0,P|272:224|248:192,1,130
176,88,200691,1,0,0:0:0:0:
312,32,200816,1,0,0:0:0:0:
416,136,200941,1,0,0:0:0:0:
416,136,201066,2,0,L|416:280,1,130
48,336,201691,2,0,P|24:256|64:192,1,130
296,64,202316,5,0,0:0:0:0:
240,344,202816,1,0,0:0:0:0:
88,64,203316,1,0,0:0:0:0:
296,168,204316,6,0,L|352:224,1,65
480,296,204566,2,0,L|480:216,1,65
400,96,204816,2,0,L|328:64,1,65
288,208,205066,2,0,L|200:240,1,65
80,152,205316,6,0,L|40:232,1,65
160,288,205566,2,0,L|208:336,1,65
384,288,205816,2,0,P|408:216|376:168,1,130
216,72,206316,6,0,L|184:144,1,65
224,264,206566,2,0,L|128:280,1,65
32,208,206816,2,0,L|8:144,1,65
128,72,207066,2,0,L|176:16,1,65
264,96,207316,6,0,L|328:176,1,65
192,240,207566,2,0,L|256:312,1,65
376,344,207816,2,0,P|272:360|224:344,1,130
56,216,208316,6,0,L|72:128,1,65
200,184,208566,2,0,L|224:104,1,65
336,24,208816,2,0,L|328:120,1,65
440,144,209066,2,0,L|424:232,1,65
280,264,209316,6,0,L|376:280,1,65
192,344,209566,2,0,L|80:320,1,65
48,240,209816,2,0,P|24:168|56:104,1,130
240,48,210316,6,0,L|312:48,1,65
424,136,210566,2,0,L|328:160,1,65
248,264,210816,2,0,L|336:264,1,65
472,336,211066,2,0,L|384:344,1,65
224,352,211316,6,0,L|176:272,1,65
72,208,211566,2,0,L|64:144,1,65
232,104,211816,2,0,L|192:48,1,65
48,96,212066,2,0,L|32:16,1,65
