osu file format v14

[General]
AudioFilename: audio.mp3
AudioLeadIn: 0
PreviewTime: 13332
Countdown: 0
SampleSet: Normal
StackLeniency: 0.7
Mode: 0
LetterboxInBreaks: 0
WidescreenStoryboard: 1
SamplesMatchPlaybackRate: 1

[Editor]
DistanceSpacing: 1.1
BeatDivisor: 2
GridSize: 8
TimelineZoom: 3.299999

[Metadata]
Title:Los! Los! Los!
TitleUnicode:Los! Los! Los!
Artist:Tanya Degurechaff (CV: Aoi Yuuki)
ArtistUnicode:ターニャ・デグレチャフ (CV: 悠木碧)
Creator:Boruma
Version:Hard
Source:幼女戦記
Tags:幼女戦記 youjo senki saga of tanya the evil full size ending aoi yuuki losloslos
BeatmapID:1222579
BeatmapSetID:577650

[Difficulty]
HPDrainRate:5
CircleSize:4
OverallDifficulty:6
ApproachRate:7.5
SliderMultiplier:1.3
SliderTickRate:1

[Events]
//Background and Video events
0,0,"tanya_degurechaff-grinning-youjo_senki-281251429.png",0,0
//Break Periods
//Storyboard Layer 0 (Background)
//Storyboard Layer 1 (Fail)
//Storyboard Layer 2 (Pass)
//Storyboard Layer 3 (Foreground)
//Storyboard Sound Samples

[TimingPoints]
1332,250,4,1,0,100,1,0
152332,-133.333333333333,4,1,0,100,0,0
164582,-100,4,1,0,100,0,0

[HitObjects]
176,120,1332,6,0,L|184:192,1,65
248,208,1582,2,0,L|224:272,1,65
176,320,1833,2,0,P|104:280|88:232,1,130
120,96,2333,6,0,P|184:120|264:112,1,130
368,192,2833,2,0,P|312:232|224:232,1,130
112,240,3333,6,0,L|144:176,1,65
80,144,3583,2,0,L|136:72,1,65
184,64,3833,2,0,P|240:96|256:176,1,130
208,288,4333,6,0,L|352:288,1,130
416,168,4833,2,0,L|264:168,1,130
152,208,5333,5,0,0:0:0:0:
152,208,5583,2,0,L|224:248,1,65
240,304,5833,2,0,L|304:296,1,65
368,256,6083,2,0,P|376:184|336:136,1,130
216,72,6583,1,0,0:0:0:0:
112,168,6833,2,0,L|112:312,1,130
248,336,7333,6,0,L|272:272,1,65
208,248,7583,2,0,L|240:184,1,65
288,144,7833,2,0,P|352:160|392:224,1,130
400,352,8333,2,0,P|328:312|328:232,1,130
272,136,8833,2,0,P|192:104|136:128,1,130
40,200,9333,6,0,L|64:296,1,65
128,256,9583,2,0,L|144:328,1,65
208,336,9833,2,0,P|272:344|336:312,1,130
424,208,10333,2,0,P|360:224|296:200,1,130
208,96,10833,2,0,L|360:96,1,130
448,184,11333,6,0,P|408:200|368:208,1,65
328,160,11583,2,0,P|288:160|256:176,1,65
208,216,11833,2,0,P|224:296|272:304,1,130
400,264,12333,2,0,L|392:192,1,65
320,208,12583,2,0,L|320:136,1,65
272,88,12833,2,0,P|176:80|144:112,1,130
72,216,13333,6,0,B|128:184|128:184|232:216,1,130
320,272,13833,2,0,B|376:304|376:304|440:248,1,130
392,120,14333,6,0,P|352:152|264:112,1,130
152,64,14833,2,0,P|112:144|128:192,1,130
256,232,15333,2,0,P|304:200|312:112,1,130
192,64,15833,1,0,0:0:0:0:
88,160,16083,1,0,0:0:0:0:
88,160,16333,2,0,P|168:168|200:216,1,130
296,304,16833,6,0,P|352:256|352:184,1,130
256,96,17333,2,0,B|328:88|328:88|392:136,1,130
448,256,17833,2,0,P|368:272|312:232,1,130
216,168,18333,1,0,0:0:0:0:
320,72,18583,1,0,0:0:0:0:
360,208,18833,6,0,P|344:272|296:320,1,130
160,336,19333,1,0,0:0:0:0:
136,192,19583,1,0,0:0:0:0:
136,192,19833,2,0,P|192:136|256:144,1,130
360,216,20333,2,0,P|376:120|360:80,1,130
224,72,20833,2,0,B|173:72|173:72|104:136,1,130
120,272,21332,6,0,L|152:192,1,65
208,240,21582,2,0,L|216:160,1,65
248,112,21832,2,0,P|312:64|376:72,1,130
480,144,22332,2,0,P|488:224|448:280,1,130
328,312,22832,2,0,L|328:160,1,130
232,80,23332,6,0,P|160:136|168:176,1,130
272,256,23832,2,0,P|248:336|184:336,1,130
80,296,24332,2,0,L|104:216,1,65
168,216,24582,2,0,L|160:152,1,65
176,80,24832,2,0,P|256:104|280:144,1,130
376,248,25332,5,0,0:0:0:0:
376,248,25582,2,0,P|392:176|352:112,1,130
240,64,26082,2,0,L|232:136,1,65
168,152,26332,2,0,L|160:224,1,65
136,280,26582,2,0,P|200:328|280:312,1,130
368,256,27082,1,0,0:0:0:0:
320,120,27332,6,0,L|176:120,1,130
80,216,27832,1,0,0:0:0:0:
80,216,28082,2,0,P|96:248|192:272,2,130
112,80,28832,1,0,0:0:0:0:
232,152,29082,1,0,0:0:0:0:
360,216,29332,6,0,B|416:216|416:216|464:152,1,130
360,64,29832,1,0,0:0:0:0:
296,192,30082,2,0,P|288:224|296:264,1,65
368,256,30332,2,0,P|376:288|352:336,1,65
296,336,30582,2,0,P|232:352|168:328,1,130
72,232,31332,5,0,0:0:0:0:
176,128,31582,1,0,0:0:0:0:
176,128,31832,2,0,P|200:168|280:200,1,130
416,200,32332,2,0,L|416:48,2,130
328,312,33332,6,0,L|248:296,1,65
216,248,33582,2,0,L|160:288,1,65
88,288,33832,2,0,P|80:216|112:152,1,130
240,120,34332,2,0,B|296:104|352:128|352:128|456:88,1,195
368,280,35332,6,0,L|336:224,1,65
376,160,35582,2,0,L|336:104,1,65
312,40,35832,2,0,P|240:96|232:144,1,130
280,264,36332,2,0,B|224:248|168:272|168:272|64:232,1,195
88,152,37332,6,0,P|152:104|160:104,1,65
208,120,37582,2,0,P|272:120|280:112,1,65
328,88,37832,2,0,P|392:128|392:192,1,130
296,272,38332,2,0,L|296:136,1,130
200,40,38832,1,0,0:0:0:0:
72,296,39332,6,0,L|96:224,1,65
160,232,39582,2,0,L|184:152,1,65
216,104,39832,2,0,P|272:144|280:216,1,130
248,336,40332,2,0,P|320:336|384:304,2,130
96,288,41332,6,0,P|96:200|128:168,1,130
264,168,41832,2,0,P|280:88|232:40,1,130
112,56,42332,1,0,0:0:0:0:
112,56,42582,1,0,0:0:0:0:
200,168,42832,2,0,P|256:200|320:152,1,130
424,96,43332,6,0,P|464:192|456:224,1,130
352,304,43832,2,0,P|336:240|344:176,1,130
400,40,44332,1,0,0:0:0:0:
400,40,44582,1,0,0:0:0:0:
296,144,44832,2,0,P|240:176|168:128,1,130
64,72,45332,5,0,0:0:0:0:
64,72,45582,2,0,B|64:144|64:144|104:208,1,130
232,224,46082,2,0,B|232:160|232:160|312:120,1,130
424,176,46582,2,0,L|424:320,1,130
288,336,47082,5,0,0:0:0:0:
288,336,47332,2,0,P|280:264|240:208,1,130
128,144,47832,2,0,P|192:120|264:160,1,130
384,192,48332,2,0,P|384:120|336:72,1,130
208,48,48832,1,0,0:0:0:0:
128,168,49082,6,0,P|136:232|200:272,1,130
328,272,49582,1,0,0:0:0:0:
280,136,49832,1,0,0:0:0:0:
400,208,50082,1,0,0:0:0:0:
368,72,50332,2,0,B|312:48|312:48|232:48,1,130
120,128,50832,2,0,P|112:184|176:240,1,130
304,248,51332,6,0,L|392:248,1,65
256,64,51832,2,0,L|144:64,1,65
96,256,52332,2,0,L|144:336,1,65
288,168,52832,2,0,L|248:96,1,65
256,192,53332,12,0,54332,0:0:0:0:
144,152,55332,6,0,L|200:208,1,65
256,176,55582,2,0,L|288:256,1,65
272,304,55832,2,0,P|336:280|360:216,1,130
336,88,56332,6,0,L|280:128,1,65
216,96,56582,2,0,L|200:160,1,65
144,208,56832,2,0,P|232:240|272:224,1,130
376,136,57332,5,0,0:0:0:0:
248,72,57582,2,0,P|152:64|112:104,2,130
368,136,58332,2,0,P|368:192|344:264,1,130
208,312,58832,5,0,0:0:0:0:
208,312,59082,2,0,P|232:232|200:192,1,130
64,176,59582,2,0,P|80:120|136:80,1,130
280,96,60082,1,0,0:0:0:0:
240,232,60332,2,0,P|216:296|248:344,1,130
384,312,60832,5,0,0:0:0:0:
432,176,61082,1,0,0:0:0:0:
288,200,61332,2,0,L|304:112,1,65
232,104,61582,2,0,L|272:40,1,65
336,32,61832,2,0,P|408:56|416:120,1,130
352,232,62332,1,0,0:0:0:0:
80,312,62832,1,0,0:0:0:0:
136,288,63332,6,0,L|216:240,1,65
216,320,63582,2,0,L|280:312,1,65
336,272,63832,2,0,B|336:208|336:208|256:152,1,130
144,152,64332,6,0,L|144:224,1,65
200,256,64582,2,0,L|152:312,1,65
88,328,64832,2,0,B|72:264|72:264|112:184,1,130
216,120,65332,6,0,P|264:168|256:224,1,130
152,328,65832,2,0,P|216:344|296:312,1,130
392,248,66332,1,0,0:0:0:0:
264,176,66582,1,0,0:0:0:0:
136,248,66832,6,0,P|208:264|272:240,1,130
384,184,67332,2,0,B|344:128|344:128|272:128,1,130
192,240,67832,2,0,B|120:248|120:248|88:200,1,130
112,56,68332,2,0,P|176:72|208:136,1,130
200,264,68832,5,0,0:0:0:0:
312,352,69082,1,0,0:0:0:0:
272,216,69332,2,0,L|336:248,1,65
376,192,69582,2,0,L|432:248,1,65
464,296,69832,2,0,P|488:216|464:168,1,130
352,104,70332,6,0,P|272:128|224:120,1,130
88,104,70832,1,0,0:0:0:0:
296,296,71332,1,0,0:0:0:0:
32,192,71832,2,0,P|88:144|168:152,1,130
272,200,72332,1,0,0:0:0:0:
440,272,72832,6,0,P|448:208|400:120,1,130
288,112,73332,2,0,P|232:168|240:224,1,130
320,328,73832,2,0,P|256:336|192:280,1,130
128,176,74332,2,0,P|144:112|208:104,1,130
328,160,74832,1,0,0:0:0:0:
96,328,75332,6,0,P|80:240|112:208,1,130
240,184,75832,1,0,0:0:0:0:
352,272,76082,1,0,0:0:0:0:
424,144,76332,2,0,B|408:80|408:80|328:56,1,130
208,104,76832,2,0,P|200:168|224:240,1,130
328,320,77332,2,0,P|352:256|336:176,1,130
216,128,77832,6,0,P|112:128|80:160,1,130
168,264,78332,2,0,P|248:296|304:272,1,130
352,160,78832,2,0,P|376:104|456:96,1,130
256,192,79332,12,0,81082,0:0:0:0:
288,80,81332,6,0,P|336:96|360:120,1,65
336,176,81582,2,0,P|392:216|408:216,1,65
456,192,81832,2,0,P|456:256|376:304,1,130
280,232,82332,2,0,P|256:152|184:128,1,130
80,144,82832,2,0,L|80:288,1,130
224,288,83332,6,0,L|232:216,1,65
296,192,83582,2,0,L|264:120,1,65
288,64,83832,2,0,P|224:64|152:120,1,130
80,208,84332,2,0,P|48:128|72:72,1,130
200,48,84832,2,0,L|352:48,1,130
456,112,85332,6,0,L|448:184,1,65
376,176,85582,2,0,L|384:248,1,65
408,312,85832,2,0,P|344:336|264:304,1,130
160,256,86332,2,0,B|168:184|168:184|224:152,1,130
344,96,86832,2,0,L|184:96,1,130
80,136,87332,6,0,L|104:200,1,65
176,184,87582,2,0,L|160:256,1,65
112,304,87832,2,0,P|184:320|248:296,1,130
336,208,88332,2,0,B|320:136|400:112,1,130
448,248,88832,2,0,P|368:280|328:264,1,130
288,320,90332,5,0,0:0:0:0:
208,200,90582,1,0,0:0:0:0:
352,192,90832,2,0,L|272:88,1,130
136,48,91332,2,0,P|104:128|128:200,1,130
256,184,91832,2,0,P|256:264|208:312,1,130
88,320,92332,5,0,0:0:0:0:
104,176,92582,1,0,0:0:0:0:
240,216,92832,2,0,L|272:88,1,130
400,32,93332,2,0,P|448:120|432:144,1,130
312,200,93832,2,0,P|320:272|384:320,1,130
440,192,94332,6,0,B|416:152|416:152|320:152,1,130
200,208,94832,2,0,B|128:208|128:208|88:128,1,130
200,48,95332,2,0,P|264:64|280:136,2,130
72,112,96082,5,0,0:0:0:0:
56,256,96332,2,0,P|104:336|152:344,1,130
272,304,96832,2,0,P|256:240|280:160,1,130
352,56,97332,5,0,0:0:0:0:
352,56,97582,2,0,P|408:128|400:184,1,130
128,232,98332,2,0,B|72:208|72:208|96:112,1,130
208,64,98832,1,0,0:0:0:0:
248,200,99082,1,0,0:0:0:0:
200,336,99332,2,0,P|296:344|400:296,1,195
448,184,100332,5,0,0:0:0:0:
344,88,100582,1,0,0:0:0:0:
248,192,100832,1,0,0:0:0:0:
168,72,101082,1,0,0:0:0:0:
96,192,101332,2,0,B|128:320|280:280,1,195
368,184,102332,6,0,P|368:96|400:64,1,130
472,192,102832,2,0,B|464:256|464:256|400:304,1,130
272,264,103332,2,0,B|280:200|280:200|336:160,1,130
448,80,103832,2,0,P|384:56|328:80,1,130
272,208,104332,6,0,B|208:264|144:208,1,130
40,128,104832,2,0,L|40:280,1,130
168,328,105332,2,0,P|224:248|280:264,2,130
112,272,106332,6,0,P|104:208|160:144,1,130
264,96,106832,1,0,0:0:0:0:
264,96,107082,2,0,P|272:168|320:224,1,130
424,296,107582,2,0,L|272:296,1,130
152,264,108082,5,0,0:0:0:0:
152,264,108332,2,0,P|144:184|176:136,1,130
288,64,108832,2,0,P|216:40|160:80,1,130
72,168,109332,1,0,0:0:0:0:
72,168,109582,2,0,P|96:216|192:224,1,130
304,208,110082,5,0,0:0:0:0:
360,80,110332,1,0,0:0:0:0:
216,64,110582,2,0,P|176:120|184:192,1,130
272,288,111082,2,0,P|216:296|144:256,1,130
88,136,111582,2,0,B|168:136|168:136|224:176,1,130
296,280,112082,5,0,0:0:0:0:
296,280,112332,2,0,P|304:200|368:168,1,130
472,120,112832,1,0,0:0:0:0:
472,120,113082,2,0,B|472:192|472:192|432:256,2,130
352,40,113832,1,0,0:0:0:0:
296,168,114082,6,0,P|264:224|176:240,1,130
72,200,114582,1,0,0:0:0:0:
152,80,114832,1,0,0:0:0:0:
152,80,115082,6,0,P|232:96|264:144,1,130
328,256,115582,2,0,P|368:312|440:304,1,130
448,168,116082,6,0,P|424:104|368:80,1,130
232,120,116582,2,0,B|192:152|192:152|192:240,1,130
464,312,117332,2,0,P|432:328|320:280,1,130
216,240,117832,2,0,P|272:224|360:240,1,130
256,192,118332,12,0,120082,0:0:0:0:
240,208,120332,6,0,P|272:168|296:160,1,65
336,208,120582,2,0,P|384:160|384:144,1,65
440,120,120832,2,0,P|360:80|320:96,1,130
208,176,121332,6,0,L|208:248,1,65
272,280,121582,2,0,L|232:336,1,65
168,344,121832,2,0,P|120:272|136:208,1,130
208,120,122332,6,0,L|272:144,1,65
288,216,122582,2,0,L|360:240,1,65
400,288,122832,2,0,P|448:232|440:168,1,130
312,120,123332,2,0,L|168:120,1,130
72,216,123832,6,0,P|80:136|120:88,1,130
240,152,124332,2,0,P|232:232|280:280,1,130
400,312,124832,2,0,L|472:320,2,65
264,280,125332,2,0,P|192:264|144:208,1,130
64,120,125832,5,0,0:0:0:0:
192,184,126082,1,0,0:0:0:0:
168,40,126332,2,0,L|304:96,1,130
408,168,126832,1,0,0:0:0:0:
304,272,127082,1,0,0:0:0:0:
208,168,127332,2,0,L|104:256,1,130
216,344,127832,2,0,P|280:360|344:328,1,130
400,208,128332,6,0,L|368:144,1,65
304,168,128582,2,0,L|296:104,1,65
256,40,128832,2,0,P|192:56|136:128,1,130
72,224,129332,6,0,P|136:264|144:264,1,65
176,216,129582,2,0,P|224:232|248:264,1,65
288,288,129832,2,0,P|240:336|176:328,1,130
56,256,130332,5,0,0:0:0:0:
96,120,130582,1,0,0:0:0:0:
224,192,130832,2,0,P|272:224|304:216,2,65
136,80,131332,2,0,B|200:64|240:72|280:104,1,130
376,176,131832,6,0,P|384:240|320:304,1,130
208,264,132332,2,0,P|192:192|224:120,1,130
344,96,132832,2,0,P|272:56|216:64,1,130
88,104,133332,2,0,P|112:152|192:168,1,130
320,200,133832,5,0,0:0:0:0:
320,200,134082,2,0,P|272:256|200:256,1,130
80,216,134582,1,0,0:0:0:0:
80,216,134832,2,0,L|88:72,1,130
224,56,135332,1,0,0:0:0:0:
344,312,135832,1,0,0:0:0:0:
56,304,136332,6,0,P|104:208|136:208,1,130
256,232,136832,2,0,P|328:224|384:176,1,130
448,64,137332,1,0,0:0:0:0:
160,72,137832,2,0,P|104:104|88:200,1,130
168,272,138332,2,0,P|192:200|232:168,1,130
368,112,138832,5,0,0:0:0:0:
368,112,139082,2,0,L|360:264,1,130
240,312,139582,1,0,0:0:0:0:
104,272,139832,2,0,P|72:192|96:144,1,130
208,88,140332,6,0,B|272:88|272:88|312:160,1,130
296,288,140832,2,0,B|216:280|200:192,2,130
464,272,141832,1,0,0:0:0:0:
280,56,142332,6,0,P|224:120|224:184,1,130
280,296,142832,6,0,B|208:312|208:312|144:256,1,130
40,208,143332,2,0,P|88:184|112:88,1,130
232,24,143832,2,0,P|304:48|328:120,1,130
256,192,144332,12,0,148332,0:0:0:0:
136,232,152332,6,0,B|232:232|232:232|288:120,1,195.00000743866
472,56,153332,2,0,B|464:144|448:208|336:176,1,195.00000743866
184,72,154332,2,0,B|112:72|64:144|112:224,1,195.00000743866
152,304,155082,1,0,0:0:0:0:
152,304,155332,2,0,P|208:240|208:160,1,146.250005578995
88,96,156332,6,0,B|152:88|152:88|248:144,1,146.250005578995
352,224,157082,1,0,0:0:0:0:
272,296,157332,2,0,P|184:312|112:224,1,195.00000743866
192,168,158082,2,0,B|248:144|288:224|392:168,1,195.00000743866
480,96,159082,2,0,P|376:64|288:96,1,195.00000743866
120,224,160332,6,0,P|192:200|224:152,1,97.50000371933
272,104,160832,1,0,0:0:0:0:
352,176,161082,2,0,P|424:208|464:192,1,97.50000371933
400,304,161582,2,0,P|328:296|304:256,1,97.50000371933
240,208,162082,6,0,B|200:192|200:192|120:216,2,97.50000371933
344,168,162832,2,0,P|416:120|496:192,1,195.00000743866
424,256,163582,6,0,P|368:320|264:288,1,195.00000743866
184,232,164332,1,0,0:0:0:0:
184,232,164582,6,0,P|128:192|120:120,1,130
248,80,165082,1,0,0:0:0:0:
248,80,165332,2,0,P|312:128|328:192,1,130
296,312,165832,1,0,0:0:0:0:
160,304,166082,5,0,0:0:0:0:
160,304,166332,2,0,P|112:272|120:192,1,130
192,88,166832,2,0,P|264:80|320:104,1,130
432,184,167332,2,0,P|408:216|296:208,1,130
256,192,168082,12,0,171082,0:0:0:0:
104,232,172332,6,0,L|112:160,1,65
184,176,172582,2,0,L|168:112,1,65
104,80,172832,2,0,P|160:48|240:64,1,130
344,128,173332,6,0,L|328:200,1,65
392,224,173582,2,0,L|360:280,1,65
344,352,173832,2,0,P|264:336|248:272,1,130
168,176,174332,6,0,L|232:112,1,65
200,64,174582,2,0,L|280:48,1,65
328,24,174832,2,0,P|392:56|376:136,1,130
344,240,175332,2,0,L|320:304,2,65
336,96,175832,6,0,P|272:120|224:192,1,130
152,288,176332,2,0,P|112:216|120:168,1,130
232,80,176832,1,0,0:0:0:0:
304,200,177082,2,0,P|384:232|448:208,1,130
432,80,177832,5,0,0:0:0:0:
328,176,178082,1,0,0:0:0:0:
248,56,178332,2,0,P|176:128|176:160,1,130
208,288,178832,2,0,B|168:304|112:280|112:200,1,130
152,88,179332,2,0,P|232:64|288:88,1,130
376,176,179832,1,0,0:0:0:0:
136,328,180332,6,0,L|112:248,1,65
184,240,180582,2,0,L|136:176,1,65
72,176,180832,2,0,P|48:240|80:304,1,130
208,320,181332,6,0,L|272:288,1,65
320,336,181582,2,0,L|336:256,1,65
296,208,181832,2,0,P|400:192|424:216,1,130
448,344,182332,6,0,B|400:304|400:304|328:312,1,130
192,312,182832,2,0,P|144:256|168:176,1,130
288,216,183332,2,0,P|376:200|400:168,1,130
464,40,183832,5,0,0:0:0:0:
464,40,184082,2,0,P|400:48|328:96,1,130
120,256,184832,2,0,P|64:208|56:136,1,130
152,48,185332,1,0,0:0:0:0:
272,312,185832,6,0,P|320:224|304:176,1,130
224,88,186332,1,0,0:0:0:0:
136,200,186582,1,0,0:0:0:0:
56,80,186832,2,0,P|184:64|208:72,1,130
320,104,187332,2,0,L|368:168,2,65
176,88,187832,1,0,0:0:0:0:
48,344,188332,6,0,P|88:264|152:240,1,130
256,296,188832,1,0,0:0:0:0:
280,152,189082,1,0,0:0:0:0:
400,224,189332,2,0,P|424:160|424:80,1,130
288,64,189832,6,0,P|200:80|152:128,1,130
128,240,190332,2,0,P|248:272|280:272,1,130
400,280,190832,2,0,B|352:328|352:328|280:336,1,130
144,320,191332,2,0,B|144:256|144:256|96:192,1,130
16,88,191832,2,0,P|80:48|168:80,1,130
240,152,192332,6,0,P|288:216|360:224,1,130
472,256,192832,1,0,0:0:0:0:
344,312,193082,1,0,0:0:0:0:
200,320,193332,2,0,B|160:264|160:264|192:184,1,130
280,96,193832,6,0,L|120:96,1,130
64,208,194332,2,0,P|96:288|152:320,1,130
272,320,194832,1,0,0:0:0:0:
376,272,195332,6,0,P|344:216|344:152,1,130
416,32,195832,1,0,0:0:0:0:
272,56,196082,1,0,0:0:0:0:
168,152,196332,6,0,P|240:192|320:200,1,130
424,232,196832,1,0,0:0:0:0:
296,296,197082,1,0,0:0:0:0:
152,312,197332,2,0,P|96:288|104:224,1,130
200,128,197832,6,0,P|272:128|328:184,1,130
360,296,198332,2,0,P|280:256|280:224,1,130
376,120,198832,2,0,P|312:64|248:80,1,130
152,144,199332,2,0,P|136:208|160:272,1,130
296,280,199832,2,0,P|320:160|304:152,1,130
216,96,200332,5,0,0:0:0:0:
216,96,200582,2,0,L|216:240,1,130
136,344,201082,2,0,P|80:360|32:304,1,130
192,80,201832,2,0,P|280:64|328:104,1,130
416,176,202332,1,0,0:0:0:0:
168,320,202832,1,0,0:0:0:0:
240,40,203332,1,0,0:0:0:0:
352,272,204332,6,0,L|272:248,1,65
288,184,204582,2,0,L|208:192,1,65
152,216,204832,2,0,P|152:304|208:336,1,130
320,328,205332,6,0,L|344:248,1,65
408,264,205582,2,0,L|392:200,1,65
352,144,205832,2,0,P|224:176|208:192,1,130
120,264,206332,6,0,L|96:192,1,65
32,176,206582,2,0,L|56:88,1,65
16,48,206832,2,0,P|104:32|152:80,1,130
232,152,207332,6,0,L|224:232,1,65
160,248,207582,2,0,L|192:312,1,65
256,320,207832,2,0,P|312:248|304:192,1,130
232,96,208332,6,0,L|312:80,1,65
304,152,208582,2,0,L|368:152,1,65
432,120,208832,2,0,P|440:208|384:256,1,130
288,304,209332,6,0,L|248:240,1,65
304,200,209582,2,0,L|240:160,1,65
176,168,209832,2,0,P|184:104|256:88,1,130
376,120,210332,6,0,L|376:216,1,65
440,216,210582,2,0,L|400:272,1,65
368,328,210832,2,0,P|304:296|296:224,1,130
320,104,211332,5,0,0:0:0:0:
176,128,211582,1,0,0:0:0:0:
216,264,211832,1,0,0:0:0:0:
360,240,212082,2,0,L|344:168,1,65
