osu file format v14

[General]
AudioFilename: audio.mp3
AudioLeadIn: 0
PreviewTime: 188036
Countdown: 0
SampleSet: Normal
StackLeniency: 0.4
Mode: 0
LetterboxInBreaks: 0
WidescreenStoryboard: 1

[Editor]
DistanceSpacing: 1.2
BeatDivisor: 4
GridSize: 4
TimelineZoom: 1.900001

[Metadata]
Title:Los! Los! Los!
TitleUnicode:Los! Los! Los!
Artist:Tanya Degurechaff (CV: Aoi Yuuki)
ArtistUnicode:Tanya Degurechaff (CV: Aoi Yuuki)
Creator:Ali-
Version:Rukaru's Normal
Source:幼女戦記
Tags:losloslos youjo senki loli hitler meme jumps rukaru okinami alitomy raheta_adi hard help me
BeatmapID:1355853
BeatmapSetID:596454

[Difficulty]
HPDrainRate:3.5
CircleSize:3
OverallDifficulty:3
ApproachRate:5
SliderMultiplier:0.800000005960464
SliderTickRate:1

[Events]
//Background and Video events
0,0,"bg.jpg",0,0
//Break Periods
2,148486,151086
2,152486,159086
//Storyboard Layer 0 (Background)
//Storyboard Layer 1 (Fail)
//Storyboard Layer 2 (Pass)
//Storyboard Layer 3 (Foreground)
//Storyboard Sound Samples

[TimingPoints]
1286,250,4,1,1,90,1,0
1286,-100,4,1,2,90,0,0
5286,-100,4,1,2,90,0,0
9036,-100,4,1,1,90,0,0
9286,-100,4,1,1,90,0,0
11286,-100,4,1,1,90,0,1
13036,-100,4,1,1,85,0,0
13098,-100,4,1,1,90,0,0
13286,-100,4,1,2,80,0,1
17286,-100,4,1,1,90,0,1
20286,-100,4,1,2,90,0,1
21286,-100,4,1,1,90,0,0
23286,-100,4,1,1,90,0,0
25286,-100,4,1,2,90,0,0
29286,-100,4,1,2,80,0,0
29536,-100,4,1,2,90,0,0
33286,-100,4,1,2,75,0,0
37036,-100,4,1,1,90,0,0
37286,-100,4,1,2,90,0,0
43286,-100,4,1,2,90,0,0
45286,-100,4,1,2,70,0,0
49286,-100,4,1,1,75,0,0
51286,-100,4,1,2,90,0,0
51536,-100,4,1,2,80,0,0
51786,-100,4,1,2,90,0,0
52036,-100,4,1,2,80,0,0
52286,-100,4,1,2,90,0,0
52536,-100,4,1,2,80,0,0
52786,-100,4,1,2,90,0,0
53036,-100,4,1,2,80,0,0
53286,-100,4,1,1,60,0,0
54786,-100,4,1,1,90,0,0
55036,-100,4,1,1,90,0,0
55286,-100,4,1,2,90,0,1
61286,-100,4,1,2,90,0,1
62286,-100,4,1,2,90,0,1
62786,-100,4,1,2,90,0,0
63286,-100,4,1,2,90,0,1
70286,-100,4,1,2,85,0,1
70786,-100,4,1,2,80,0,0
71286,-100,4,1,2,90,0,1
75036,-100,4,1,1,90,0,0
75286,-100,4,1,2,80,0,1
79036,-100,4,3,3,90,0,1
79286,-100,4,3,2,90,0,1
80036,-100,4,1,2,85,0,0
80286,-100,4,1,2,85,0,0
80786,-100,4,1,1,85,0,0
81286,-100,4,1,1,90,0,0
84786,-100,4,1,1,75,0,0
85286,-100,4,1,1,85,0,1
88286,-100,4,1,1,85,0,1
88536,-100,4,1,1,75,0,1
88786,-100,4,1,2,85,0,1
89036,-100,4,1,1,85,0,1
89286,-100,4,1,1,90,0,0
89786,-100,4,1,1,90,0,0
90286,-100,4,1,2,90,0,0
93286,-100,4,1,1,90,0,0
93786,-100,4,1,2,90,0,0
96286,-100,4,1,2,90,0,0
97286,-100,4,1,2,90,0,0
97536,-100,4,1,2,90,0,0
97786,-100,4,1,2,90,0,0
98036,-100,4,1,2,90,0,0
98286,-100,4,1,1,80,0,0
102286,-100,4,3,3,70,0,0
102723,-100,4,3,3,20,0,0
102786,-100,4,3,3,90,0,0
103286,-100,4,3,3,70,0,0
103723,-100,4,3,3,20,0,0
103786,-100,4,3,3,90,0,0
104286,-100,4,3,3,70,0,0
104723,-100,4,3,3,20,0,0
104786,-100,4,3,3,90,0,0
105286,-100,4,3,3,70,0,0
105723,-100,4,3,3,20,0,0
105786,-100,4,3,3,90,0,0
106286,-100,4,1,2,90,0,0
106786,-100,4,1,2,90,0,0
107286,-100,4,1,2,90,0,0
107786,-100,4,1,2,90,0,0
108286,-100,4,1,2,90,0,0
108786,-100,4,1,2,90,0,0
109286,-100,4,1,2,90,0,0
110286,-100,4,1,1,90,0,0
113286,-100,4,1,2,90,0,0
116286,-100,4,1,2,90,0,0
118286,-100,4,1,2,90,0,1
119786,-100,4,1,2,80,0,0
120286,-100,4,1,2,90,0,1
126286,-100,4,1,2,90,0,1
127286,-100,4,3,2,85,0,1
127786,-100,4,3,2,75,0,0
128286,-100,4,1,2,90,0,1
134286,-100,4,3,2,90,0,1
135786,-100,4,3,1,90,0,0
136286,-100,4,1,2,90,0,1
137786,-100,4,1,2,90,0,1
138286,-100,4,1,2,90,0,1
140036,-100,4,1,1,90,0,0
140286,-100,4,1,2,90,0,1
142286,-100,4,1,2,90,0,1
143286,-100,4,1,1,80,0,1
143786,-100,4,1,1,70,0,1
144286,-100,4,3,2,85,0,0
144536,-100,4,1,2,60,0,0
152286,-100,4,1,2,100,0,0
159286,-100,4,1,2,60,0,0
160286,-100,4,1,2,90,0,1
162161,-100,4,1,1,90,0,0
162286,-100,4,1,2,90,0,1
163786,-100,4,3,2,90,0,1
164286,-100,4,1,1,90,0,0
168286,-100,4,1,1,80,0,1
169286,-100,4,1,1,90,0,1
170286,-100,4,1,2,90,0,0
171276,250,4,1,1,90,1,0
171776,-100,4,1,1,90,0,0
172026,-100,4,1,1,90,0,0
172276,-100,4,1,2,80,0,1
178276,-100,4,1,1,90,0,1
179276,-100,4,3,2,90,0,1
179776,-100,4,1,2,90,0,0
180276,-100,4,1,2,90,0,1
186276,-100,4,1,2,90,0,1
187276,-100,4,1,2,90,0,1
187776,-100,4,1,1,90,0,0
188276,-100,4,3,2,75,0,1
192026,-100,4,3,1,75,0,0
192276,-100,4,3,2,85,0,1
195776,-100,4,3,2,80,0,0
196276,-100,4,1,2,90,0,1
198276,-100,4,1,2,90,0,1
200026,-100,4,1,2,90,0,0
200276,-100,4,3,2,80,0,1
202276,-100,4,3,1,90,0,0
204276,-100,4,1,2,90,0,0
208338,-100,4,1,2,90,0,1
212026,-100,4,1,2,90,0,0

[Colours]
Combo1 : 197,1,6
Combo2 : 147,147,147
Combo3 : 80,39,72
Combo4 : 254,204,167
SliderBorder : 245,190,90
SliderTrackOverride : 20,20,20

[HitObjects]
495,78,1286,6,0,B|391:52|344:111|344:111|303:92|303:92|256:129|191:103,1,320.000002384186
5,86,2786,2,0,L|12:6,1,80.0000005960464
107,20,3286,2,0,B|129:86|96:133|96:133|156:173|143:246|143:246|99:238|98:185,1,320.000002384186
287,158,4786,2,0,P|318:157|367:186,1,80.0000005960464
445,224,5286,6,0,L|458:65,1,160.000001192093
287,158,6286,2,0,L|300:317,1,160.000001192093
161,184,7286,2,0,P|186:109|168:31,1,160.000001192093
11,141,8286,2,0,B|4:185|4:185|26:307,1,160.000001192093
201,374,9286,38,0,P|240:370|274:349,1,80.0000005960464
368,371,9786,2,0,L|360:282,1,80.0000005960464
455,307,10286,2,0,L|461:219,1,80.0000005960464
381,172,10786,1,0,0:0:0:0:
199,234,11286,6,0,P|159:245|115:231,1,80.0000005960464
156,145,11786,2,0,L|253:154,1,80.0000005960464
320,107,12286,2,0,P|306:78|303:24,1,80.0000005960464
396,9,12786,1,0,0:0:0:0:
461,189,13286,6,0,L|298:202,1,160.000001192093
203,185,14036,1,0,0:0:0:0:
127,244,14286,2,0,P|134:291|130:329,1,80.0000005960464
41,356,14786,2,0,P|34:316|36:276,1,80.0000005960464
55,182,15286,2,0,P|60:138|48:93,2,80.0000005960464
127,244,16036,1,0,0:0:0:0:
219,268,16286,2,0,L|389:255,1,160.000001192093
472,277,17036,1,0,0:0:0:0:
486,182,17286,6,0,P|496:128|464:58,2,120.00000089407
391,164,18286,1,0,0:0:0:0:
304,205,18536,1,0,0:0:0:0:
228,146,18786,2,0,P|220:109|230:64,1,80.0000005960464
135,97,19286,2,0,P|58:105|1:53,1,160.000001192093
92,7,20036,1,0,0:0:0:0:
135,97,20286,38,0,B|147:139|127:180|127:180|106:213|117:252,1,160.000001192093
282,347,21286,2,0,P|269:270|206:225,1,160.000001192093
29,298,22286,2,0,P|25:336|43:375,2,80.0000005960464
219,320,23286,6,0,P|295:334|363:296,1,160.000001192093
179,242,24286,2,0,P|136:237|101:254,2,80.0000005960464
335,130,25286,6,0,L|419:136,1,80.0000005960464
383,44,25786,2,0,L|299:50,1,80.0000005960464
207,39,26286,2,0,P|218:108|207:162,2,120.00000089407
114,63,27286,2,0,L|32:61,1,80.0000005960464
3,152,27786,2,0,P|14:188|15:242,1,80.0000005960464
7,324,28286,2,0,P|81:298|158:316,1,160.000001192093
308,195,29286,6,0,P|230:208|157:177,1,160.000001192093
116,89,30036,1,0,0:0:0:0:
186,23,30286,2,0,B|265:11|265:11|308:29,2,120.00000089407
238,103,31286,2,0,P|313:121|380:81,1,160.000001192093
476,246,32286,2,0,P|413:202|336:215,1,160.000001192093
190,340,33286,38,0,B|139:377|103:376|74:329|74:329|90:291|90:291|59:253|88:197|88:197|111:211|119:243,1,320.000002384186
288,308,34786,2,0,L|376:302,1,80.0000005960464
445,351,35286,2,0,B|408:319|412:266|454:233|454:233|436:198|446:162|446:162|410:188|374:185|347:159,1,320.000002384186
178,63,36786,2,0,P|136:62|101:79,1,80.0000005960464
9,55,37286,6,0,L|21:217,1,160.000001192093
73,294,38036,1,0,0:0:0:0:
141,226,38286,2,0,P|181:221|224:233,1,80.0000005960464
286,299,38786,1,0,0:0:0:0:
477,304,39286,38,0,L|465:142,1,160.000001192093
413,65,40036,1,0,0:0:0:0:
345,133,40286,2,0,P|305:138|262:126,1,80.0000005960464
200,60,40786,1,0,0:0:0:0:
299,224,41286,6,0,L|294:313,1,80.0000005960464
210,350,41786,2,0,L|205:270,1,80.0000005960464
136,202,42286,1,0,0:0:0:0:
204,134,42536,1,0,0:0:0:0:
117,91,42786,1,0,0:0:0:0:
297,25,43286,38,0,P|335:15|373:25,1,80.0000005960464
414,112,43786,2,0,P|375:122|337:112,1,80.0000005960464
280,190,44286,1,0,0:0:0:0:
204,134,44536,1,0,0:0:0:0:
110,148,44786,1,0,0:0:0:0:
18,316,45286,6,0,P|79:364|158:362,1,160.000001192093
246,324,46036,1,0,0:0:0:0:
335,289,46286,2,0,P|420:281|488:332,1,160.000001192093
361,169,47286,38,0,P|346:132|346:92,1,80.0000005960464
440,111,47786,2,0,L|447:190,1,80.0000005960464
390,268,48286,2,0,P|312:251|239:288,1,160.000001192093
50,284,49286,6,0,L|42:195,1,80.0000005960464
137,217,49786,2,0,L|145:128,1,80.0000005960464
235,165,50286,2,0,P|224:251|254:322,1,160.000001192093
339,352,51036,1,0,0:0:0:0:
426,312,51286,37,0,0:0:0:0:
376,126,51786,1,0,0:0:0:0:
243,280,52286,1,0,0:0:0:0:
496,246,52786,1,0,0:0:0:0:
448,46,53286,6,0,B|383:13|319:45|319:45|292:46|292:46|274:78|274:78|243:48|203:49|165:85,1,320.000002384186
165,84,55286,6,0,B|174:124|174:124|167:162,1,80.0000005960464
118,246,55786,1,0,0:0:0:0:
162,331,56036,1,0,0:0:0:0:
211,246,56286,6,0,L|302:256,1,80.0000005960464
381,224,56786,1,0,0:0:0:0:
464,270,57036,1,0,0:0:0:0:
411,350,57286,38,0,P|371:356|329:336,1,80.0000005960464
290,254,57786,2,0,L|294:169,1,80.0000005960464
230,101,58286,1,0,0:0:0:0:
87,229,58786,2,0,P|45:233|6:213,1,80.0000005960464
67,139,59286,6,0,L|241:155,1,160.000001192093
315,188,60036,1,0,0:0:0:0:
394,136,60286,2,0,P|360:205|386:278,1,160.000001192093
455,211,61036,1,0,0:0:0:0:
490,121,61286,38,0,L|477:32,1,80.0000005960464
381,37,61786,2,0,P|342:33|303:41,1,80.0000005960464
232,107,62286,2,0,P|162:139|88:113,1,160.000001192093
250,9,63286,6,0,L|262:91,1,80.0000005960464
326,159,63786,2,0,L|314:241,1,80.0000005960464
244,304,64286,38,0,P|211:284|156:286,1,80.0000005960464
79,313,64786,2,0,P|43:313|0:278,1,80.0000005960464
40,199,65286,6,0,L|128:183,1,80.0000005960464
208,219,65786,1,0,0:0:0:0:
194,123,66036,1,0,0:0:0:0:
279,166,66286,38,0,P|356:171|409:115,1,160.000001192093
355,33,67036,1,0,0:0:0:0:
263,62,67286,6,0,B|197:53|197:53|152:62|152:62|92:56,1,160.000001192093
15,21,68036,1,0,0:0:0:0:
34,114,68286,2,0,B|54:151|52:191|25:224|25:224|30:280,1,160.000001192093
71,352,69036,1,0,0:0:0:0:
141,287,69286,38,0,P|180:290|222:322,1,80.0000005960464
299,355,69786,2,0,P|344:353|382:324,1,80.0000005960464
311,259,70286,2,0,P|264:200|298:132,1,160.000001192093
468,43,71286,6,0,B|359:57|359:57|301:40,1,160.000001192093
222,80,72036,1,0,0:0:0:0:
126,62,72286,2,0,P|112:149|154:208,1,160.000001192093
329,273,73286,38,0,P|343:186|301:127,1,160.000001192093
224,181,74036,1,0,0:0:0:0:
132,151,74286,2,0,B|8:156|8:156|51:178,1,160.000001192093
210,286,75286,6,0,P|249:288|283:267,1,80.0000005960464
317,177,75786,2,0,L|306:86,1,80.0000005960464
389,47,76286,2,0,P|419:119|404:197,1,160.000001192093
242,301,77286,38,0,P|211:228|226:150,1,160.000001192093
52,68,78286,2,0,L|61:235,1,160.000001192093
242,363,79286,6,0,P|256:318|250:273,1,80.0000005960464
161,313,79786,2,0,L|169:228,1,80.0000005960464
255,190,80286,2,0,L|248:101,1,80.0000005960464
199,27,80786,1,0,0:0:0:0:
339,158,81286,6,0,P|416:158|468:100,1,160.000001192093
282,51,82286,2,0,L|199:58,1,80.0000005960464
107,42,82786,1,0,0:0:0:0:
3,203,83286,6,0,P|85:211|139:162,1,160.000001192093
319,226,84286,2,0,L|316:309,1,80.0000005960464
396,364,84786,2,0,L|416:284,1,80.0000005960464
421,190,85286,1,0,0:0:0:0:
337,144,85536,37,0,0:0:0:0:
246,176,85786,2,0,P|194:187|165:177,1,80.0000005960464
129,91,86286,2,0,P|199:57|272:85,1,160.000001192093
234,273,87286,6,0,L|241:357,1,80.0000005960464
149,323,87786,2,0,P|152:276|139:242,1,80.0000005960464
58,295,88286,2,0,B|37:240|37:240|56:139,1,160.000001192093
325,57,90286,38,0,L|317:144,1,80.0000005960464
246,201,90786,2,0,P|228:167|193:149,1,80.0000005960464
103,185,91286,2,0,P|45:188|-2:153,2,120.00000089407
75,92,92286,6,0,L|71:12,1,80.0000005960464
159,48,92786,2,0,P|199:51|247:40,1,80.0000005960464
330,68,93286,2,0,P|405:56|455:114,1,160.000001192093
289,211,94286,38,0,B|179:196|179:196|122:203,1,160.000001192093
52,258,95036,1,0,0:0:0:0:
90,346,95286,2,0,P|144:369|202:357,2,120.00000089407
155,275,96286,6,0,L|162:194,1,80.0000005960464
251,162,96786,2,0,P|252:205|275:233,1,80.0000005960464
346,168,97286,2,0,P|432:177|465:243,1,160.000001192093
405,311,98036,1,0,0:0:0:0:
309,298,98286,38,0,B|268:303|268:303|233:295|233:295|245:340|226:359|191:377|145:375|124:341|131:301|131:301|75:313,1,320.000002384186
19,128,99786,2,0,P|7:91|11:51,1,80.0000005960464
104,24,100286,6,0,B|163:33|185:91|157:144|157:144|172:124|193:124|193:124|164:152|152:200|182:233,1,320.000002384186
355,332,101786,2,0,P|367:294|358:256,1,80.0000005960464
268,292,102286,6,0,L|106:306,1,160.000001192093
271,204,103286,22,0,L|109:218,1,160.000001192093
268,107,104286,6,0,L|430:121,1,160.000001192093
265,18,105286,22,0,L|427:32,1,160.000001192093
304,182,106286,6,0,P|267:194|230:181,1,80.0000005960464
139,212,106786,2,0,L|149:304,1,80.0000005960464
54,264,107286,2,0,P|93:197|75:121,1,160.000001192093
245,32,108286,6,0,L|329:39,1,80.0000005960464
413,75,108786,1,0,0:0:0:0:
343,141,109036,1,0,0:0:0:0:
424,192,109286,2,0,P|422:239|330:299,1,160.000001192093
250,255,110036,1,0,0:0:0:0:
172,312,110286,38,0,L|8:301,1,160.000001192093
20,205,111036,1,0,0:0:0:0:
105,159,111286,2,0,P|120:103|101:47,2,120.00000089407
188,208,112286,6,0,L|267:200,1,80.0000005960464
235,110,112786,2,0,L|314:117,1,80.0000005960464
368,196,113286,2,0,P|386:231|352:348,1,160.000001192093
266,313,114036,1,0,0:0:0:0:
173,287,114286,38,0,L|14:308,1,160.000001192093
45,216,115036,1,0,0:0:0:0:
140,203,115286,2,0,P|214:200|254:242,2,120.00000089407
77,129,116286,5,0,0:0:0:0:
304,53,116786,1,0,0:0:0:0:
205,272,117286,1,0,0:0:0:0:
137,41,117786,1,0,0:0:0:0:
355,139,118286,38,0,B|415:178|490:144|486:73|486:73|441:80|410:53|410:53|369:62|369:62|331:52|331:52|285:60|246:103|265:163,1,480.000003576278
261,148,120286,22,0,B|221:154|221:154|172:139,1,80.0000005960464
91,114,120786,2,0,L|100:200,1,80.0000005960464
84,288,121286,6,0,B|124:282|124:282|173:297,1,80.0000005960464
250,341,121786,1,0,0:0:0:0:
245,246,122036,1,0,0:0:0:0:
331,290,122286,38,0,P|373:293|408:277,1,80.0000005960464
479,214,122786,2,0,L|474:131,1,80.0000005960464
414,59,123286,1,0,0:0:0:0:
239,137,123786,2,0,L|243:221,1,80.0000005960464
149,239,124286,6,0,P|143:162|72:113,1,160.000001192093
60,209,125036,1,0,0:0:0:0:
78,303,125286,2,0,P|149:333|219:299,1,160.000001192093
284,228,126036,1,0,0:0:0:0:
372,265,126286,38,0,L|368:347,1,80.0000005960464
457,380,126786,2,0,L|460:300,1,80.0000005960464
449,204,127286,2,0,P|425:173|440:55,1,160.000001192093
249,106,128286,6,0,L|157:100,1,80.0000005960464
198,192,128786,2,0,L|290:186,1,80.0000005960464
341,114,129286,38,0,P|351:76|343:38,1,80.0000005960464
249,17,129786,2,0,P|238:55|246:93,1,80.0000005960464
282,182,130286,5,0,0:0:0:0:
236,266,130536,1,0,0:0:0:0:
284,349,130786,1,0,0:0:0:0:
334,267,131036,1,0,0:0:0:0:
411,323,131286,38,0,P|484:307|503:232,1,160.000001192093
411,205,132036,1,0,0:0:0:0:
318,177,132286,6,0,B|266:167|266:167|212:178|212:178|160:168,1,160.000001192093
76,214,133036,1,0,0:0:0:0:
7,146,133286,2,0,P|55:84|135:71,1,160.000001192093
223,99,134036,1,0,0:0:0:0:
314,67,134286,2,0,P|372:59|422:89,2,120.00000089407
353,155,135286,2,0,L|340:234,1,80.0000005960464
431,264,135786,2,0,L|444:343,1,80.0000005960464
346,342,136286,38,0,P|274:314|201:344,1,160.000001192093
44,232,137286,2,0,L|211:241,1,160.000001192093
394,264,138286,6,0,P|419:190|390:117,1,160.000001192093
295,131,139036,1,0,0:0:0:0:
204,99,139286,2,0,B|154:68|91:108|91:108|43:138,1,160.000001192093
138,302,140286,38,0,P|145:263|147:223,1,80.0000005960464
239,253,140786,2,0,L|333:241,1,80.0000005960464
300,337,141286,2,0,P|372:366|444:337,1,160.000001192093
418,146,142286,6,0,P|345:116|273:145,1,160.000001192093
126,269,143286,2,0,P|131:308|116:350,1,80.0000005960464
34,298,143786,2,0,L|45:216,1,80.0000005960464
132,179,144286,1,0,0:0:0:0:
256,192,144411,12,0,148286,0:0:0:0:
228,152,152286,5,0,0:0:0:0:
228,152,160286,6,0,L|100:144,2,120.00000089407
308,204,161286,2,0,L|436:196,2,120.00000089407
224,248,162286,38,0,B|220:288|220:288|236:368,2,120.00000089407
308,204,163286,2,0,B|312:164|312:164|296:84,2,120.00000089407
224,160,164286,6,0,P|144:140|72:172,1,160.000001192093
36,256,165036,1,0,0:0:0:0:
104,320,165286,2,0,P|104:348|96:368,2,40.0000002980232
188,272,165786,2,0,L|272:268,1,80.0000005960464
359,295,166286,38,0,P|346:220|401:166,1,160.000001192093
496,140,167036,1,0,0:0:0:0:
436,68,167286,2,0,L|424:24,2,40.0000002980232
344,96,167786,2,0,P|304:98|267:83,1,80.0000005960464
176,60,168286,6,0,L|180:152,1,80.0000005960464
88,112,168786,2,0,L|92:204,1,80.0000005960464
144,272,169286,2,0,B|184:280|184:280|228:272,1,80.0000005960464
264,184,169786,2,0,B|224:176|224:176|180:184,1,80.0000005960464
92,208,170286,37,0,0:0:0:0:
100,184,170535,1,0,0:0:0:0:
108,160,170786,1,0,0:0:0:0:
116,136,171036,1,0,0:0:0:0:
124,112,171276,1,0,0:0:0:0:
124,112,172276,22,0,P|160:128|199:124,1,80.0000005960464
288,88,172776,1,0,0:0:0:0:
384,88,173026,1,0,0:0:0:0:
456,148,173276,6,0,P|464:192|452:228,1,80.0000005960464
364,256,173776,1,0,0:0:0:0:
272,224,174026,1,0,0:0:0:0:
196,284,174276,38,0,L|108:292,1,80.0000005960464
28,332,174776,2,0,B|16:292|16:292|32:256,1,80.0000005960464
108,200,175276,1,0,0:0:0:0:
296,244,175776,2,0,L|292:324,1,80.0000005960464
376,372,176276,6,0,P|451:360|484:290,1,160.000001192093
424,216,177026,1,0,0:0:0:0:
348,160,177276,2,0,P|328:88|392:20,1,160.000001192093
464,64,178026,1,0,0:0:0:0:
440,156,178276,38,0,L|448:244,1,80.0000005960464
364,284,178776,2,0,P|328:300|284:296,1,80.0000005960464
207,243,179276,2,0,P|136:214|68:252,1,160.000001192093
236,344,180276,6,0,L|228:264,1,80.0000005960464
312,220,180776,2,0,L|320:140,1,80.0000005960464
227,164,181276,38,0,P|190:177|152:168,1,80.0000005960464
56,184,181776,2,0,B|68:140|68:140|60:96,1,80.0000005960464
16,20,182276,6,0,L|95:16,1,80.0000005960464
160,88,182776,1,0,0:0:0:0:
228,20,183026,1,0,0:0:0:0:
267,108,183276,38,0,P|248:184|275:258,1,160.000001192093
368,288,184026,1,0,0:0:0:0:
464,272,184276,6,0,P|491:198|471:121,1,160.000001192093
396,64,185026,1,0,0:0:0:0:
324,128,185276,2,0,B|276:136|276:136|164:116,1,160.000001192093
72,92,186026,1,0,0:0:0:0:
28,176,186276,38,0,L|36:272,1,80.0000005960464
128,228,186776,2,0,L|124:308,1,80.0000005960464
196,372,187276,2,0,P|180:296|248:248,1,160.000001192093
428,283,188276,6,0,P|483:228|490:150,1,160.000001192093
404,108,189026,1,0,0:0:0:0:
316,144,189276,2,0,B|304:188|304:188|332:304,1,160.000001192093
156,376,190276,38,0,P|180:312|156:224,1,160.000001192093
76,176,191026,1,0,0:0:0:0:
120,92,191276,2,0,B|176:100|176:100|224:84|224:84|288:92,1,160.000001192093
464,127,192276,6,0,P|468:88|457:50,1,80.0000005960464
373,97,192776,2,0,L|381:185,1,80.0000005960464
446,244,193276,2,0,P|375:212|299:230,1,160.000001192093
171,374,194276,38,0,L|338:361,1,160.000001192093
173,250,195276,2,0,P|99:222|29:258,1,160.000001192093
105,318,196027,1,0,0:0:0:0:
173,251,196276,6,0,B|152:212|176:176|176:176|196:144|177:99,1,160.000001192093
84,124,197026,1,0,0:0:0:0:
113,32,197276,2,0,P|192:8|261:62,1,160.000001192093
242,238,198276,38,0,P|163:262|94:208,1,160.000001192093
179,165,199026,1,0,0:0:0:0:
273,149,199276,2,0,B|328:162|328:162|383:152|383:152|441:155,1,160.000001192093
480,340,200276,6,0,P|446:329|388:337,1,80.0000005960464
312,298,200776,2,0,L|224:304,1,80.0000005960464
161,367,201276,2,0,P|188:294|159:222,1,160.000001192093
235,45,202276,1,0,0:0:0:0:
215,63,204276,6,0,L|221:147,1,80.0000005960464
286,212,204776,2,0,P|315:186|354:182,1,80.0000005960464
447,206,205276,2,0,P|491:274|466:346,1,160.000001192093
282,293,206276,6,0,L|186:302,1,80.0000005960464
114,261,206776,2,0,P|126:222|123:182,1,80.0000005960464
38,137,207276,2,0,P|13:65|68:13,1,160.000001192093
231,113,208276,37,0,0:0:0:0:
322,82,208526,1,0,0:0:0:0:
310,177,208776,2,0,L|315:256,1,80.0000005960464
407,287,209276,2,0,L|412:207,1,80.0000005960464
413,111,209776,1,0,0:0:0:0:
236,35,210276,6,0,P|202:24|149:33,1,80.0000005960464
108,111,210776,2,0,L|119:205,1,80.0000005960464
210,165,211276,1,0,0:0:0:0:
205,260,211526,1,0,0:0:0:0:
294,224,211776,2,0,L|339:232,2,40.0000002980232
