osu file format v14

[General]
AudioFilename: audio.mp3
AudioLeadIn: 0
PreviewTime: 102581
Countdown: 0
SampleSet: Soft
StackLeniency: 0.7
Mode: 0
LetterboxInBreaks: 0
WidescreenStoryboard: 0

[Editor]
DistanceSpacing: 1.2
BeatDivisor: 4
GridSize: 4
TimelineZoom: 1.1

[Metadata]
Title:Nightglow
TitleUnicode:Nightglow
Artist:Tanya Chua
ArtistUnicode:蔡健雅
Creator:Nozhomi
Version:Hard
Source:崩坏3
Tags:HOYO-MiX honkai impact 3rd 宫奇 Gon 蔡近翰 Zoe video game english rock
BeatmapID:2586518
BeatmapSetID:1234218

[Difficulty]
HPDrainRate:4.5
CircleSize:4
OverallDifficulty:7
ApproachRate:7.7
SliderMultiplier:1.7
SliderTickRate:1

[Events]
//Background and Video events
0,0,"whysomuchsuffering.jpg",0,0
//Break Periods
//Storyboard Layer 0 (Background)
//Storyboard Layer 1 (Fail)
//Storyboard Layer 2 (Pass)
//Storyboard Layer 3 (Foreground)
//Storyboard Layer 4 (Overlay)
//Storyboard Sound Samples

[TimingPoints]
450,405.405405405405,4,2,1,40,1,0
450,-166.666666666667,4,2,1,40,0,0
25585,-166.666666666667,4,2,1,45,0,0
26395,-166.666666666667,4,2,1,50,0,0
49098,-166.666666666667,4,2,1,40,0,0
49301,-166.666666666667,4,2,1,30,0,0
52337,405.405405405405,4,2,1,60,1,0
52337,-125,4,2,1,60,0,0
52920,405.405405405405,4,2,1,60,1,0
52920,-125,4,2,1,60,0,0
53933,405.405405405405,4,2,1,60,1,0
53933,-125,4,2,1,60,0,0
57987,-100,4,2,1,40,0,0
58189,-100,4,2,1,45,0,0
58392,-100,4,2,1,50,0,0
58595,-100,4,2,1,55,0,0
58797,-100,4,2,1,65,0,0
59000,-100,4,2,1,60,0,0
64878,-100,4,2,1,50,0,0
65081,-100,4,2,1,60,0,0
65284,-100,4,2,1,65,0,0
65487,-100,4,2,1,60,0,0
66905,-117.647058823529,4,2,1,50,0,0
67311,-142.857142857143,4,2,1,50,0,0
67716,-100,4,2,1,60,0,0
70960,-100,4,2,1,50,0,0
71365,-100,4,2,1,60,0,0
71568,-100,4,2,1,65,0,0
71770,-125,4,2,1,70,0,0
71973,-125,4,2,1,50,0,0
72176,-125,4,2,1,60,0,0
72581,-125,4,2,1,60,0,0
72987,-125,4,2,1,55,0,0
73392,-125,4,2,1,50,0,0
73797,-125,4,2,1,40,0,0
75824,-125,4,2,1,45,0,0
76635,-125,4,2,1,50,0,0
77446,-125,4,2,1,55,0,0
78257,-100,4,2,1,70,0,0
99338,-125,4,2,1,60,0,0
100960,-200,4,2,1,60,0,0
101365,-200,4,2,1,30,0,0
102378,-200,4,2,1,40,0,0
102581,-166.666666666667,4,2,1,50,0,0
102784,-166.666666666667,4,2,1,30,0,0
103392,-125,4,2,1,60,0,0
103595,-125,4,2,1,40,0,0
103899,-125,4,2,1,40,0,0
104203,-100,4,2,1,70,0,0
107243,-100,4,2,0,70,0,0
107446,-100,4,2,1,70,0,0
116568,-100,4,2,0,70,0,0
116669,-100,4,2,1,70,0,0
123155,-100,4,2,0,70,0,0
123257,-100,4,2,1,70,0,0
129541,-100,4,2,0,70,0,0
129642,-100,4,2,1,70,0,0
130149,-100,4,2,1,60,0,0
133189,-100,4,2,0,60,0,0
133392,-100,4,2,1,60,0,0
141500,-125,4,2,1,60,0,0
142311,-100,4,2,1,60,0,0
143122,-83.3333333333333,4,2,1,70,0,1
146162,-83.3333333333333,4,2,0,70,0,1
146264,-83.3333333333333,4,2,1,70,0,1
155588,-83.3333333333333,4,2,0,70,0,1
155689,-83.3333333333333,4,2,1,70,0,1
162378,-83.3333333333333,4,2,0,70,0,1
162480,-83.3333333333333,4,2,1,70,0,1
165824,-83.3333333333333,4,2,1,70,0,0

[Colours]
Combo1 : 176,143,30
Combo2 : 168,19,23
Combo3 : 210,120,30

[HitObjects]
455,318,450,5,2,0:0:0:0:
254,352,1260,2,0,P|202:335|178:288,1,101.999996887207,2|0,0:0|0:0,0:0:0:0:
263,183,2071,2,0,P|274:236|245:280,1,101.999996887207,2|0,0:0|0:0,0:0:0:0:
170,214,2882,1,2,0:0:0:0:
170,214,3693,5,2,0:0:0:0:
323,79,4504,2,0,L|436:87,1,101.999996887207,2|0,0:0|0:0,0:0:0:0:
466,212,5314,2,0,L|364:204,1,101.999996887207,2|0,0:0|0:0,0:0:0:0:
331,107,6125,1,2,0:0:0:0:
331,107,6936,5,2,0:0:0:0:
169,231,7747,2,0,B|151:281|151:281|173:342,1,101.999996887207,2|0,0:0|0:0,0:0:0:0:
301,357,8558,2,0,B|256:336|256:336|234:288,1,101.999996887207,2|0,0:0|0:0,0:0:0:0:
313,143,9368,2,0,B|279:211|279:211|310:281,1,152.999995330811,2|0,0:0|0:0,0:0:0:0:
372,326,10179,5,2,0:0:0:0:
372,326,10990,1,2,0:0:0:0:
450,261,11395,2,0,P|433:241|410:231,1,50.9999984436036,2|0,0:0|0:0,0:0:0:0:
366,168,11801,2,0,P|317:177|279:211,1,101.999996887207,2|0,0:0|0:0,0:0:0:0:
256,311,12612,1,2,0:0:0:0:
256,311,13422,6,0,P|230:263|176:236,1,101.999996887207,2|0,0:0|0:0,0:0:0:0:
143,115,14233,2,0,P|114:161|118:221,1,101.999996887207,2|0,0:0|0:0,0:0:0:0:
127,291,14841,1,2,0:0:0:0:
127,291,15044,2,0,P|82:314|32:311,1,101.999996887207,2|0,0:0|0:0,0:0:0:0:
60,212,15855,1,2,0:0:0:0:
60,212,16666,5,2,0:0:0:0:
220,85,17477,2,0,L|228:207,1,101.999996887207,2|0,0:0|0:0,0:0:0:0:
306,249,18287,2,0,L|314:371,1,101.999996887207,2|0,0:0|0:0,0:0:0:0:
182,377,19098,2,0,L|175:275,1,101.999996887207,2|0,0:0|0:0,0:0:0:0:
227,187,19909,5,2,0:0:0:0:
227,187,20720,1,2,0:0:0:0:
318,140,21125,2,0,P|343:143|364:156,1,50.9999984436036,2|0,0:0|0:0,0:0:0:0:
437,132,21531,2,0,P|462:175|460:225,1,101.999996887207,2|0,0:0|0:0,0:0:0:0:
407,312,22341,1,2,0:0:0:0:
305,297,22747,1,2,0:0:0:0:
263,204,23152,6,0,B|225:122|295:88|258:5,1,203.999993774414,2|2,0:0|0:0,0:0:0:0:
169,55,24368,1,0,0:0:0:0:
81,107,24774,2,0,L|86:226,1,101.999996887207,2|0,0:0|0:0,0:0:0:0:
180,245,25585,2,0,L|185:364,1,101.999996887207,2|0,0:0|0:0,0:0:0:0:
302,379,26395,6,0,P|333:299|279:188,1,203.999993774414,2|0,3:2|0:0,0:0:0:0:
195,114,27612,2,0,P|235:124|258:117,1,50.9999984436036,2|0,0:0|0:0,0:0:0:0:
313,89,28017,2,0,L|310:37,2,50.9999984436036,2|2|0,0:0|0:0|0:0,0:0:0:0:
388,73,28625,2,0,L|385:21,2,50.9999984436036,2|2|0,0:0|0:0|0:0,0:0:0:0:
463,57,29233,1,2,0:0:0:0:
496,169,29639,6,0,B|443:180|403:150|403:150|404:214|338:242,1,203.999993774414,2|0,0:0|0:0,0:0:0:0:
262,151,30855,2,0,P|292:157|320:148,1,50.9999984436036,2|0,0:0|0:0,0:0:0:0:
287,79,31260,2,0,P|265:65|251:44,2,50.9999984436036,2|2|0,0:0|0:0|0:0,0:0:0:0:
318,13,31868,1,2,0:0:0:0:
252,44,32071,2,0,L|141:37,1,101.999996887207,2|2,0:0|0:0,0:0:0:0:
59,148,32882,6,0,B|112:150|145:112|145:112|169:171|242:188,1,203.999993774414,2|0,3:2|0:0,0:0:0:0:
314,101,34098,2,0,P|303:129|302:166,1,50.9999984436036,2|0,0:0|0:0,0:0:0:0:
298,227,34504,2,0,P|313:275|346:313,1,101.999996887207,2|0,0:0|0:0,0:0:0:0:
233,361,35314,2,0,P|244:340|246:307,1,50.9999984436036,2|0,0:0|0:0,0:0:0:0:
161,270,35720,2,0,P|172:291|174:324,1,50.9999984436036,2|0,0:0|0:0,0:0:0:0:
96,361,36125,6,0,P|106:271|101:151,1,203.999993774414,2|0,0:0|0:0,0:0:0:0:
211,103,37341,2,0,P|181:105|152:87,1,50.9999984436036,2|0,0:0|0:0,0:0:0:0:
179,187,37747,2,0,P|246:169|344:173,1,152.999995330811,2|0,0:0|0:0,0:0:0:0:
401,196,38558,1,2,0:0:0:0:
460,244,38760,2,0,L|464:308,1,50.9999984436036,0|2,0:0|0:0,0:0:0:0:
469,371,39166,1,0,0:0:0:0:
391,314,39368,6,0,L|381:95,1,203.999993774414,2|0,3:2|0:0,0:0:0:0:
290,13,40585,2,0,P|256:27|239:59,1,50.9999984436036,2|0,0:0|0:0,0:0:0:0:
172,72,40990,2,0,P|215:109|228:154,1,101.999996887207,2|0,0:0|0:0,0:0:0:0:
132,242,41801,2,0,L|63:236,1,50.9999984436036,2|0,0:0|0:0,0:0:0:0:
102,164,42206,2,0,L|152:168,1,50.9999984436036,2|0,0:0|0:0,0:0:0:0:
212,233,42612,6,0,L|313:225,1,101.999996887207,2|0,0:0|0:0,0:0:0:0:
413,312,43422,2,0,L|311:304,1,101.999996887207,2|0,0:0|0:0,0:0:0:0:
248,261,44030,1,0,0:0:0:0:
186,216,44233,2,0,L|84:223,1,101.999996887207,2|0,0:0|0:0,0:0:0:0:
8,114,45044,2,0,P|24:94|47:84,1,50.9999984436036,2|0,0:0|0:0,0:0:0:0:
124,84,45449,1,2,0:0:0:0:
124,84,45652,1,2,0:0:0:0:
185,129,45855,6,0,L|193:303,1,152.999995330811,2|2,3:2|0:0,0:0:0:0:
270,313,46666,2,0,L|264:211,1,101.999996887207,2|0,0:0|0:0,0:0:0:0:
312,151,47274,1,2,0:0:0:0:
312,151,47477,2,0,P|350:156|392:221,1,101.999996887207,2|0,0:0|0:0,0:0:0:0:
509,258,48287,2,0,P|460:268|431:309,1,101.999996887207,2|0,0:0|0:0,0:0:0:0:
431,308,49098,5,2,3:2:0:0:
256,192,49199,12,0,50720,0:0:0:0:
72,100,52337,6,0,L|78:249,1,136,8|2,0:0|0:0,0:0:0:0:
166,250,52920,2,0,L|160:114,1,136,8|2,0:1|0:0,0:0:0:0:
218,46,53528,2,0,P|249:46|289:69,1,68,8|0,0:0|0:0,0:0:0:0:
288,156,53933,2,0,P|328:104|411:113,1,136,2|0,0:0|0:0,0:0:0:0:
468,149,54541,1,0,0:0:0:0:
460,236,54743,2,0,B|323:226,1,136,8|2,0:0|0:0,0:0:0:0:
268,294,55351,1,0,0:0:0:0:
268,294,55554,6,0,B|121:303,1,136,2|0,0:0|0:0,0:0:0:0:
23,162,56365,2,0,P|61:183|76:228,1,68,2|0,0:0|0:0,0:0:0:0:
119,278,56770,2,0,P|138:250|168:236,1,68,8|0,0:0|0:0,0:0:0:0:
257,229,57176,1,2,0:0:0:0:
334,270,57378,2,0,P|391:270|426:193,1,136,8|2,0:1|0:0,0:0:0:0:
397,100,57987,1,8,0:1:0:0:
397,100,58189,1,8,0:0:0:0:
299,48,58392,1,8,0:0:0:0:
295,158,58595,1,8,0:0:0:0:
401,104,58797,6,0,B|231:101,1,170,10|0,0:0|0:0,0:0:0:0:
134,47,59405,1,8,0:1:0:0:
72,139,59608,2,0,L|159:140,1,85,0|0,0:0|0:0,0:0:0:0:
250,199,60014,2,0,L|337:200,1,85,8|0,0:0|0:0,0:0:0:0:
421,268,60419,2,0,P|403:346|325:363,1,170,2|0,0:0|0:0,0:0:0:0:
113,293,61230,2,0,P|164:261|178:211,1,85,2|0,0:0|0:0,0:0:0:0:
204,133,61635,2,0,P|191:74|149:43,1,85,2|0,0:0|0:0,0:0:0:0:
70,21,62041,6,0,L|81:190,1,170,2|0,0:0|0:0,0:0:0:0:
89,301,62649,1,8,0:1:0:0:
174,240,62851,2,0,L|168:155,1,85,0|0,0:0|0:0,0:0:0:0:
260,216,63257,2,0,L|254:131,1,85,8|0,0:0|0:0,0:0:0:0:
329,28,63662,2,0,L|341:198,1,170,0|0,0:0|0:0,0:0:0:0:
340,197,64473,1,8,0:1:0:0:
322,306,64676,1,0,0:0:0:0:
437,337,64878,1,8,0:0:0:0:
430,210,65081,1,8,0:0:0:0:
322,306,65284,6,0,B|243:278|243:278|158:297,1,170,10|0,0:0|0:0,0:0:0:0:
52,326,65892,2,0,L|47:368,2,42.5,8|2|2,0:1|0:0|0:0,0:0:0:0:
66,216,66297,1,0,0:0:0:0:
159,298,66500,2,0,L|149:382,1,85,2|0,0:0|0:0,0:0:0:0:
243,302,66905,2,0,L|235:374,1,72.2500013780594,2|0,0:0|0:0,0:0:0:0:
328,304,67311,2,0,L|320:363,1,59.4999981842042,2|0,0:0|0:0,0:0:0:0:
445,371,67716,1,8,0:0:0:0:
487,268,67919,1,0,0:0:0:0:
413,192,68122,1,2,0:0:0:0:
413,192,68324,1,2,0:0:0:0:
304,216,68527,6,0,P|205:225|121:190,1,170,2|0,0:0|0:0,0:0:0:0:
65,134,69135,1,8,0:0:0:0:
117,36,69338,2,0,P|148:49|161:115,1,85,0|0,0:0|0:0,0:0:0:0:
140,201,69743,2,0,P|112:232|70:235,1,85,8|0,0:0|0:0,0:0:0:0:
29,132,70149,2,0,B|230:159|230:159|284:142,1,255,0|0,0:0|0:0,0:0:0:0:
388,93,70960,1,8,0:1:0:0:
331,207,71162,1,8,0:0:0:0:
388,93,71365,1,8,0:0:0:0:
251,119,71568,1,8,0:0:0:0:
247,115,71669,1,8,0:0:0:0:
243,111,71770,6,0,P|210:88|189:52,1,68,10|0,0:0|0:0,0:0:0:0:
176,152,72176,1,2,0:0:0:0:
133,226,72378,1,0,0:0:0:0:
54,267,72581,2,0,L|45:192,1,68,2|0,0:0|0:0,0:0:0:0:
133,226,72987,2,0,L|141:293,1,68,2|0,0:0|0:0,0:0:0:0:
62,334,73392,2,0,L|54:267,1,68,2|0,0:0|0:0,0:0:0:0:
141,293,73797,1,2,0:0:0:0:
310,241,74203,1,2,0:0:0:0:
192,109,74608,1,2,0:0:0:0:
252,173,74811,1,2,0:0:0:0:
310,241,75014,6,0,B|389:255|432:227|432:227|407:205|359:197,1,204,2|0,0:0|0:0,0:0:0:0:
277,170,75824,2,0,B|211:124|200:73|200:73|233:75|271:102,1,204,2|2,0:0|0:0,0:0:0:0:
357,125,76635,2,0,B|436:139|479:111|479:111|454:89|408:81,1,204,2|2,0:0|0:0,0:0:0:0:
326,48,77446,2,0,L|260:63,1,68,2|0,0:0|0:0,0:0:0:0:
177,31,77851,1,2,0:0:0:0:
93,0,78054,1,2,0:0:0:0:
113,119,78257,6,0,L|142:309,1,170,4|0,0:3|0:0,0:0:0:0:
212,357,78865,1,4,0:3:0:0:
312,349,79068,2,0,P|388:314|415:235,1,170,0|0,1:0|0:0,0:0:0:0:
269,100,79878,1,2,0:0:0:0:
269,100,80081,2,0,P|303:175|382:202,1,170,0|0,0:0|0:0,0:0:0:0:
423,110,80689,1,0,1:0:0:0:
423,110,80892,2,0,P|399:74|361:57,2,85,2|0|2,0:0|0:0|0:0,0:0:0:0:
374,210,81500,6,0,L|172:195,1,170,4|0,0:3|0:0,0:0:0:0:
102,187,82108,1,4,0:3:0:0:
143,280,82311,2,0,L|312:292,1,170,0|0,1:0|0:0,0:0:0:0:
467,135,83122,1,2,0:0:0:0:
467,135,83324,2,0,P|386:157|369:264,1,170,4|0,0:3|0:0,0:0:0:0:
461,292,83932,1,0,1:0:0:0:
461,292,84135,2,0,P|438:257|442:216,1,85,2|0,0:0|0:0,0:0:0:0:
476,119,84541,1,2,0:0:0:0:
359,136,84743,6,0,P|267:141|161:102,1,170,4|0,0:3|0:0,0:0:0:0:
109,60,85351,1,4,0:3:0:0:
41,134,85554,2,0,P|120:158|193:120,1,170,0|0,1:0|0:0,0:0:0:0:
272,312,86365,1,2,0:0:0:0:
272,312,86568,2,0,L|276:129,1,170,4|0,0:3|0:0,0:0:0:0:
286,40,87176,1,0,1:0:0:0:
384,63,87378,2,0,P|418:99|418:142,1,85,2|0,0:0|0:0,0:0:0:0:
396,232,87784,1,2,0:0:0:0:
299,265,87987,5,4,0:3:0:0:
197,254,88189,2,0,P|157:238|110:243,2,85,2|0|2,0:0|0:0|0:0,0:0:0:0:
267,179,88797,2,0,P|250:139|213:109,2,85,2|0|0,1:2|0:0|0:0,0:0:0:0:
367,195,89405,2,0,P|383:155|378:108,1,85,2|0,0:0|0:0,0:0:0:0:
334,22,89811,1,4,0:3:0:0:
492,226,90216,2,0,P|464:257|425:274,1,85,0|0,0:0|1:0,0:0:0:0:
326,299,90622,2,0,P|364:315|392:347,2,85,2|0|2,0:0|0:0|0:0,0:0:0:0:
211,329,91230,6,0,P|126:310|136:225,1,170,4|0,0:3|0:0,0:0:0:0:
215,193,91838,1,4,0:3:0:0:
123,144,92041,2,0,P|132:65|211:55,1,170,0|0,1:0|0:0,0:0:0:0:
375,183,92851,1,2,0:0:0:0:
375,183,93054,2,0,L|371:363,1,170,4|0,0:3|0:0,0:0:0:0:
288,301,93662,1,0,1:0:0:0:
288,301,93865,2,0,L|289:216,2,85,2|0|2,0:0|0:0|0:0,0:0:0:0:
186,363,94473,6,0,P|102:335|80:236,1,170,4|0,0:3|0:0,0:0:0:0:
62,162,95081,1,4,0:3:0:0:
162,137,95284,2,0,P|244:147|289:216,1,170,0|0,1:0|0:0,0:0:0:0:
149,365,96095,1,2,0:0:0:0:
149,365,96297,2,0,P|178:288|257:262,1,170,4|0,0:3|0:0,0:0:0:0:
354,292,96905,1,0,1:0:0:0:
451,318,97108,2,0,P|492:311|512:275,1,85,2|0,0:0|0:0,0:0:0:0:
425,221,97513,1,2,0:0:0:0:
332,176,97716,6,0,B|373:106|373:106|336:6,1,170,4|0,0:3|0:0,0:0:0:0:
252,70,98324,1,4,0:3:0:0:
161,117,98527,2,0,B|130:200|130:200|171:270,1,170,0|2,1:0|0:0,0:0:0:0:
330,297,99338,2,0,P|456:273|366:365,1,340,2|0,0:0|0:0,0:0:0:0:
284,362,100554,2,0,B|250:354|250:354|218:359,1,68,2|0,0:0|0:0,0:0:0:0:
140,367,100960,6,0,B|78:378|78:378|20:350|20:350|20:282|20:282|62:243|62:243|114:254,1,297.5,2|0,0:0|0:0,0:0:0:0:
191,272,102581,2,0,B|265:288|265:288|346:264,1,152.999995330811,2|0,0:0|0:0,0:0:0:0:
411,207,103392,2,0,P|394:102|312:61,1,204,2|0,0:0|0:0,0:0:0:0:
181,102,104203,6,0,L|191:272,1,170,4|0,3:2|0:0,0:0:0:0:
236,363,104811,1,4,0:3:0:0:
331,328,105014,2,0,P|274:269|182:276,1,170,0|2,1:0|0:0,0:0:0:0:
105,327,105622,1,4,0:3:0:0:
38,249,105824,2,0,P|71:229|122:231,1,85,4|0,0:3|0:0,0:0:0:0:
125,126,106230,2,0,P|162:135|197:172,1,85,4|0,0:3|0:0,0:0:0:0:
283,117,106635,2,0,B|282:261,1,127.5,0|8,1:0|0:3,0:0:0:0:
282,280,107041,1,0,0:0:0:0:
350,355,107243,1,4,0:3:0:0:
401,247,107446,6,0,B|420:187|420:187|394:126,2,127.5,4|4|4,0:3|0:3|0:3,0:0:0:0:
339,328,108257,2,0,L|229:324,1,85,0|4,1:0|0:3,0:0:0:0:
213,236,108662,1,2,0:0:0:0:
213,236,108865,2,0,L|297:239,1,85,4|0,0:3|0:0,0:0:0:0:
380,177,109270,1,4,0:3:0:0:
380,177,109372,2,4,P|377:104|300:65,1,127.5,4|4,0:3|0:3,0:0:0:0:
245,30,109878,1,0,1:0:0:0:
161,84,110081,1,0,1:0:0:0:
161,84,110182,1,0,1:0:0:0:
161,84,110284,2,0,L|102:79,3,42.5,4|0|0|0,0:3|1:0|1:0|1:0,0:0:0:0:
72,134,110689,6,0,L|199:144,2,127.5,4|4|4,3:2|0:3|0:3,0:0:0:0:
81,235,111500,2,0,L|165:241,1,85,0|0,1:0|0:0,0:0:0:0:
243,308,111905,1,2,0:0:0:0:
271,209,112108,1,4,0:3:0:0:
271,209,112311,1,0,0:0:0:0:
370,275,112514,1,4,0:3:0:0:
271,209,112716,2,0,L|268:124,1,85,4|0,0:3|0:0,0:0:0:0:
334,45,113122,2,0,P|375:50|408:76,1,85,0|0,1:0|0:0,0:0:0:0:
472,155,113527,2,0,P|484:194|475:235,1,85,4|0,0:3|0:0,0:0:0:0:
404,331,113932,6,0,B|325:299|325:299|241:313,1,170,4|0,0:3|0:0,0:0:0:0:
147,339,114541,1,4,0:3:0:0:
147,339,114642,1,4,0:3:0:0:
147,339,114743,2,0,B|84:349|84:349|22:327,2,127.5,0|4|0,1:0|0:3|1:0,0:0:0:0:
169,227,115553,1,4,0:3:0:0:
242,313,115757,1,0,1:0:0:0:
113,276,115960,1,0,1:0:0:0:
240,239,116162,1,0,1:0:0:0:
151,154,116365,2,0,L|156:105,3,42.5,0|8|4|4,1:0|0:3|0:3|0:3,0:0:0:0:
226,143,116770,2,0,L|231:94,3,42.5,0|2|0|0,1:0|0:0|1:0|1:0,0:0:0:0:
291,58,117176,6,0,P|379:124|384:199,1,170,4|0,0:3|0:0,0:0:0:0:
340,277,117784,1,4,0:3:0:0:
233,247,117987,2,0,P|257:212|296:198,1,85,0|0,1:0|0:0,0:0:0:0:
407,194,118392,1,2,0:0:0:0:
463,289,118595,1,4,0:3:0:0:
402,381,118797,1,4,0:3:0:0:
340,277,119000,1,4,0:3:0:0:
340,277,119203,2,0,L|246:283,1,85,0|0,0:0|0:0,0:0:0:0:
159,362,119608,2,0,P|240:357|253:278,1,170,0|4,1:0|0:3,0:0:0:0:
141,111,120419,6,0,L|13:118,2,127.5,4|4|4,0:3|0:3|0:3,0:0:0:0:
211,18,121230,2,0,L|391:29,1,170,0|2,1:0|0:0,0:0:0:0:
470,93,121838,1,4,0:3:0:0:
401,178,122041,2,0,P|367:148|359:108,1,85,4|0,0:3|1:0,0:0:0:0:
319,70,122345,2,0,P|308:110|276:137,1,85,4|4,0:3|0:3,0:0:0:0:
224,155,122649,1,4,0:3:0:0:
97,157,122851,2,0,P|153:183|181:254,1,127.5,0|4,1:0|0:3,0:0:0:0:
172,294,123257,1,4,0:3:0:0:
73,344,123460,1,0,3:0:0:0:
13,239,123662,6,0,P|39:182|96:156,2,127.5,4|4|4,0:3|0:3|0:3,0:0:0:0:
77,329,124473,2,0,P|135:308|194:329,2,127.5,0|4|4,1:0|0:3|0:3,0:0:0:0:
141,226,125284,6,0,B|135:80|135:80|161:99,1,170,4|4,0:3|0:3,0:0:0:0:
242,145,125892,1,4,0:3:0:0:
341,168,126095,1,0,1:0:0:0:
438,139,126297,1,0,1:0:0:0:
484,52,126500,1,0,1:0:0:0:
484,52,126601,1,2,0:0:0:0:
484,52,126703,2,0,L|440:57,1,42.5,0|0,1:0|1:0,0:0:0:0:
372,29,126905,6,0,L|287:18,1,85,4|4,3:2|0:3,0:0:0:0:
328,113,127311,1,4,0:3:0:0:
361,209,127514,1,0,1:0:0:0:
366,222,127615,1,4,0:3:0:0:
372,236,127716,1,4,0:3:0:0:
415,338,127919,1,4,0:3:0:0:
428,341,128020,1,4,0:3:0:0:
441,344,128122,2,0,L|508:331,3,42.5,0|0|4|4,1:0|1:0|0:3|0:3,0:0:0:0:
512,268,128527,5,0,1:0:0:0:
512,268,128628,2,0,P|483:241|416:237,1,85,4|0,0:3|1:0,0:0:0:0:
403,195,128932,2,0,P|366:209|334:268,1,85,4|0,0:3|1:0,0:0:0:0:
343,300,129237,1,4,0:3:0:0:
343,300,129338,1,8,0:3:0:0:
256,246,129541,1,4,0:3:0:0:
218,151,129743,1,4,0:3:0:0:
277,70,129946,1,0,1:0:0:0:
277,70,130048,1,0,1:0:0:0:
277,70,130149,6,0,P|343:61|386:8,2,127.5,4|4|4,3:2|0:3|0:3,0:0:0:0:
179,38,130960,2,0,P|139:22|97:26,1,85,0|0,1:0|0:0,0:0:0:0:
27,101,131365,1,2,0:0:0:0:
97,26,131568,1,4,0:3:0:0:
149,113,131770,2,0,P|160:155|146:208,1,85,0|4,0:0|0:3,0:0:0:0:
249,230,132176,2,0,P|227:267|179:295,1,85,4|0,0:3|0:0,0:0:0:0:
152,320,132480,1,4,0:3:0:0:
152,320,132581,2,0,L|0:322,2,127.5,0|8|4,1:0|0:3|0:3,0:0:0:0:
249,230,133392,6,0,L|250:102,2,127.5,4|4|4,0:0|0:3|0:3,0:0:0:0:
310,311,134203,2,0,P|360:312|401:266,1,85,0|4,1:0|0:3,0:0:0:0:
445,209,134608,1,2,0:0:0:0:
405,114,134811,1,4,3:2:0:0:
311,73,135014,2,0,L|208:82,1,85,2|4,0:0|0:3,0:0:0:0:
183,52,135318,1,4,0:3:0:0:
82,39,135520,2,0,L|39:35,3,42.5,4|4|4|0,0:3|0:3|0:3|1:0,0:0:0:0:
101,129,136027,1,0,1:0:0:0:
101,129,136128,1,0,1:0:0:0:
101,129,136230,2,0,L|58:125,3,42.5,4|0|0|0,0:3|1:0|1:0|1:0,0:0:0:0:
17,191,136635,6,0,P|22:254|69:295,2,127.5,4|4|4,3:2|0:3|0:3,0:0:0:0:
101,129,137446,2,0,L|98:221,1,85,0|0,1:0|0:0,0:0:0:0:
165,290,137851,1,2,0:0:0:0:
237,361,138054,1,4,0:3:0:0:
164,290,138257,2,0,P|199:265|241:259,1,85,2|4,0:0|0:3,0:0:0:0:
241,156,138662,2,0,P|282:164|316:189,1,85,4|0,0:3|0:0,0:0:0:0:
384,277,139068,1,0,1:0:0:0:
434,188,139270,1,2,0:0:0:0:
501,265,139473,2,0,L|492:384,1,85,4|2,0:3|0:0,0:0:0:0:
384,277,139878,6,0,L|365:67,1,170,4|0,0:3|0:0,0:0:0:0:
304,41,140487,1,4,0:3:0:0:
304,41,140588,1,4,0:3:0:0:
304,40,140689,2,0,P|262:43|229:70,1,85,0|0,1:0|0:0,0:0:0:0:
204,116,140993,1,4,0:3:0:0:
204,116,141095,2,0,P|193:156|206:196,1,85,2|0,0:0|1:0,0:0:0:0:
246,236,141399,1,0,1:0:0:0:
246,237,141500,6,0,L|456:229,1,204,2|0,0:0|0:0,0:0:0:0:
487,324,142311,2,0,L|232:333,1,255,2|0,0:0|0:0,0:0:0:0:
121,212,143122,6,0,P|190:219|224:348,1,203.999993774414,4|0,3:2|0:0,0:0:0:0:
109,339,143730,1,4,0:3:0:0:
36,239,143933,2,0,L|40:137,1,101.999996887207,0|0,1:0|0:0,0:0:0:0:
44,14,144338,1,2,0:0:0:0:
148,78,144541,1,4,0:3:0:0:
252,142,144743,2,0,L|353:133,1,101.999996887207,4|0,0:3|0:0,0:0:0:0:
435,224,145148,1,4,0:3:0:0:
483,18,145554,2,0,B|501:95|501:95|466:168,1,152.999995330811,0|8,1:0|0:3,0:0:0:0:
435,224,145960,1,2,0:0:0:0:
353,133,146162,1,4,0:3:0:0:
248,214,146365,6,0,P|226:285|252:356,2,152.999995330811,4|4|4,3:2|0:3|0:3,0:0:0:0:
169,120,147176,2,0,P|118:123|79:154,1,101.999996887207,0|4,1:0|0:3,0:0:0:0:
132,290,147581,1,2,0:0:0:0:
132,290,147784,2,0,P|129:229|154:189,1,101.999996887207,4|4,0:0|0:3,0:0:0:0:
274,194,148189,1,4,0:3:0:0:
274,194,148291,2,4,P|287:277|229:356,1,152.999995330811,4|4,0:3|0:3,0:0:0:0:
136,363,148797,1,0,1:0:0:0:
71,270,149000,1,0,1:0:0:0:
71,270,149101,1,0,1:0:0:0:
71,270,149203,2,0,L|66:209,3,50.9999984436036,4|0|0|0,0:3|1:0|1:0|1:0,0:0:0:0:
117,166,149608,6,0,L|133:327,2,152.999995330811,4|4|4,3:2|0:3|0:3,0:0:0:0:
75,49,150419,2,0,P|120:73|171:71,1,101.999996887207,0|0,1:0|0:0,0:0:0:0:
279,17,150824,1,2,0:0:0:0:
274,142,151027,1,4,0:3:0:0:
274,142,151230,1,2,0:0:0:0:
381,82,151433,1,4,0:3:0:0:
274,142,151635,2,0,L|280:247,1,101.999996887207,4|0,0:3|0:0,0:0:0:0:
356,340,152041,2,0,P|397:335|436:280,1,101.999996887207,0|0,1:0|0:0,0:0:0:0:
447,168,152446,2,0,P|442:127|387:88,1,101.999996887207,4|0,0:3|0:0,0:0:0:0:
257,61,152851,6,0,P|157:82|56:70,1,203.999993774414,4|0,0:3|0:0,0:0:0:0:
13,189,153460,1,4,0:3:0:0:
13,189,153561,1,4,0:3:0:0:
13,188,153662,2,0,P|87:170|163:175,1,152.999995330811,0|4,1:0|0:3,0:0:0:0:
116,365,154270,1,0,1:0:0:0:
116,365,154372,1,0,1:0:0:0:
116,365,154473,2,0,P|149:296|202:241,1,152.999995330811,0|0,1:0|1:0,0:0:0:0:
270,259,154878,2,0,P|303:299|346:314,1,76.4999976654053,4|0,0:3|1:0,0:0:0:0:
417,334,155182,5,0,1:0:0:0:
417,334,155284,2,0,L|480:327,3,50.9999984436036,0|8|8|4,1:0|0:3|0:3|0:3,0:0:0:0:
415,260,155689,2,0,L|478:253,3,50.9999984436036,0|0|0|0,1:0|1:0|1:0|1:0,0:0:0:0:
500,184,156095,6,0,P|463:91|371:53,1,203.999993774414,4|0,3:2|0:0,0:0:0:0:
272,125,156703,1,4,0:3:0:0:
163,67,156906,2,0,P|187:32|253:17,1,101.999996887207,0|0,1:0|0:0,0:0:0:0:
358,54,157311,1,2,0:0:0:0:
381,174,157514,1,4,0:3:0:0:
303,267,157716,1,4,0:3:0:0:
190,308,157919,1,0,0:0:0:0:
190,308,158122,2,0,L|55:302,1,101.999996887207,4|0,0:3|0:0,0:0:0:0:
28,267,158426,1,4,0:3:0:0:
28,267,158527,2,0,P|28:182|135:123,1,203.999993774414,0|4,1:0|0:3,0:0:0:0:
325,256,159338,5,4,0:3:0:0:
452,124,159642,1,4,0:3:0:0:
304,16,159946,1,4,0:3:0:0:
271,134,160149,2,0,L|49:147,1,203.999993774414,0|2,1:0|0:0,0:0:0:0:
8,253,160757,1,4,0:3:0:0:
78,353,160960,2,0,P|114:319|128:265,1,101.999996887207,4|0,0:0|1:0,0:0:0:0:
198,256,161264,2,0,P|199:206|171:158,1,101.999996887207,4|0,0:3|1:0,0:0:0:0:
110,127,161568,1,4,0:3:0:0:
224,94,161770,2,0,P|269:154|284:229,1,152.999995330811,0|8,1:0|0:3,0:0:0:0:
273,298,162176,1,0,0:0:0:0:
175,371,162379,1,4,0:3:0:0:
95,252,162581,6,0,P|38:278|4:367,2,152.999995330811,4|4|4,0:3|0:3|0:3,0:0:0:0:
179,163,163392,2,0,P|152:106|64:72,2,152.999995330811,0|4|4,1:0|0:3|0:3,0:0:0:0:
243,292,164203,6,0,P|270:229|418:208,1,203.999993774414,4|4,0:3|0:3,0:0:0:0:
487,272,164811,1,4,0:3:0:0:
420,374,165014,1,0,1:0:0:0:
298,358,165216,1,0,1:0:0:0:
217,265,165419,5,2,1:2:0:0:
218,249,165520,1,2,0:2:0:0:
219,233,165622,1,2,1:2:0:0:
221,217,165723,1,2,0:2:0:0:
222,201,165824,5,6,3:2:0:0:
256,192,165926,12,0,168257,0:0:0:0:
