osu file format v14

[General]
AudioFilename: audio.mp3
AudioLeadIn: 0
PreviewTime: 103371
Countdown: 1
SampleSet: Soft
StackLeniency: 0.7
Mode: 0
LetterboxInBreaks: 0
WidescreenStoryboard: 0

[Editor]
Bookmarks: 27256,53202,79148,131040,144013,166716
DistanceSpacing: 0.5
BeatDivisor: 4
GridSize: 4
TimelineZoom: 1

[Metadata]
Title:Nightglow
TitleUnicode:Nightglow
Artist:Tanya Chua
ArtistUnicode:蔡健雅
Creator:Hey lululu
Version:Burning Rose
Source:崩坏3rd
Tags:崩壞3rd 崩坏3 蔡近翰 尹纯青Eyn 宫奇Gon Luna Safari Zoe HOYO-MiX
BeatmapID:1868127
BeatmapSetID:893939

[Difficulty]
HPDrainRate:6
CircleSize:5
OverallDifficulty:7
ApproachRate:9
SliderMultiplier:1.5
SliderTickRate:1

[Events]
//Background and Video events
0,0,"BG.jpg",0,0
//Break Periods
//Storyboard Layer 0 (Background)
//Storyboard Layer 1 (Fail)
//Storyboard Layer 2 (Pass)
//Storyboard Layer 3 (Foreground)
//Storyboard Sound Samples

[TimingPoints]
1306,405.405405405405,4,2,0,40,1,0
53096,-100,4,2,1,5,0,0
53197,-100,4,2,2,60,0,0
55022,-100,4,2,2,40,0,0
55630,-100,4,2,2,30,0,0
57049,-125,4,2,2,30,0,0
57657,-166.666666666667,4,2,2,30,0,0
58265,-250,4,2,2,30,0,0
58873,-166.666666666667,4,2,2,40,0,0
59076,-125,4,2,2,50,0,0
59278,-100,4,2,2,60,0,0
59481,-83.3333333333333,4,2,2,60,0,0
59684,-100,4,2,2,60,0,0
61508,-100,4,2,2,40,0,0
62116,-100,4,2,2,30,0,0
63535,-125,4,2,2,30,0,0
64143,-166.666666666667,4,2,2,30,0,0
64751,-250,4,2,2,30,0,0
65360,-166.666666666667,4,2,2,40,0,0
65562,-125,4,2,2,50,0,0
65764,-100,4,2,2,60,0,0
65967,-83.3333333333333,4,2,2,60,0,0
66170,-100,4,2,2,60,0,0
71035,-100,4,2,2,30,0,0
71846,-166.666666666667,4,2,2,40,0,0
72049,-125,4,2,2,50,0,0
72251,-100,4,2,2,60,0,0
72454,-83.3333333333333,4,2,2,60,0,0
79143,-125,4,2,1,60,0,0
100224,-125,4,2,1,30,0,0
104076,-125,4,2,1,10,0,0
105089,-100,4,2,1,60,0,1
106711,-200,4,2,1,60,0,1
108333,-100,4,2,1,60,0,1
114008,-200,4,2,1,60,0,1
115427,-100,4,2,1,60,0,1
117251,-100,4,2,1,60,0,0
118062,-100,4,2,1,60,0,1
131035,-125,4,2,1,60,0,0
143603,-125,4,2,0,60,0,0
144008,-83.3333333333333,4,2,1,60,0,1
145630,-166.666666666667,4,2,1,60,0,1
147251,-83.3333333333333,4,2,1,60,0,1
152927,-166.666666666667,4,2,1,60,0,1
154346,-83.3333333333333,4,2,1,60,0,1
156170,-83.3333333333333,4,2,1,60,0,0
156981,-83.3333333333333,4,2,1,60,0,1
166711,-200,4,2,1,60,0,0
169549,-200,4,2,0,50,0,0
169954,-200,4,2,0,40,0,0
178062,-200,4,2,0,20,0,0

[Colours]
Combo1 : 255,184,113
Combo2 : 170,0,0
Combo3 : 255,107,36
Combo4 : 255,128,128

[HitObjects]
483,384,1306,5,2,0:0:0:0:
512,329,1711,1,0,0:0:0:0:
459,268,2116,1,2,0:0:0:0:
512,193,2522,1,0,0:0:0:0:
421,108,2927,1,2,0:0:0:0:
512,0,3333,1,0,0:0:0:0:
512,0,4549,5,2,0:0:0:0:
421,108,4955,1,0,0:0:0:0:
512,193,5360,1,2,0:0:0:0:
459,268,5766,1,0,0:0:0:0:
512,329,6171,1,2,0:0:0:0:
483,384,6981,1,2,0:0:0:0:
256,0,7792,5,2,0:0:0:0:
218,57,8197,1,0,0:0:0:0:
299,106,8603,1,2,0:0:0:0:
191,180,9008,1,0,0:0:0:0:
312,250,9414,1,2,0:0:0:0:
175,313,9819,1,0,0:0:0:0:
317,382,10224,1,2,0:0:0:0:
317,382,11035,5,2,0:0:0:0:
175,313,11440,1,0,0:0:0:0:
312,250,11845,1,2,0:0:0:0:
191,180,12251,1,0,0:0:0:0:
299,106,12656,1,2,0:0:0:0:
218,57,13062,1,0,0:0:0:0:
256,0,13468,1,2,0:0:0:0:
36,243,14278,5,2,0:0:0:0:
3,146,14684,1,0,0:0:0:0:
48,257,15089,1,2,0:0:0:0:
93,165,15495,1,0,0:0:0:0:
61,281,15900,1,2,0:0:0:0:
157,247,16306,1,0,0:0:0:0:
256,384,16711,1,2,0:0:0:0:
476,243,17522,5,2,0:0:0:0:
509,146,17928,1,0,0:0:0:0:
464,257,18333,1,2,0:0:0:0:
419,165,18739,1,0,0:0:0:0:
451,281,19144,1,2,0:0:0:0:
355,247,19550,1,0,0:0:0:0:
256,384,19954,1,2,0:0:0:0:
256,384,20765,5,2,0:0:0:0:
325,299,21170,1,0,0:0:0:0:
177,261,21576,1,2,0:0:0:0:
356,188,21981,1,0,0:0:0:0:
164,141,22387,1,2,0:0:0:0:
374,70,22792,1,0,0:0:0:0:
153,7,23197,1,2,0:0:0:0:
153,7,24008,5,2,0:0:0:0:
218,79,24414,1,0,0:0:0:0:
311,107,24819,1,2,0:0:0:0:
408,107,25224,1,0,0:0:0:0:
497,66,25630,1,2,0:0:0:0:
497,66,27251,6,0,P|470:98|458:149,1,75,2|0,0:0|0:0,0:0:0:0:
375,115,27657,2,0,P|378:156|406:201,1,75
464,247,28062,1,2,0:0:0:0:
208,198,28468,6,0,P|235:230|247:281,1,75,2|0,0:0|0:0,0:0:0:0:
330,247,28874,2,0,P|326:288|298:333,1,75
241,379,29279,1,2,0:0:0:0:
224,268,29481,1,0,0:0:0:0:
241,379,29684,1,2,0:0:0:0:
294,128,30089,1,2,0:0:0:0:
94,52,30495,6,0,P|52:47|17:30,1,75,2|0,0:0|0:0,0:0:0:0:
115,133,30900,2,0,P|157:128|192:111,1,75
65,235,31305,2,0,P|34:263|-1:279,1,75,2|0,0:0|0:0,0:0:0:0:
140,270,31711,2,0,P|163:234|172:196,1,75
253,311,32116,2,0,P|255:353|244:390,1,75,2|0,0:0|0:0,0:0:0:0:
328,276,32522,2,0,P|315:235|292:203,1,75
329,136,32927,5,2,0:0:0:0:
441,177,33130,1,0,0:0:0:0:
284,47,33333,1,2,0:0:0:0:
389,0,33535,1,0,0:0:0:0:
256,150,33738,6,0,P|290:137|347:140,1,75,2|0,0:0|0:0,0:0:0:0:
180,223,34143,2,0,P|213:237|251:280,1,75
86,239,34549,1,2,0:0:0:0:
321,270,34954,6,0,P|287:257|230:260,1,75,2|0,0:0|0:0,0:0:0:0:
397,343,35359,2,0,P|363:357|325:400,1,75
491,359,35765,1,2,0:0:0:0:
411,230,35968,1,0,0:0:0:0:
491,359,36170,1,2,0:0:0:0:
512,169,36373,1,0,0:0:0:0:
342,251,36576,1,2,0:0:0:0:
342,251,36778,1,0,0:0:0:0:
375,164,36981,6,0,P|399:198|413:239,1,75,2|0,0:0|0:0,0:0:0:0:
350,66,37387,2,0,P|363:31|385:0,1,75
218,163,37792,2,0,P|207:203|184:240,1,75,2|0,0:0|0:0,0:0:0:0:
277,80,38198,2,0,P|312:68|349:65,1,75
118,42,38603,2,0,P|80:59|37:66,1,75,2|0,0:0|0:0,0:0:0:0:
219,33,39009,2,0,P|250:52|276:79,1,75
324,210,39414,5,2,0:0:0:0:
146,252,39616,1,0,0:0:0:0:
343,192,39819,1,2,0:0:0:0:
108,340,40022,1,0,0:0:0:0:
246,247,40224,6,0,P|236:288|233:330,1,75,2|0,0:0|0:0,0:0:0:0:
91,110,40630,2,0,P|101:151|104:193,1,75
237,76,41035,1,2,0:0:0:0:
237,76,41441,6,0,P|247:35|250:-7,1,75,2|0,0:0|0:0,0:0:0:0:
392,213,41847,2,0,P|382:172|379:130,1,75
246,247,42252,1,2,0:0:0:0:
246,247,42657,5,0,0:0:0:0:
461,206,42860,1,0,0:0:0:0:
246,247,43062,1,2,0:0:0:0:
399,283,43468,6,0,P|369:315|350:365,1,75,2|0,0:0|0:0,0:0:0:0:
333,199,43873,2,0,P|303:167|284:117,1,75
253,325,44278,2,0,P|223:357|204:407,1,75,2|0,0:0|0:0,0:0:0:0:
211,151,44684,2,0,P|181:119|162:66,1,75
133,325,45089,2,0,P|103:357|84:407,1,75,2|0,0:0|0:0,0:0:0:0:
96,123,45494,2,0,P|66:91|47:41,1,75
2,264,45900,5,2,0:0:0:0:
212,212,46103,1,0,0:0:0:0:
2,244,46305,1,2,0:0:0:0:
213,224,46508,1,0,0:0:0:0:
138,349,46711,6,0,P|101:337|65:305,1,75,2|0,0:0|0:0,0:0:0:0:
299,229,47116,2,0,P|328:206|364:194,1,75
157,109,47522,1,2,0:0:0:0:
199,235,47724,1,0,0:0:0:0:
157,109,47927,1,2,0:0:0:0:
138,349,48333,6,0,P|101:337|65:305,1,75,2|0,0:0|0:0,0:0:0:0:
299,229,48738,2,0,P|328:206|364:194,1,75
157,109,49144,1,2,0:0:0:0:
199,235,49346,1,0,0:0:0:0:
236,35,49549,1,2,0:0:0:0:
199,235,49751,1,0,0:0:0:0:
364,26,49954,5,6,0:0:0:0:
256,192,50055,12,0,53096,0:0:0:0:
172,168,53197,6,0,B|134:191|139:236|139:236|178:254|220:230,1,150,8|0,0:0|0:0,0:0:0:0:
227,93,53805,2,0,B|194:63|152:79|152:79|144:121|179:155,1,150,8|0,0:0|0:0,0:0:0:0:
319,140,54414,2,0,B|339:101|313:64|313:64|270:67|246:110,1,150,8|0,0:0|0:0,0:0:0:0:
308,231,55022,2,0,B|350:240|379:205|379:205|365:165|318:152,1,150,8|0,0:0|0:0,0:0:0:0:
256,178,55630,6,0,L|256:271,1,75,8|0,0:0|0:0,0:0:0:0:
256,279,55934,1,8,0:0:0:0:
256,279,56035,2,0,L|256:372,1,75,8|8,0:0|0:0,0:0:0:0:
137,358,56441,6,0,P|68:353|44:276,1,150,8|0,0:0|0:0,0:0:0:0:
82,181,57049,2,0,P|41:222|55:278,1,120,8|0,0:0|0:0,0:0:0:0:
100,193,57657,2,0,P|142:181|178:205,1,89.9999972534181,8|0,0:0|0:0,0:0:0:0:
197,278,58265,2,0,P|205:249|190:224,1,60,8|0,0:0|0:0,0:0:0:0:
212,115,58873,6,0,P|208:125|210:142,1,22.4999993133545,8|0,0:0|0:0,0:0:0:0:
274,222,59076,6,0,P|266:202|272:178,1,30,8|0,0:0|0:0,0:0:0:0:
333,54,59278,6,0,P|325:74|331:98,1,37.5,8|0,0:0|0:0,0:0:0:0:
376,238,59481,6,0,P|368:218|374:194,1,44.999998626709,8|0,0:0|0:0,0:0:0:0:
458,308,59684,6,0,B|495:331|490:376|490:376|451:394|409:370,1,150,8|0,0:0|0:0,0:0:0:0:
403,233,60292,2,0,B|435:203|477:219|477:219|485:261|450:295,1,150,8|0,0:0|0:0,0:0:0:0:
311,280,60901,2,0,B|290:241|316:204|316:204|359:207|383:250,1,150,8|0,0:0|0:0,0:0:0:0:
322,371,61509,2,0,B|279:380|250:345|250:345|264:305|311:292,1,150,8|0,0:0|0:0,0:0:0:0:
356,238,62116,6,0,P|380:281|381:311,1,75
379,332,62420,1,8,0:0:0:0:
379,332,62522,2,0,P|429:320|465:325,1,75,8|8,0:0|0:0,0:0:0:0:
397,178,62927,6,0,P|351:162|281:240,1,150,8|0,0:0|0:0,0:0:0:0:
206,166,63535,2,0,P|237:139|209:55,1,120,8|0,0:0|0:0,0:0:0:0:
288,17,64143,2,0,P|291:32|325:40,1,44.999998626709,8|0,0:0|0:0,0:0:0:0:
472,48,64549,5,0,0:0:0:0:
440,166,64751,1,0,0:0:0:0:
411,279,64954,1,2,0:0:0:0:
411,279,65360,6,0,P|407:272|401:253,1,22.4999993133545,2|0,0:0|0:0,0:0:0:0:
340,338,65562,6,0,P|333:349|327:365,1,30,2|0,0:0|0:0,0:0:0:0:
283,225,65765,6,0,P|268:201|257:167,1,37.5,8|0,0:0|0:0,0:0:0:0:
226,340,65968,6,0,P|210:364|199:400,1,44.999998626709,8|0,0:0|0:0,0:0:0:0:
40,290,66170,6,0,B|107:281|107:281|122:284|122:284|193:274,1,150,8|0,0:0|0:0,0:0:0:0:
188,274,66778,1,8,0:0:0:0:
87,226,66981,1,2,0:0:0:0:
133,360,67184,1,0,0:0:0:0:
164,178,67387,1,8,0:0:0:0:
133,360,67589,1,0,0:0:0:0:
259,220,67792,5,2,0:0:0:0:
58,154,67995,1,8,0:0:0:0:
254,238,68197,5,0,0:0:0:0:
67,138,68400,1,0,0:0:0:0:
228,234,68603,5,2,0:0:0:0:
94,129,68806,1,0,0:0:0:0:
158,251,69008,5,8,0:0:0:0:
161,109,69211,1,0,0:0:0:0:
324,26,69414,6,0,P|296:58|371:60,1,150,8|0,0:0|0:0,0:0:0:0:
512,110,70022,2,0,B|478:90|432:104|432:104|422:131|377:161,1,150,8|0,0:0|0:0,0:0:0:0:
475,249,70630,2,0,P|491:208|482:179,1,75,8|0,0:0|0:0,0:0:0:0:
366,213,71035,5,0,0:0:0:0:
382,335,71238,1,0,0:0:0:0:
366,213,71441,1,0,0:0:0:0:
382,335,71644,1,0,0:0:0:0:
366,213,71846,6,0,L|328:208,1,22.4999993133545,8|0,0:0|0:0,0:0:0:0:
382,335,72049,6,0,L|348:344,1,30,8|0,0:0|0:0,0:0:0:0:
237,196,72251,6,0,L|199:191,1,37.5,8|0,0:0|0:0,0:0:0:0:
259,364,72454,5,10,0:0:0:0:
215,374,72555,1,2,0:0:0:0:
171,384,72656,5,2,0:0:0:0:
267,271,72860,1,0,0:0:0:0:
119,214,73062,5,2,0:0:0:0:
297,125,73265,1,0,0:0:0:0:
135,198,73468,5,2,2:0:0:0:
287,152,73671,1,0,2:0:0:0:
153,190,73873,5,2,2:0:0:0:
280,176,74076,1,0,2:0:0:0:
256,192,74278,12,2,78941,0:0:0:0:
83,60,79143,6,0,L|104:188,1,120,2|0,0:0|0:0,0:0:0:0:
26,249,79751,1,2,0:0:0:0:
133,311,79954,2,0,P|104:280|25:268,1,120,8|0,0:0|0:0,0:0:0:0:
148,222,80765,5,2,0:0:0:0:
148,222,80968,2,0,B|219:204|192:254|268:233,1,120,8|0,0:0|0:0,0:0:0:0:
364,170,81576,2,0,L|343:307,1,120,8|0,0:0|0:0,0:0:0:0:
458,359,82387,6,0,P|481:333|507:324,1,60,2|0,0:0|0:0,0:0:0:0:
345,288,82792,2,0,P|317:276|298:253,1,60,0|2,0:0|0:0,0:0:0:0:
457,147,83197,2,0,P|506:184|490:236,1,120,8|0,0:0|0:0,0:0:0:0:
381,145,84008,5,2,0:0:0:0:
381,145,84211,2,0,B|357:77|398:93|377:18,1,120,8|0,0:0|0:0,0:0:0:0:
249,57,84819,2,0,B|282:64|282:64|312:43,1,60,8|0,0:0|0:0,0:0:0:0:
500,125,85224,2,0,B|467:132|467:132|437:111,1,60
331,207,85630,6,0,B|261:192|283:239|216:226,1,120,2|0,0:0|0:0,0:0:0:0:
121,185,86238,1,2,0:0:0:0:
146,59,86441,2,0,L|135:206,1,120,8|0,0:0|0:0,0:0:0:0:
2,173,87251,5,2,0:0:0:0:
2,173,87454,2,0,P|42:196|61:278,1,120,8|0,0:0|0:0,0:0:0:0:
15,356,88062,2,0,L|154:340,1,120,8|0,0:0|0:0,0:0:0:0:
134,342,88873,6,0,P|118:308|101:291,1,60,2|0,0:0|0:0,0:0:0:0:
189,171,89278,2,0,P|173:205|156:222,1,60,0|2,0:0|0:0,0:0:0:0:
0,177,89684,1,8,0:0:0:0:
118,160,89887,1,0,0:0:0:0:
0,177,90089,1,0,0:0:0:0:
118,160,90292,1,0,0:0:0:0:
35,35,90495,5,2,0:0:0:0:
35,35,90697,2,0,B|103:16|84:66|160:42,1,120,8|0,0:0|0:0,0:0:0:0:
250,16,91204,1,0,0:0:0:0:
222,100,91305,5,8,0:0:0:0:
419,68,91508,1,0,0:0:0:0:
486,233,91711,5,0,0:0:0:0:
289,201,91914,1,0,0:0:0:0:
438,175,92116,6,0,L|451:297,1,120,2|0,0:0|0:0,0:0:0:0:
372,383,92724,1,2,0:0:0:0:
261,382,92927,2,0,P|310:349|372:365,1,120,8|0,0:0|0:0,0:0:0:0:
292,277,93738,5,2,0:0:0:0:
292,277,93941,2,0,L|218:270,1,60,8|0,0:0|0:0,0:0:0:0:
128,264,94346,1,0,0:0:0:0:
181,100,94549,2,0,P|229:124|253:195,1,120,8|0,0:0|0:0,0:0:0:0:
293,47,95360,6,0,B|325:22|361:28|361:28|384:53|411:69,1,120,2|0,0:0|0:0,0:0:0:0:
222,105,95968,1,2,0:0:0:0:
222,105,96170,2,0,P|180:98|129:34,1,120,8|0,0:0|0:0,0:0:0:0:
325,112,96981,5,2,0:0:0:0:
325,112,97184,2,0,L|341:197,1,60,8|0,0:0|0:0,0:0:0:0:
355,264,97589,1,0,0:0:0:0:
428,144,97792,1,8,0:0:0:0:
242,108,97995,1,0,0:0:0:0:
325,199,98197,1,0,0:0:0:0:
511,163,98400,1,0,0:0:0:0:
313,348,98603,6,0,P|271:345|220:271,1,120,2|0,0:0|0:0,0:0:0:0:
269,163,99211,1,2,0:0:0:0:
131,188,99414,2,0,B|168:207|168:207|266:184,1,120,8|0,0:0|0:0,0:0:0:0:
188,53,100224,5,0,0:0:0:0:
412,376,101441,6,0,L|442:251,1,120
256,192,101947,12,0,104076,0:0:0:0:
53,90,105089,6,0,P|83:120|92:162,1,75,6|0,0:0|0:0,0:0:0:0:
168,252,105393,2,0,P|178:211|210:182,1,75,2|0,0:0|0:0,0:0:0:0:
306,152,105697,2,0,L|349:145,1,37.5,2|0,0:0|0:0,0:0:0:0:
482,124,105900,5,8,0:0:0:0:
482,124,106508,1,2,0:0:0:0:
386,80,106711,6,0,P|373:46|373:3,2,75,4|2|8,0:0|0:0|0:0,0:0:0:0:
482,124,107826,1,8,3:0:0:0:
338,188,108130,1,8,3:0:0:0:
512,312,108333,6,0,P|476:304|432:316,1,75,6|0,0:0|0:0,0:0:0:0:
311,380,108637,2,0,P|347:388|391:376,1,75,2|0,0:0|0:0,0:0:0:0:
346,301,108941,2,0,L|343:255,1,37.5,2|0,0:0|0:0,0:0:0:0:
334,112,109143,5,8,0:0:0:0:
232,251,109346,1,2,0:0:0:0:
232,251,109751,1,2,0:0:0:0:
154,29,109954,5,6,0:0:0:0:
279,176,110157,1,2,0:0:0:0:
279,176,110258,1,8,0:0:0:0:
101,213,110461,1,2,0:0:0:0:
178,140,110664,5,2,0:0:0:0:
178,140,110765,1,8,0:0:0:0:
223,356,110968,1,2,0:0:0:0:
223,356,111069,1,8,0:0:0:0:
256,254,111272,1,8,0:0:0:0:
219,263,111373,1,8,0:0:0:0:
183,272,111474,1,8,0:0:0:0:
147,282,111576,6,0,P|109:276|82:250,1,75,6|0,0:0|0:0,0:0:0:0:
12,276,111880,2,0,P|8:237|26:204,1,75,2|0,0:0|0:0,0:0:0:0:
93,150,112184,2,0,L|139:140,1,37.5,2|0,0:0|0:0,0:0:0:0:
237,114,112387,5,8,0:0:0:0:
237,114,112995,1,2,0:0:0:0:
138,62,113197,5,6,0:0:0:0:
208,223,113400,1,2,0:0:0:0:
279,14,113603,1,2,0:0:0:0:
279,14,114008,2,0,L|291:97,1,75,8|0,0:0|0:0,0:0:0:0:
289,88,114819,6,0,P|326:76|370:78,1,75,2|0,0:0|0:0,0:0:0:0:
458,156,115427,1,2,0:0:0:0:
452,193,115528,1,2,0:0:0:0:
447,230,115630,1,8,0:0:0:0:
377,361,115934,1,0,0:0:0:0:
512,353,116238,1,8,0:0:0:0:
507,316,116339,1,8,0:0:0:0:
501,279,116441,5,12,0:0:0:0:
279,225,116643,1,0,0:0:0:0:
377,361,116846,5,8,0:0:0:0:
510,185,117049,1,8,0:0:0:0:
263,138,117251,5,8,0:0:0:0:
266,160,117352,1,8,0:0:0:0:
270,182,117453,1,8,0:0:0:0:
274,204,117555,1,0,0:0:0:0:
279,225,117657,5,8,0:0:0:0:
315,224,117758,1,8,0:0:0:0:
346,204,117859,1,8,0:0:0:0:
361,170,117961,1,8,0:0:0:0:
354,133,118062,6,0,L|342:59,1,75,6|0,0:0|0:0,0:0:0:0:
498,100,118366,2,0,P|466:117|428:115,1,75,2|0,0:0|0:0,0:0:0:0:
446,8,118670,2,0,L|451:45,1,37.5,2|0,0:0|0:0,0:0:0:0:
477,217,118873,5,8,0:0:0:0:
477,217,119481,1,2,0:0:0:0:
348,317,119684,5,6,0:0:0:0:
213,151,119887,2,0,P|293:132|352:180,1,150,2|0,0:0|0:0,0:0:0:0:
383,247,120393,2,0,L|405:242,2,18.75,0|0|8,0:0|0:0|0:0,0:0:0:0:
268,349,120900,1,0,0:0:0:0:
113,314,121305,6,0,P|95:351|97:394,1,75,6|0,0:0|0:0,0:0:0:0:
20,272,121610,2,0,P|18:234|1:201,1,75,2|0,0:0|0:0,0:0:0:0:
102,225,121914,2,0,L|141:216,1,37.5,2|0,0:0|0:0,0:0:0:0:
256,192,122116,5,8,0:0:0:0:
78,103,122319,1,2,0:0:0:0:
78,103,122724,1,2,0:0:0:0:
290,25,122927,5,6,0:0:0:0:
193,180,123130,1,2,0:0:0:0:
188,161,123231,1,8,0:0:0:0:
361,241,123434,1,2,0:0:0:0:
356,260,123535,1,8,0:0:0:0:
249,370,123738,5,8,0:0:0:0:
153,243,124042,1,0,3:0:0:0:
135,249,124143,1,8,0:0:0:0:
331,166,124346,1,8,3:0:0:0:
117,13,124549,6,0,P|104:48|110:85,1,75,14|0,0:0|0:0,0:0:0:0:
244,106,124853,2,0,P|221:76|186:63,1,75,2|0,0:0|0:0,0:0:0:0:
118,190,125157,2,0,L|169:183,1,37.5,2|0,0:0|0:0,0:0:0:0:
331,166,125360,5,8,0:0:0:0:
293,18,125664,1,2,0:0:0:0:
331,166,125968,1,2,0:0:0:0:
426,246,126170,6,0,L|436:163,1,75,14|0,0:0|0:0,0:0:0:0:
324,302,126576,1,2,0:0:0:0:
493,332,126778,1,2,0:0:0:0:
275,219,126981,5,8,0:0:0:0:
512,156,127184,1,8,0:0:0:0:
303,63,127387,1,8,0:0:0:0:
265,59,127488,1,8,0:0:0:0:
228,56,127589,1,8,0:0:0:0:
190,52,127691,1,8,0:0:0:0:
153,49,127792,5,4,0:0:0:0:
38,207,127995,1,2,0:0:0:0:
38,207,128197,1,2,0:0:0:0:
239,260,128400,1,8,0:0:0:0:
246,223,128501,1,2,0:0:0:0:
58,100,128704,1,2,0:0:0:0:
63,137,128805,1,2,0:0:0:0:
69,174,128906,1,2,0:0:0:0:
75,211,129008,5,2,0:0:0:0:
38,207,129110,1,8,0:0:0:0:
251,284,129414,5,8,0:0:0:0:
287,277,129515,1,8,0:0:0:0:
324,271,129616,1,8,0:0:0:0:
361,264,129718,1,8,0:0:0:0:
361,264,130022,5,8,0:0:0:0:
365,227,130123,1,8,0:0:0:0:
369,190,130224,1,8,3:0:0:0:
224,133,130528,1,8,3:0:0:0:
404,0,130833,1,8,0:0:0:0:
407,37,130934,1,8,0:0:0:0:
411,74,131035,6,0,P|461:87|512:63,2,90,6|2|2,0:0|0:0|0:0,0:0:0:0:
313,29,131846,2,0,L|192:40,1,120,8|0,0:0|0:0,0:0:0:0:
115,133,132454,1,0,0:0:0:0:
209,170,132657,6,0,P|215:141|200:90,1,60,4|0,0:0|0:0,0:0:0:0:
77,223,133062,2,0,P|71:252|86:303,1,60,0|2,0:0|0:0,0:0:0:0:
98,301,133366,1,2,0:0:0:0:
123,317,133468,5,8,0:0:0:0:
246,256,133772,1,0,3:0:0:0:
353,346,134076,1,0,3:0:0:0:
265,241,134278,6,0,L|273:131,2,90,2|2|2,0:0|0:0|0:0,0:0:0:0:
178,180,135089,1,8,0:0:0:0:
349,108,135292,1,2,0:0:0:0:
349,108,135697,1,2,0:0:0:0:
65,30,136103,5,2,0:0:0:0:
35,34,136204,1,2,0:0:0:0:
167,106,136407,1,2,0:0:0:0:
197,102,136508,1,2,0:0:0:0:
226,98,136610,6,0,L|229:121,2,15,0|0|8,0:0|0:0|0:0,0:0:0:0:
76,212,136914,5,2,0:0:0:0:
46,208,137015,1,8,0:0:0:0:
186,303,137218,1,8,0:0:0:0:
216,299,137319,1,8,0:0:0:0:
245,294,137420,1,8,0:0:0:0:
275,290,137522,6,0,P|311:310|340:359,2,90,6|2|2,0:0|0:0|0:0,0:0:0:0:
166,378,138333,1,8,0:0:0:0:
166,378,138941,1,2,0:0:0:0:
166,378,139346,5,2,0:0:0:0:
125,215,139549,1,2,0:0:0:0:
125,215,139954,2,0,P|154:215|186:202,1,60,8|0,0:0|0:0,0:0:0:0:
47,168,140360,1,2,0:0:0:0:
238,47,140765,5,2,0:0:0:0:
238,47,141373,1,2,0:0:0:0:
241,76,141474,1,2,0:0:0:0:
245,106,141575,1,8,0:0:0:0:
353,176,141880,1,2,0:0:0:0:
193,234,142184,1,2,0:0:0:0:
189,263,142285,1,8,0:0:0:0:
256,192,142387,12,2,143603,0:0:0:0:
165,76,144008,6,0,B|119:72|78:45|78:45|44:83|-20:99,1,179.999994506836,6|0,0:0|0:0,0:0:0:0:
42,174,144616,1,2,0:0:0:0:
42,174,144819,2,0,B|54:214|103:238|103:238|143:203|140:156,1,179.999994506836,8|0,0:0|0:0,0:0:0:0:
237,57,145427,1,2,0:0:0:0:
237,57,145630,6,0,L|334:72,2,89.9999972534181,6|2|2,0:0|0:0|0:0,0:0:0:0:
140,160,146745,1,8,3:0:0:0:
308,236,147049,1,8,3:0:0:0:
143,369,147251,6,0,P|110:341|60:328,1,89.9999972534181,14|0,0:0|0:0,0:0:0:0:
158,274,147555,2,0,P|191:246|241:233,1,89.9999972534181,2|0,0:0|0:0,0:0:0:0:
355,328,147860,2,0,L|365:275,1,44.999998626709,2|0,0:0|0:0,0:0:0:0:
386,137,148062,5,8,0:0:0:0:
453,262,148265,1,2,0:0:0:0:
453,262,148670,1,2,0:0:0:0:
482,49,148873,5,6,0:0:0:0:
289,144,149076,1,2,0:0:0:0:
289,144,149177,1,8,0:0:0:0:
391,0,149380,1,2,0:0:0:0:
400,43,149481,1,2,0:0:0:0:
410,87,149583,1,2,0:0:0:0:
420,131,149684,5,8,0:0:0:0:
326,270,149887,1,8,0:0:0:0:
203,176,150089,1,8,0:0:0:0:
158,171,150190,1,8,0:0:0:0:
116,186,150291,1,8,0:0:0:0:
84,217,150393,1,8,0:0:0:0:
67,258,150495,6,0,P|87:300|94:348,1,89.9999972534181,6|0,0:0|0:0,0:0:0:0:
1,212,150799,2,0,P|8:167|27:127,1,89.9999972534181,2|0,0:0|0:0,0:0:0:0:
44,23,151103,2,0,P|65:37|98:44,1,44.999998626709,2|0,0:0|0:0,0:0:0:0:
209,24,151305,5,8,0:0:0:0:
209,24,151914,1,2,0:0:0:0:
144,162,152116,5,6,0:0:0:0:
326,102,152319,1,2,0:0:0:0:
144,162,152522,1,2,0:0:0:0:
144,162,152927,2,0,L|241:168,1,89.9999972534181,8|0,0:0|0:0,0:0:0:0:
233,167,153738,6,0,P|207:186|183:243,1,89.9999972534181,4|0,0:0|0:0,0:0:0:0:
297,345,154346,1,2,0:0:0:0:
288,300,154447,1,2,0:0:0:0:
279,256,154548,1,8,0:0:0:0:
167,311,154853,1,2,0:0:0:0:
383,287,155157,1,8,0:0:0:0:
391,242,155258,1,8,0:0:0:0:
400,198,155360,5,8,0:0:0:0:
273,71,155664,1,8,0:0:0:0:
462,12,155900,5,8,0:0:0:0:
473,55,156069,1,8,0:0:0:0:
486,97,156170,5,8,0:0:0:0:
460,90,156271,1,8,0:0:0:0:
433,94,156372,1,8,0:0:0:0:
412,110,156474,1,0,0:0:0:0:
396,132,156576,5,8,0:0:0:0:
363,163,156677,1,8,0:0:0:0:
322,179,156778,1,8,0:0:0:0:
277,178,156880,1,8,0:0:0:0:
236,159,156981,6,0,B|244:230|244:230|271:260|271:260|281:333,1,179.999994506836,6|0,0:0|0:0,0:0:0:0:
60,319,157589,1,2,0:0:0:0:
60,319,157792,2,0,B|82:297|90:270|90:270|156:249|218:317,1,179.999994506836,8|0,0:0|0:0,0:0:0:0:
314,192,158400,1,2,0:0:0:0:
214,62,158603,6,0,B|93:55|151:121|25:97,1,179.999994506836,6|0,0:0|0:0,0:0:0:0:
74,21,159211,1,2,0:0:0:0:
74,21,159312,2,0,L|69:-4,2,22.4999993133545,0|0|8,0:0|0:0|0:0,0:0:0:0:
103,188,159819,1,0,0:0:0:0:
276,147,160224,6,0,P|241:122|187:117,1,89.9999972534181,6|0,0:0|0:0,0:0:0:0:
337,219,160528,2,0,P|381:213|417:187,1,89.9999972534181,2|0,0:0|0:0,0:0:0:0:
226,215,160833,2,0,L|222:274,1,44.999998626709,2|0,0:0|0:0,0:0:0:0:
212,362,161035,5,8,0:0:0:0:
70,170,161238,1,0,0:0:0:0:
70,170,161643,1,2,0:0:0:0:
165,189,161846,5,6,0:0:0:0:
59,265,162049,1,8,0:0:0:0:
245,175,162251,1,2,0:0:0:0:
256,199,162353,1,8,0:0:0:0:
118,18,162657,5,8,0:0:0:0:
34,157,162961,1,0,3:0:0:0:
13,164,163062,1,8,0:0:0:0:
172,254,163265,1,0,3:0:0:0:
240,108,163468,6,0,P|277:98|318:65,1,89.9999972534181,6|0,0:0|0:0,0:0:0:0:
400,4,163772,2,0,P|434:32|476:45,1,89.9999972534181,2|0,0:0|0:0,0:0:0:0:
502,144,164076,2,0,L|451:141,1,44.999998626709,2|0,0:0|0:0,0:0:0:0:
341,238,164278,5,12,0:0:0:0:
316,66,164583,1,2,0:0:0:0:
341,238,164887,1,2,0:0:0:0:
450,310,165089,6,0,P|464:266|454:214,1,89.9999972534181,6|0,0:0|0:0,0:0:0:0:
264,169,165495,1,2,0:0:0:0:
323,322,165697,1,2,0:0:0:0:
406,136,165900,5,2,0:0:0:0:
177,232,166103,1,8,0:0:0:0:
406,157,166305,5,8,0:0:0:0:
117,72,166508,1,8,0:0:0:0:
447,17,166711,5,12,0:0:0:0:
256,192,166812,12,2,169549,0:0:0:0:
198,51,169954,6,0,P|163:43|111:50,1,75,0|2,0:0|0:0,0:0:0:0:
314,51,170765,2,0,P|349:43|401:50,1,75,0|2,0:0|0:0,0:0:0:0:
201,130,171576,2,0,P|168:140|138:171,1,75,0|2,0:0|0:0,0:0:0:0:
311,130,172387,2,0,P|344:140|374:171,1,75,0|2,0:0|0:0,0:0:0:0:
256,380,173197,5,2,0:0:0:0:
256,272,173603,1,2,0:0:0:0:
162,321,174008,2,0,P|125:318|93:296,1,75,0|2,0:0|0:0,0:0:0:0:
350,321,174819,2,0,P|387:318|419:296,1,75,0|2,0:0|0:0,0:0:0:0:
256,272,175630,1,0,0:0:0:0:
256,286,176035,1,2,0:0:0:0:
184,206,176441,6,0,L|99:194,1,75,0|2,0:0|0:0,0:0:0:0:
328,206,177251,2,0,L|413:194,1,75,0|2,0:0|0:0,0:0:0:0:
256,104,178062,5,2,0:0:0:0:
256,56,178468,1,2,0:0:0:0:
256,36,178873,1,2,0:0:0:0:
