osu file format v14

[General]
AudioFilename: audio.mp3
AudioLeadIn: 0
PreviewTime: -1
Countdown: 1
SampleSet: None
StackLeniency: 0.7
Mode: 0
LetterboxInBreaks: 0
WidescreenStoryboard: 0

[Editor]
Bookmarks: 6720
DistanceSpacing: 0.8
BeatDivisor: 4
GridSize: 16
TimelineZoom: 1

[Metadata]
Title:Sawakaze ~TV size~
TitleUnicode:Sawakaze ~TV size~
Artist:Tanizawa Tomofumi
ArtistUnicode:Tanizawa Tomofumi
Creator:iKishin
Version:Insane
Source:
Tags:
BeatmapID:1589254
BeatmapSetID:754951

[Difficulty]
HPDrainRate:6.5
CircleSize:4
OverallDifficulty:8
ApproachRate:8
SliderMultiplier:1.7
SliderTickRate:1

[Events]
//Background and Video events
//Break Periods
//Storyboard Layer 0 (Background)
//Storyboard Layer 1 (Fail)
//Storyboard Layer 2 (Pass)
//Storyboard Layer 3 (Foreground)
//Storyboard Sound Samples

[TimingPoints]
799,422.535211267606,4,1,0,100,1,0
799,-166.666666666667,4,1,0,100,0,0
11784,-200,4,1,0,100,0,0
14742,-100,4,1,0,100,0,0
33756,-83.3333333333333,4,1,0,100,0,0
57841,-200,4,1,0,100,0,0

[HitObjects]
336,240,587,5,0,0:0:0:0:
416,272,799,1,0,0:0:0:0:
464,208,1010,1,0,0:0:0:0:
432,128,1221,1,0,0:0:0:0:
352,144,1644,2,0,L|240:160,1,101.999996887207
256,208,2489,2,0,L|368:160,1,101.999996887207
304,304,3334,6,0,P|336:288|336:256,1,50.9999984436036
256,192,3756,2,0,P|256:224|288:240,1,50.9999984436036
384,192,4179,2,0,P|352:192|336:208,1,50.9999984436036
288,304,5024,6,0,L|176:288,1,101.999996887207
192,224,5869,2,0,L|304:272,1,101.999996887207
176,48,6925,5,0,0:0:0:0:
288,128,7137,1,0,0:0:0:0:
64,128,7348,2,0,P|64:160|80:176,1,50.9999984436036
224,240,7770,5,0,0:0:0:0:
240,128,7982,1,0,0:0:0:0:
128,240,8193,2,0,P|144:272|176:272,1,50.9999984436036
416,256,8615,5,0,0:0:0:0:
368,80,8827,1,0,0:0:0:0:
512,128,9038,2,0,P|496:208|432:240,1,152.999995330811
191,271,10306,6,0,B|123:259|105:191|105:191|135:118|202:109,1,254.999992218018
368,128,11784,2,0,P|336:240|224:192,1,255
368,112,14320,5,0,0:0:0:0:
368,112,14425,1,0,0:0:0:0:
368,112,14531,1,0,0:0:0:0:
336,208,14742,2,0,L|432:160,1,85
416,256,15165,1,0,0:0:0:0:
416,256,15270,1,0,0:0:0:0:
416,256,15376,1,0,0:0:0:0:
304,192,15587,5,0,0:0:0:0:
382,343,15799,1,0,0:0:0:0:
224,240,16010,5,0,0:0:0:0:
224,256,16115,1,0,0:0:0:0:
224,272,16221,1,0,0:0:0:0:
96,176,16432,2,0,P|128:144|48:144,1,170
16,176,17066,5,0,0:0:0:0:
16,272,17277,2,0,L|96:224,1,85
160,304,17700,1,0,0:0:0:0:
160,304,17806,1,0,0:0:0:0:
160,304,17911,1,0,0:0:0:0:
32,176,18122,1,0,0:0:0:0:
192,144,18334,5,0,0:0:0:0:
55,46,18545,1,0,0:0:0:0:
55,46,18651,1,0,0:0:0:0:
55,46,18756,1,0,0:0:0:0:
80,256,18968,5,0,0:0:0:0:
112,96,19179,1,0,0:0:0:0:
48,192,19390,2,0,P|48:144|80:112,1,85
160,192,19813,1,0,0:0:0:0:
144,224,20024,2,0,P|144:304|224:320,1,160
256,304,20658,1,0,0:0:0:0:
368,336,21080,5,0,0:0:0:0:
368,336,21186,5,0,0:0:0:0:
368,336,21291,1,0,0:0:0:0:
272,288,21503,1,0,0:0:0:0:
224,80,21714,2,0,L|272:160,1,80
272,160,22031,1,0,0:0:0:0:
272,160,22137,1,0,0:0:0:0:
384,256,22348,5,0,0:0:0:0:
464,160,22559,1,0,0:0:0:0:
320,112,22770,1,0,0:0:0:0:
320,112,22876,1,0,0:0:0:0:
320,112,22982,1,0,0:0:0:0:
224,192,23193,1,0,0:0:0:0:
224,192,23404,6,0,P|128:208|96:128,1,170
176,128,24038,5,0,0:0:0:0:
96,96,24460,2,0,P|176:48|240:80,1,170
368,144,25306,2,0,L|448:112,1,80
282,50,25728,1,0,0:0:0:0:
386,42,25939,1,0,0:0:0:0:
272,128,26362,2,0,L|304:224,1,85
128,80,27207,1,0,0:0:0:0:
176,16,27418,2,0,L|224:112,1,85
352,128,27841,2,0,L|304:240,1,85
272,128,28263,2,0,L|240:208,1,85
128,112,28897,2,0,P|80:160|80:176,1,85
128,288,29320,1,0,0:0:0:0:
48,192,29953,1,0,0:0:0:0:
192,48,30376,2,0,P|192:112|224:112,1,85
320,176,30799,1,0,0:0:0:0:
48,112,31221,2,0,L|80:208,1,85
128,112,31644,2,0,L|160:208,1,85
240,80,32911,5,0,0:0:0:0:
240,80,33334,1,0,0:0:0:0:
320,96,33756,6,0,P|256:160|160:96,1,203.999993774414
336,128,34601,5,0,0:0:0:0:
448,304,34813,1,0,0:0:0:0:
448,304,35024,1,0,0:0:0:0:
288,288,35235,1,0,0:0:0:0:
160,96,35446,5,0,0:0:0:0:
192,336,35658,1,0,0:0:0:0:
64,144,35869,1,0,0:0:0:0:
256,208,36080,1,0,0:0:0:0:
112,336,36291,2,0,P|32:272|48:176,1,203.999993774414
240,96,36925,6,0,P|240:160|272:192,1,101.999996887207
448,336,37348,1,0,0:0:0:0:
400,64,37559,1,0,0:0:0:0:
464,240,37770,1,0,0:0:0:0:
96,128,37982,5,0,0:0:0:0:
272,192,38193,1,0,0:0:0:0:
96,304,38404,1,0,0:0:0:0:
320,160,38615,1,0,0:0:0:0:
240,48,38827,6,0,P|160:128|176:208,1,203.999993774414
224,304,39460,1,0,0:0:0:0:
48,240,39672,1,0,0:0:0:0:
352,96,39883,1,0,0:0:0:0:
336,304,40094,5,0,0:0:0:0:
112,112,40306,1,0,0:0:0:0:
288,16,40517,1,0,0:0:0:0:
224,192,40728,1,0,0:0:0:0:
224,192,40939,5,0,0:0:0:0:
416,224,41362,2,0,P|432:304|320:320,1,203.999993774414
368,272,41996,1,0,0:0:0:0:
320,96,42207,1,0,0:0:0:0:
144,128,42418,1,0,0:0:0:0:
192,80,42629,6,0,P|96:80|96:176,1,203.999993774414
240,224,43475,2,0,P|272:144|176:64,1,203.999993774414
112,240,44108,5,0,0:0:0:0:
253,192,44320,1,0,0:0:0:0:
384,144,44531,1,0,0:0:0:0:
240,48,44742,2,0,P|144:64|112:160,1,203.999993774414
368,320,45376,5,0,0:0:0:0:
176,288,45587,2,0,P|144:192|224:128,1,203.999993774414
416,176,46221,5,0,0:0:0:0:
240,32,46432,1,0,0:0:0:0:
320,256,46644,5,0,0:0:0:0:
96,176,46855,1,0,0:0:0:0:
272,352,47066,5,0,0:0:0:0:
16,336,47277,1,0,0:0:0:0:
176,144,47489,5,0,0:0:0:0:
176,144,47700,1,0,0:0:0:0:
432,192,48122,2,0,P|416:256|288:288,1,203.999993774414
336,208,48968,2,0,P|288:224|224:176,1,101.999996887207
240,96,49390,1,0,0:0:0:0:
96,32,49601,1,0,0:0:0:0:
160,192,49813,1,0,0:0:0:0:
400,48,50024,1,0,0:0:0:0:
320,192,50235,1,0,0:0:0:0:
448,160,50658,2,0,P|384:80|272:96,1,203.999993774414
208,176,51291,2,0,P|176:224|96:224,1,101.999996887207
112,224,51714,1,0,0:0:0:0:
64,48,51925,1,0,0:0:0:0:
64,336,52137,1,0,0:0:0:0:
224,128,52348,1,0,0:0:0:0:
32,224,52559,1,0,0:0:0:0:
240,336,52770,1,0,0:0:0:0:
160,80,52982,1,0,0:0:0:0:
176,288,53193,2,0,P|256:336|304:256,1,203.999993774414
320,96,53827,2,0,P|384:96|400:128,1,101.999996887207
464,304,54249,1,0,0:0:0:0:
464,304,54460,1,0,0:0:0:0:
224,304,54672,1,0,0:0:0:0:
208,304,54883,2,0,P|96:272|80:192,1,203.999993774414
176,208,55517,2,0,P|240:224|288:176,1,101.999996887207
352,64,55939,1,0,0:0:0:0:
192,192,56151,1,0,0:0:0:0:
416,160,56362,1,0,0:0:0:0:
320,336,56573,1,0,0:0:0:0:
247,128,56784,1,0,0:0:0:0:
382,304,56996,1,0,0:0:0:0:
208,112,57207,1,0,0:0:0:0:
368,256,57418,2,0,P|336:304|272:288,1,101.999996887207
96,144,57841,2,0,P|96:80|160:128,1,170
